Ошибка

(Nu-Metal / Alternative Metal / Heavy Metal / Post-Grunge) Drowning Pool - Discography (7 CDs) - 2000-2013, FLAC, APE (tracks, images+.cue)+covers, lossless

Ответить на тему
 
Автор Сообщение

The Buzzhorn

Пол: Пол:Муж

Стаж: 6 лет 2 месяца

Сообщений: 901

Германия
Рейтинг

post 13-Дек-2011 16:24 1[+]

[Цитировать] 

pic="http://s004.radikal.ru/i205/1306/a0/62127596b65a.jpg"
Drowning Pool - Discography

Жанр: Nu-Metal / Alternative Metal / Heavy Metal / Post-Grunge || Происхождение исполнителя: Dallas, Texas, United States || Год издания носителей: 2000-2013
Страна-производитель носителя: USA || Тип релиза: image+.cue, tracks+.cue || Аудио кодек: FLAC, APE || Битрейт аудио: lossless || Лейбл: Eleven Seven Music || Продолжительность: 04:29:56

Цитата:

Drowning Pool - Drowning Pool (сокращённо также - DP) - американская метал-группа из Далласа (Техас). На счету у группы - один платиновый диск, а также неоднократное попадание в хит-лист чарта Billboard 200. Наиболее известная работа группы — сингл «Bodies», вышедший в 2001 году. Образована в 1996 году. Группа была названа по фильму ужасов «Подмокшее дело» (англ. Drowning Pool). В первое время музыканты получили известность по совместному выступлению с Оззи Осборном на фестивале Ozzfest. Дебютный сингл «Bodies» получил огромный успех у слушателей - он стал «золотым» и вошёл в первую десятку одного из ведущих американских чартов. По состоянию на 2012 год, этот сингл является наиболее успешным у коллектива. В том же году Drowning Pool выпускают дебютный альбом «Sinner», получивший статус платинового. Во время тура в его поддержку от сердечной недостаточности (по другим сведениям - от другого сердечно-сосудистого заболевания) умирает вокалист Дейв Уильямс. В дальнейшем в группе сменилось ещё три вокалиста; в настоящее время группа выступает в остальном первоначальном составе.
«Drowning Pool» - одна из наиболее известных метал-групп США, музыка которых периодически попадает в национальные чарты. На начало 2012 года, музыкантами было выпущено четыре студийных альбома, тринадцать синглов и один мини-альбом.


Продолжительность: 24:35
Треклист:
01. Tear Away - 4:32
02. Bodies - 3:46
03. I Am - 4:01
04. Told You So - 4:09
05. Follow - 3:36
06. Less Than Zero - 4:32

Код:

EAC extraction logfile from 2. July 2007, 9:38 for CD
Drowning Pool / Pieces Of Nothing

Used drive  : JLMS    XJ-HD166S   Adapter: 1  ID: 1
Read mode   : Secure with NO C2, accurate stream, disable cache
Read offset correction : 12
Overread into Lead-In and Lead-Out : No

Used output format : C:\Program Files\FLAC\flac.exe   (User Defined Encoder)
                     128 kBit/s
                     Additional command line options : -V -8 -T "artist=%a" -T "title=%t" -T "album=%g" -T "date=%y" -T "tracknumber=%n" -T "genre=%m" %s

Other options      :
    Fill up missing offset samples with silence : Yes
    Delete leading and trailing silent blocks : No
    Native Win32 interface for Win NT & 2000

Track  1
     Filename E:\Torrent Downloads (In Progress)\Drowning Pool - 2000-00-00 -- Pieces Of Nothing\01 - Tear Away.wav

     Pre-gap length  0:00:02.00

     Peak level 100.0 %
     Track quality 100.0 %
     Test CRC 480A9FDE
     Copy CRC 480A9FDE
     Copy OK

Track  2
     Filename E:\Torrent Downloads (In Progress)\Drowning Pool - 2000-00-00 -- Pieces Of Nothing\02 - Bodies.wav

     Pre-gap length  0:00:00.24

     Peak level 100.0 %
     Track quality 100.0 %
     Test CRC 2A20DDF5
     Copy CRC 2A20DDF5
     Copy OK

Track  3
     Filename E:\Torrent Downloads (In Progress)\Drowning Pool - 2000-00-00 -- Pieces Of Nothing\03 - I Am.wav

     Pre-gap length  0:00:01.62

     Peak level 99.9 %
     Track quality 100.0 %
     Test CRC B41A3E7A
     Copy CRC B41A3E7A
     Copy OK

Track  4
     Filename E:\Torrent Downloads (In Progress)\Drowning Pool - 2000-00-00 -- Pieces Of Nothing\04 - Told You So.wav

     Pre-gap length  0:00:01.77

     Peak level 100.0 %
     Track quality 100.0 %
     Test CRC 0ED641DE
     Copy CRC 0ED641DE
     Copy OK

Track  5
     Filename E:\Torrent Downloads (In Progress)\Drowning Pool - 2000-00-00 -- Pieces Of Nothing\05 - Follow.wav

     Pre-gap length  0:00:02.04

     Peak level 100.0 %
     Track quality 100.0 %
     Test CRC 160A17B2
     Copy CRC 160A17B2
     Copy OK

Track  6
     Filename E:\Torrent Downloads (In Progress)\Drowning Pool - 2000-00-00 -- Pieces Of Nothing\06 - Less Than Zero.wav

     Pre-gap length  0:00:02.00

     Peak level 100.0 %
     Track quality 99.9 %
     Test CRC 8D7BDABC
     Copy CRC 8D7BDABC
     Copy OK

No errors occured

End of status report

Код:

REM GENRE Rock
REM DATE 2000
REM DISCID 3B05C306
REM COMMENT "ExactAudioCopy v0.95b4"
PERFORMER "Drowning Pool"
TITLE "Pieces Of Nothing"
FILE "01 - Tear Away.wav" WAVE
  TRACK 01 AUDIO
    TITLE "Tear Away"
    PERFORMER "Drowning Pool"
    INDEX 01 00:00:00
  TRACK 02 AUDIO
    TITLE "Bodies"
    PERFORMER "Drowning Pool"
    INDEX 00 04:31:64
FILE "02 - Bodies.wav" WAVE
    INDEX 01 00:00:00
  TRACK 03 AUDIO
    TITLE "I Am"
    PERFORMER "Drowning Pool"
    INDEX 00 03:44:28
FILE "03 - I Am.wav" WAVE
    INDEX 01 00:00:00
  TRACK 04 AUDIO
    TITLE "Told You So"
    PERFORMER "Drowning Pool"
    INDEX 00 03:59:44
FILE "04 - Told You So.wav" WAVE
    INDEX 01 00:00:00
  TRACK 05 AUDIO
    TITLE "Follow"
    PERFORMER "Drowning Pool"
    INDEX 00 04:06:45
FILE "05 - Follow.wav" WAVE
    INDEX 01 00:00:00
  TRACK 06 AUDIO
    TITLE "Less Than Zero"
    PERFORMER "Drowning Pool"
    INDEX 00 03:34:06
FILE "06 - Less Than Zero.wav" WAVE
    INDEX 01 00:00:00
Продолжительность: 00.37.28
Треклист:
01. Sinner (2:27)
02. Bodies (3:21)
03. Tear Away (4:14)
04. All Over Me (3:12)
05. Reminded (3:24)
06. Pity (2:52)
07. Mute (3:19)
08. I Am (3:49)
09. Follow (3:20)
10. Told You So (3:06)
11. Sermon (4:19)

Код:

Exact Audio Copy V0.99 prebeta 5 from 4. May 2009

EAC extraction logfile from 31. October 2010, 2:34

Drowning Pool / Sinner

Used drive  : Optiarc DVD RW AD-7200S   Adapter: 1  ID: 0

Read mode               : Secure
Utilize accurate stream : Yes
Defeat audio cache      : Yes
Make use of C2 pointers : No

Read offset correction                      : 48
Overread into Lead-In and Lead-Out          : No
Fill up missing offset samples with silence : Yes
Delete leading and trailing silent blocks   : No
Null samples used in CRC calculations       : Yes
Used interface                              : Installed external ASPI interface
Gap handling                                : Appended to previous track

Used output format              : User Defined Encoder
Selected bitrate                : 1024 kBit/s
Quality                         : High
Add ID3 tag                     : No
Command line compressor         : C:\Program Files\Exact Audio Copy\Flac\flac.exe
Additional command line options : -V -8 -T "artist=%a" -T "title=%t" -T "album=%g" -T "date=%y" -T "tracknumber=%n" -T "genre=%m" -T "comment=ExactAudioCopy v0.99pb5" %s

TOC of the extracted CD

     Track |   Start  |  Length  | Start sector | End sector
    ---------------------------------------------------------
        1  |  0:00.00 |  2:27.25 |         0    |    11049
        2  |  2:27.25 |  3:21.72 |     11050    |    26196
        3  |  5:49.22 |  4:14.15 |     26197    |    45261
        4  | 10:03.37 |  3:12.45 |     45262    |    59706
        5  | 13:16.07 |  3:24.05 |     59707    |    75011
        6  | 16:40.12 |  2:52.43 |     75012    |    87954
        7  | 19:32.55 |  3:20.00 |     87955    |   102954
        8  | 22:52.55 |  3:49.22 |    102955    |   120151
        9  | 26:42.02 |  3:20.63 |    120152    |   135214
       10  | 30:02.65 |  3:06.02 |    135215    |   149166
       11  | 33:08.67 |  4:19.28 |    149167    |   168619

Track  1

     Filename D:\EACRip\Drowning Pool - Sinner (2001) [FLAC]\01 - Sinner.wav

     Pre-gap length  0:00:02.00

     Peak level 98.8 %
     Track quality 100.0 %
     Test CRC 0688E7C4
     Copy CRC 0688E7C4
     Accurately ripped (confidence 37)  [09CF0307]
     Copy OK

Track  2

     Filename D:\EACRip\Drowning Pool - Sinner (2001) [FLAC]\02 - Bodies.wav

     Peak level 98.8 %
     Track quality 100.0 %
     Test CRC BB5E74B1
     Copy CRC BB5E74B1
     Accurately ripped (confidence 36)  [D2025632]
     Copy OK

Track  3

     Filename D:\EACRip\Drowning Pool - Sinner (2001) [FLAC]\03 - Tear Away.wav

     Peak level 98.8 %
     Track quality 100.0 %
     Test CRC B9402A59
     Copy CRC B9402A59
     Accurately ripped (confidence 36)  [B7DB1982]
     Copy OK

Track  4

     Filename D:\EACRip\Drowning Pool - Sinner (2001) [FLAC]\04 - All Over Me.wav

     Pre-gap length  0:00:00.02

     Peak level 98.8 %
     Track quality 99.9 %
     Test CRC 6399CA2A
     Copy CRC 6399CA2A
     Accurately ripped (confidence 37)  [8BF9EBC6]
     Copy OK

Track  5

     Filename D:\EACRip\Drowning Pool - Sinner (2001) [FLAC]\05 - Reminded.wav

     Peak level 98.9 %
     Track quality 100.0 %
     Test CRC 1A0A3229
     Copy CRC 1A0A3229
     Accurately ripped (confidence 37)  [CC80F846]
     Copy OK

Track  6

     Filename D:\EACRip\Drowning Pool - Sinner (2001) [FLAC]\06 - Pity.wav

     Peak level 98.8 %
     Track quality 100.0 %
     Test CRC 611E5720
     Copy CRC 611E5720
     Accurately ripped (confidence 36)  [A828702A]
     Copy OK

Track  7

     Filename D:\EACRip\Drowning Pool - Sinner (2001) [FLAC]\07 - Mute.wav

     Peak level 98.8 %
     Track quality 100.0 %
     Test CRC 949BC192
     Copy CRC 949BC192
     Accurately ripped (confidence 37)  [419E8190]
     Copy OK

Track  8

     Filename D:\EACRip\Drowning Pool - Sinner (2001) [FLAC]\08 - I Am.wav

     Peak level 98.9 %
     Track quality 100.0 %
     Test CRC 9618AA1E
     Copy CRC 9618AA1E
     Accurately ripped (confidence 37)  [D629FC78]
     Copy OK

Track  9

     Filename D:\EACRip\Drowning Pool - Sinner (2001) [FLAC]\09 - Follow.wav

     Pre-gap length  0:00:00.07

     Peak level 100.0 %
     Track quality 100.0 %
     Test CRC 0C9FD28E
     Copy CRC 0C9FD28E
     Accurately ripped (confidence 37)  [7534A9EC]
     Copy OK

Track 10

     Filename D:\EACRip\Drowning Pool - Sinner (2001) [FLAC]\10 - Told You So.wav

     Peak level 98.9 %
     Track quality 100.0 %
     Test CRC B5B74F4B
     Copy CRC B5B74F4B
     Accurately ripped (confidence 37)  [375056E9]
     Copy OK

Track 11

     Filename D:\EACRip\Drowning Pool - Sinner (2001) [FLAC]\11 - Sermon.wav

     Peak level 98.8 %
     Track quality 100.0 %
     Test CRC BE805A1E
     Copy CRC BE805A1E
     Accurately ripped (confidence 37)  [F9BEAF1A]
     Copy OK

All tracks accurately ripped

No errors occurred

End of status report

Код:

REM GENRE Metal
REM DATE 2001
REM DISCID 8608C80B
REM COMMENT "ExactAudioCopy v0.99pb5"
PERFORMER "Drowning Pool"
TITLE "Sinner"
FILE "01 - Sinner.wav" WAVE
  TRACK 01 AUDIO
    TITLE "Sinner"
    PERFORMER "Drowning Pool"
    INDEX 01 00:00:00
FILE "02 - Bodies.wav" WAVE
  TRACK 02 AUDIO
    TITLE "Bodies"
    PERFORMER "Drowning Pool"
    INDEX 01 00:00:00
FILE "03 - Tear Away.wav" WAVE
  TRACK 03 AUDIO
    TITLE "Tear Away"
    PERFORMER "Drowning Pool"
    INDEX 01 00:00:00
  TRACK 04 AUDIO
    TITLE "All Over Me"
    PERFORMER "Drowning Pool"
    INDEX 00 04:14:12
FILE "04 - All Over Me.wav" WAVE
    INDEX 01 00:00:00
FILE "05 - Reminded.wav" WAVE
  TRACK 05 AUDIO
    TITLE "Reminded"
    PERFORMER "Drowning Pool"
    INDEX 01 00:00:00
FILE "06 - Pity.wav" WAVE
  TRACK 06 AUDIO
    TITLE "Pity"
    PERFORMER "Drowning Pool"
    INDEX 01 00:00:00
FILE "07 - Mute.wav" WAVE
  TRACK 07 AUDIO
    TITLE "Mute"
    PERFORMER "Drowning Pool"
    INDEX 01 00:00:00
FILE "08 - I Am.wav" WAVE
  TRACK 08 AUDIO
    TITLE "I Am"
    PERFORMER "Drowning Pool"
    INDEX 01 00:00:00
  TRACK 09 AUDIO
    TITLE "Follow"
    PERFORMER "Drowning Pool"
    INDEX 00 03:49:13
FILE "09 - Follow.wav" WAVE
    INDEX 01 00:00:00
FILE "10 - Told You So.wav" WAVE
  TRACK 10 AUDIO
    TITLE "Told You So"
    PERFORMER "Drowning Pool"
    INDEX 01 00:00:00
FILE "11 - Sermon.wav" WAVE
  TRACK 11 AUDIO
    TITLE "Sermon"
    PERFORMER "Drowning Pool"
    INDEX 01 00:00:00
Продолжительность: 38:33
Треклист:
1. Think
2. Step Up
3. Numb
4. This Life
5. Nothingness"
6. Bringing Me Down
7. Love and War
8. Forget
9. Cast Me Aside
10. Killin' Me
11. Hate

Код:

Отчёт EAC об извлечении, выполненном 1. марта 2009, 15:51 для диска:
 Drowning Pool / Desensitized

Дисковод: Optiarc DVD RW AD-7170A Adapter: 1 ID: 0
 Режим чтения: Точный (C2: нет, Точный поток: да, Отключение кэша: да)
 Коррекция смещения при чтении: 48
 Экстрачтение областей Lead-in и Lead-out : Нет

Выходной формат: Monkey's Audio Lossless Encoder v3.99 DLL
 High Lossless Compression

Другие параметры:
 Заполнение пропущенных сэмплов тишиной : Да
 Удаление блоков с тишиной в начале и конце : Нет
 'Родной' Win32-интерфейс для Win NT/2000

Статус диапазона и ошибки
 Выбранный диапазон
 Имя файла C:\Documents and Settings\Andey Petrovich\Мои документы\Мои рисунки\Drowning Pool - Desensitized.ape

 Пиковый уровень 100.0 %
 Качество диапазона 100.0 %
 CRC 53ABC10E
 Копирование... OK

Ошибок не произошло

Конец отчёта

Код:

PERFORMER "Drowning Pool"
TITLE "Desensitized"
FILE "Drowning Pool - Desensitized.ape" WAVE
  TRACK 01 AUDIO
    TITLE "Think"
    PERFORMER "Drowning Pool"
    INDEX 01 00:00:00
  TRACK 02 AUDIO
    TITLE "Step Up"
    PERFORMER "Drowning Pool"
    INDEX 01 03:32:25
  TRACK 03 AUDIO
    TITLE "Numb"
    PERFORMER "Drowning Pool"
    INDEX 01 06:49:47
  TRACK 04 AUDIO
    TITLE "This Life"
    PERFORMER "Drowning Pool"
    INDEX 01 10:21:45
  TRACK 05 AUDIO
    TITLE "Nothingness"
    PERFORMER "Drowning Pool"
    INDEX 01 14:03:72
  TRACK 06 AUDIO
    TITLE "Bringing Me Down"
    PERFORMER "Drowning Pool"
    INDEX 01 17:27:27
  TRACK 07 AUDIO
    TITLE "Love and War"
    PERFORMER "Drowning Pool"
    INDEX 01 20:34:62
  TRACK 08 AUDIO
    TITLE "Forget"
    PERFORMER "Drowning Pool"
    INDEX 01 24:12:50
  TRACK 09 AUDIO
    TITLE "Cast Me Aside"
    PERFORMER "Drowning Pool"
    INDEX 01 27:35:02
  TRACK 10 AUDIO
    TITLE "Killin' Me"
    PERFORMER "Drowning Pool"
    INDEX 01 31:47:50
  TRACK 11 AUDIO
    TITLE "Hate"
    PERFORMER "Drowning Pool"
    INDEX 01 34:55:07
Продолжительность: 49:02
Треклист:
1) Full circle
2) Enemy
3) Shame
4) Reborn
5) Reason im alive
6) Soldiers
7) Paralyzed
8) Upside down
9) 37 stitches
10) No more
11) Love X2
12) Duet
13) Rebel Yell (Billy Idol cover)

Код:

Exact Audio Copy V0.99 prebeta 1 from 25. May 2007

Отчёт EAC об извлечении, выполненном 2. декабря 2007, 6:06

Drowning Pool / Full Circle

Дисковод: BENQ DVD DD DW1620 Adapter: 5 ID: 0

Режим чтения : Достоверность
 Использование точного потока : Да
 Отключение кэша аудио : Нет
 Использование указателей C2 : Нет

Коррекция смещения при чтении : 618
 Способность читать области Lead-in и Lead-out : Нет
 Заполнение пропущенных сэмплов тишиной : Да
 Удаление блоков с тишиной в начале и конце : Нет
 Интерфейс : Встроенный Win32-интерфейс для Win NT/2000

Выходной формат : Внутренние WAV-операции
 Формат сэмплов : 44.100 Гц; 16 бит; стерео

TOC извлечённого CD

 Трек | Старт | Длительность | Начальный сектор | Конечный сектор
 ---------------------------------------------------------------------
 1 | 0:00.00 | 3:18.43 | 0 | 14892
 2 | 3:18.43 | 3:26.15 | 14893 | 30357
 3 | 6:44.58 | 3:10.58 | 30358 | 44665
 4 | 9:55.41 | 4:09.15 | 44666 | 63355
 5 | 14:04.56 | 3:49.59 | 63356 | 80589
 6 | 17:54.40 | 3:31.38 | 80590 | 96452
 7 | 21:26.03 | 3:42.15 | 96453 | 113117
 8 | 25:08.18 | 4:18.16 | 113118 | 132483
 9 | 29:26.34 | 3:49.73 | 132484 | 149731
 10 | 33:16.32 | 4:36.08 | 149732 | 170439
 11 | 37:52.40 | 3:26.31 | 170440 | 185920
 12 | 41:18.71 | 3:21.14 | 185921 | 201009
 13 | 44:40.10 | 4:22.17 | 201010 | 220676

Характеристики диапазона извлечения и сообщения об ошибках

Выбранный диапазон

 Имя файла C:\Downloads\EAC\Drowning Pool - Full Circle.wav

 Пиковый уровень 100.0 %
 Качество диапазона 100.0 %
 CRC копии 1B76CDBD
 Копирование... OK

Ошибок не произошло

Конец отчёта

Код:

REM GENRE "Alt. Rock"
REM DATE 2007
REM DISCID BD0B7E0D
REM COMMENT "ExactAudioCopy v0.99pb1"
PERFORMER "Drowning Pool"
TITLE "Full Circle"
FILE "Drowning Pool - Full Circle.APE" WAVE
  TRACK 01 AUDIO
    TITLE "Full Circle"
    PERFORMER "Drowning Pool"
    INDEX 01 00:00:00
  TRACK 02 AUDIO
    TITLE "Enemy"
    PERFORMER "Drowning Pool"
    FLAGS DCP
    INDEX 00 03:15:56
    INDEX 01 03:18:43
  TRACK 03 AUDIO
    TITLE "Shame"
    PERFORMER "Drowning Pool"
    FLAGS DCP
    INDEX 00 06:41:58
    INDEX 01 06:44:58
  TRACK 04 AUDIO
    TITLE "Reborn"
    PERFORMER "Drowning Pool"
    FLAGS DCP
    INDEX 00 09:52:68
    INDEX 01 09:55:41
  TRACK 05 AUDIO
    TITLE "Reason I'm Alive"
    PERFORMER "Drowning Pool"
    FLAGS DCP
    INDEX 00 14:02:54
    INDEX 01 14:04:56
  TRACK 06 AUDIO
    TITLE "Soldiers"
    PERFORMER "Drowning Pool"
    FLAGS DCP
    INDEX 00 17:50:74
    INDEX 01 17:54:40
  TRACK 07 AUDIO
    TITLE "Paralyzed"
    PERFORMER "Drowning Pool"
    FLAGS DCP
    INDEX 00 21:22:69
    INDEX 01 21:26:03
  TRACK 08 AUDIO
    TITLE "Upside Down"
    PERFORMER "Drowning Pool"
    FLAGS DCP
    INDEX 00 25:04:65
    INDEX 01 25:08:18
  TRACK 09 AUDIO
    TITLE "37 Stitches"
    PERFORMER "Drowning Pool"
    FLAGS DCP
    INDEX 00 29:24:21
    INDEX 01 29:26:34
  TRACK 10 AUDIO
    TITLE "No More"
    PERFORMER "Drowning Pool"
    FLAGS DCP
    INDEX 00 33:12:65
    INDEX 01 33:16:32
  TRACK 11 AUDIO
    TITLE "Love X2"
    PERFORMER "Drowning Pool"
    FLAGS DCP
    INDEX 00 37:50:06
    INDEX 01 37:52:40
  TRACK 12 AUDIO
    TITLE "Duet"
    PERFORMER "Drowning Pool"
    FLAGS DCP
    INDEX 00 41:15:71
    INDEX 01 41:18:71
  TRACK 13 AUDIO
    TITLE "Rebel Yell"
    PERFORMER "Drowning Pool"
    FLAGS DCP
    INDEX 00 44:37:19
    INDEX 01 44:40:10
Продолжительность: 00:55:16
Треклист:
01. Sinner
02. Full Circle
03. Enemy
04. Step Up
05. Shame
06. Reminded
07. Soldiers
08. Reborn
09. Pity
10. Bodies
11. Tear Away
12. 37 Stitches (Acoustic)
13. Shame (Acoustic)

Код:

Exact Audio Copy V0.99 prebeta 4 from 23. January 2008

EAC extraction logfile from 23. April 2009, 16:53

Drowning Pool / Loudest Common Denominator

Used drive  : HL-DT-STDVD+-RW GH30N   Adapter: 0  ID: 2

Read mode               : Secure
Utilize accurate stream : Yes
Defeat audio cache      : Yes
Make use of C2 pointers : No

Read offset correction                      : 102
Overread into Lead-In and Lead-Out          : No
Fill up missing offset samples with silence : Yes
Delete leading and trailing silent blocks   : No
Null samples used in CRC calculations       : Yes
Used interface                              : Native Win32 interface for Win NT & 2000
Gap handling                                : Appended to previous track

Used output format              : User Defined Encoder
Selected bitrate                : 320 kBit/s
Quality                         : High
Add ID3 tag                     : No
Command line compressor         : C:\Program Files (x86)\Exact Audio Copy\Flac\flac.exe
Additional command line options : -V -8 -T "artist=%a" -T "title=%t" -T "album=%g" -T "date=%y" -T "tracknumber=%n" -T "genre=%m" %s

TOC of the extracted CD

     Track |   Start  |  Length  | Start sector | End sector
    ---------------------------------------------------------
        1  |  0:00.00 |  2:49.00 |         0    |    12674
        2  |  2:49.00 |  3:11.08 |     12675    |    27007
        3  |  6:00.08 |  3:34.10 |     27008    |    43067
        4  |  9:34.18 |  3:45.40 |     43068    |    59982
        5  | 13:19.58 |  3:14.15 |     59983    |    74547
        6  | 16:33.73 |  3:41.23 |     74548    |    91145
        7  | 20:15.21 |  5:45.67 |     91146    |   117087
        8  | 26:01.13 |  4:12.50 |    117088    |   136037
        9  | 30:13.63 |  3:49.00 |    136038    |   153212
       10  | 34:02.63 | 10:02.21 |    153213    |   198383
       11  | 44:05.09 |  5:03.43 |    198384    |   221151
       12  | 49:08.52 |  3:45.41 |    221152    |   238067
       13  | 52:54.18 |  4:25.02 |    238068    |   257944

Track  1

     Filename C:\EACRips\Drowning Pool - 2009 - Loudest Common Denominator\01 - Sinner.wav

     Pre-gap length  0:00:02.00

     Peak level 100.0 %
     Track quality 99.9 %
     Test CRC DAE71AD4
     Copy CRC DAE71AD4
     Accurately ripped (confidence 1)  [F5E896D5]
     Copy OK

Track  2

     Filename C:\EACRips\Drowning Pool - 2009 - Loudest Common Denominator\02 - Full Circle.wav

     Peak level 100.0 %
     Track quality 100.0 %
     Test CRC 772D3B3D
     Copy CRC 772D3B3D
     Accurately ripped (confidence 1)  [585C0CA3]
     Copy OK

Track  3

     Filename C:\EACRips\Drowning Pool - 2009 - Loudest Common Denominator\03 - Enemy.wav

     Peak level 100.0 %
     Track quality 100.0 %
     Test CRC B9167324
     Copy CRC B9167324
     Accurately ripped (confidence 1)  [6989DD3F]
     Copy OK

Track  4

     Filename C:\EACRips\Drowning Pool - 2009 - Loudest Common Denominator\04 - Step Up.wav

     Peak level 100.0 %
     Track quality 100.0 %
     Test CRC FE56219D
     Copy CRC FE56219D
     Accurately ripped (confidence 1)  [AED2B3FA]
     Copy OK

Track  5

     Filename C:\EACRips\Drowning Pool - 2009 - Loudest Common Denominator\05 - Shame.wav

     Peak level 100.0 %
     Track quality 100.0 %
     Test CRC B6701D16
     Copy CRC B6701D16
     Accurately ripped (confidence 1)  [CB174445]
     Copy OK

Track  6

     Filename C:\EACRips\Drowning Pool - 2009 - Loudest Common Denominator\06 - Reminded.wav

     Peak level 100.0 %
     Track quality 100.0 %
     Test CRC D3AC6648
     Copy CRC D3AC6648
     Accurately ripped (confidence 1)  [280975B2]
     Copy OK

Track  7

     Filename C:\EACRips\Drowning Pool - 2009 - Loudest Common Denominator\07 - Soldiers.wav

     Peak level 100.0 %
     Track quality 100.0 %
     Test CRC 64F030A2
     Copy CRC 64F030A2
     Accurately ripped (confidence 1)  [3F8914CC]
     Copy OK

Track  8

     Filename C:\EACRips\Drowning Pool - 2009 - Loudest Common Denominator\08 - Reborn.wav

     Peak level 100.0 %
     Track quality 99.9 %
     Test CRC 460AFA7A
     Copy CRC 460AFA7A
     Accurately ripped (confidence 1)  [75993115]
     Copy OK

Track  9

     Filename C:\EACRips\Drowning Pool - 2009 - Loudest Common Denominator\09 - Pity.wav

     Peak level 100.0 %
     Track quality 100.0 %
     Test CRC 345D52B3
     Copy CRC 345D52B3
     Accurately ripped (confidence 1)  [A5F8D111]
     Copy OK

Track 10

     Filename C:\EACRips\Drowning Pool - 2009 - Loudest Common Denominator\10 - Bodies.wav

     Peak level 100.0 %
     Track quality 100.0 %
     Test CRC 22DB8975
     Copy CRC 22DB8975
     Accurately ripped (confidence 1)  [8132AF0C]
     Copy OK

Track 11

     Filename C:\EACRips\Drowning Pool - 2009 - Loudest Common Denominator\11 - Tear Away.wav

     Peak level 100.0 %
     Track quality 100.0 %
     Test CRC 7048E761
     Copy CRC 7048E761
     Accurately ripped (confidence 1)  [96AE76B6]
     Copy OK

Track 12

     Filename C:\EACRips\Drowning Pool - 2009 - Loudest Common Denominator\12 - 37 Stitches (Acoustic Demo).wav

     Pre-gap length  0:00:05.01

     Peak level 94.9 %
     Track quality 100.0 %
     Test CRC 27785F24
     Copy CRC 27785F24
     Accurately ripped (confidence 1)  [7A3FA783]
     Copy OK

Track 13

     Filename C:\EACRips\Drowning Pool - 2009 - Loudest Common Denominator\13 - Shame (Acoustic Demo).wav

     Pre-gap length  0:00:02.45

     Peak level 96.6 %
     Track quality 100.0 %
     Test CRC 01633D6E
     Copy CRC 01633D6E
     Accurately ripped (confidence 1)  [72DBE816]
     Copy OK

All tracks accurately ripped

No errors occurred

End of status report

Код:

REM GENRE Metal
REM DATE 2009
REM DISCID AF0D6F0D
REM COMMENT "ExactAudioCopy v0.99pb4"
FILE "01 - Sinner.wav" WAVE
  TRACK 01 AUDIO
    INDEX 01 00:00:00
FILE "02 - Full Circle.wav" WAVE
  TRACK 02 AUDIO
    INDEX 01 00:00:00
FILE "03 - Enemy.wav" WAVE
  TRACK 03 AUDIO
    INDEX 01 00:00:00
FILE "04 - Step Up.wav" WAVE
  TRACK 04 AUDIO
    INDEX 01 00:00:00
FILE "05 - Shame.wav" WAVE
  TRACK 05 AUDIO
    INDEX 01 00:00:00
FILE "06 - Reminded.wav" WAVE
  TRACK 06 AUDIO
    INDEX 01 00:00:00
FILE "07 - Soldiers.wav" WAVE
  TRACK 07 AUDIO
    INDEX 01 00:00:00
FILE "08 - Reborn.wav" WAVE
  TRACK 08 AUDIO
    INDEX 01 00:00:00
FILE "09 - Pity.wav" WAVE
  TRACK 09 AUDIO
    INDEX 01 00:00:00
FILE "10 - Bodies.wav" WAVE
  TRACK 10 AUDIO
    INDEX 01 00:00:00
FILE "11 - Tear Away.wav" WAVE
  TRACK 11 AUDIO
    INDEX 01 00:00:00
  TRACK 12 AUDIO
    INDEX 00 04:58:42
FILE "12 - 37 Stitches (Acoustic Demo).wav" WAVE
    INDEX 01 00:00:00
  TRACK 13 AUDIO
    INDEX 00 03:43:07
FILE "13 - Shame (Acoustic Demo).wav" WAVE
    INDEX 01 00:00:00
Продолжительность: 39:36
Треклист:
01. Let The Sin Begin (3:37)
02. Feel Like I Do (3:33)
03. Turn So Cold (3:38)
04. Regret (3:17)
05. Over My Head (3:26)
06. All About Me (3:41)
07. More Than Worthless (3:56)
08. Children Of The Gun (3:31)
09. Alcohol Blind (4:11)
10. Horns Up (3:45)
11. King Zero (2:59)

Код:

Exact Audio Copy V0.99 prebeta 4 from 23. January 2008

EAC extraction logfile from 23. April 2010, 20:34

Drowning Pool / Drowning Pool

Used drive  : ATAPI   DVD A  DH16A6L-C   Adapter: 0  ID: 1

Read mode               : Secure
Utilize accurate stream : Yes
Defeat audio cache      : Yes
Make use of C2 pointers : No

Read offset correction                      : 6
Overread into Lead-In and Lead-Out          : No
Fill up missing offset samples with silence : Yes
Delete leading and trailing silent blocks   : No
Null samples used in CRC calculations       : Yes
Used interface                              : Native Win32 interface for Win NT & 2000
Gap handling                                : Appended to previous track

Used output format              : User Defined Encoder
Selected bitrate                : 320 kBit/s
Quality                         : High
Add ID3 tag                     : No
Command line compressor         : C:\Program Files (x86)\FLAC\flac.exe
Additional command line options : -V -8 -T "artist=%a" -T "title=%t" -T "album=%g" -T "date=%y" -T "tracknumber=%n" -T "genre=%m" %s

TOC of the extracted CD

     Track |   Start  |  Length  | Start sector | End sector
    ---------------------------------------------------------
        1  |  0:00.00 |  3:36.57 |         0    |    16256
        2  |  3:36.57 |  3:33.10 |     16257    |    32241
        3  |  7:09.67 |  3:38.33 |     32242    |    48624
        4  | 10:48.25 |  3:16.61 |     48625    |    63385
        5  | 14:05.11 |  3:26.17 |     63386    |    78852
        6  | 17:31.28 |  3:41.04 |     78853    |    95431
        7  | 21:12.32 |  3:56.08 |     95432    |   113139
        8  | 25:08.40 |  3:31.31 |    113140    |   128995
        9  | 28:39.71 |  4:11.09 |    128996    |   147829
       10  | 32:51.05 |  3:45.35 |    147830    |   164739
       11  | 36:36.40 |  2:59.20 |    164740    |   178184

Track  1

     Filename C:\Users\Anthony\Desktop\Downloads\01-Track 1.wav

     Pre-gap length  0:00:02.00

     Peak level 100.0 %
     Track quality 100.0 %
     Copy CRC 5305A37A
     Track not present in AccurateRip database
     Copy OK

Track  2

     Filename C:\Users\Anthony\Desktop\Downloads\02-Track 2.wav

     Peak level 100.0 %
     Track quality 100.0 %
     Copy CRC 6ADDFCEE
     Track not present in AccurateRip database
     Copy OK

Track  3

     Filename C:\Users\Anthony\Desktop\Downloads\03-Track 3.wav

     Peak level 100.0 %
     Track quality 100.0 %
     Copy CRC 68ACBB0B
     Track not present in AccurateRip database
     Copy OK

Track  4

     Filename C:\Users\Anthony\Desktop\Downloads\04-Track 4.wav

     Peak level 100.0 %
     Track quality 100.0 %
     Copy CRC 66A69989
     Track not present in AccurateRip database
     Copy OK

Track  5

     Filename C:\Users\Anthony\Desktop\Downloads\05-Track 5.wav

     Peak level 100.0 %
     Track quality 99.9 %
     Copy CRC 4AA0DE0B
     Track not present in AccurateRip database
     Copy OK

Track  6

     Filename C:\Users\Anthony\Desktop\Downloads\06-Track 6.wav

     Peak level 100.0 %
     Track quality 100.0 %
     Copy CRC ABC0068B
     Track not present in AccurateRip database
     Copy OK

Track  7

     Filename C:\Users\Anthony\Desktop\Downloads\07-Track 7.wav

     Peak level 100.0 %
     Track quality 99.9 %
     Copy CRC BB9EAA8A
     Track not present in AccurateRip database
     Copy OK

Track  8

     Filename C:\Users\Anthony\Desktop\Downloads\08-Track 8.wav

     Peak level 100.0 %
     Track quality 100.0 %
     Copy CRC 8886EBE7
     Track not present in AccurateRip database
     Copy OK

Track  9

     Filename C:\Users\Anthony\Desktop\Downloads\09-Track 9.wav

     Peak level 100.0 %
     Track quality 100.0 %
     Copy CRC AF90078E
     Track not present in AccurateRip database
     Copy OK

Track 10

     Filename C:\Users\Anthony\Desktop\Downloads\10-Track 10.wav

     Peak level 100.0 %
     Track quality 99.9 %
     Copy CRC 40B96D14
     Track not present in AccurateRip database
     Copy OK

Track 11

     Filename C:\Users\Anthony\Desktop\Downloads\11-Track 11.wav

     Peak level 100.0 %
     Track quality 100.0 %
     Copy CRC 56761DED
     Track not present in AccurateRip database
     Copy OK

None of the tracks are present in the AccurateRip database

No errors occurred

End of status report

Код:

REM GENRE Metal
REM DATE 2010
REM DISCID 8409470B
REM COMMENT "ExactAudioCopy v0.99pb4"
PERFORMER "Drowning Pool"
TITLE "Drowning Pool"
FILE "01 - Let The Sin Begin.wav" WAVE
  TRACK 01 AUDIO
    TITLE "Let The Sin Begin"
    PERFORMER "Drowning Pool"
    INDEX 01 00:00:00
FILE "02 - Feel Like I Do.wav" WAVE
  TRACK 02 AUDIO
    TITLE "Feel Like I Do"
    PERFORMER "Drowning Pool"
    INDEX 01 00:00:00
FILE "03 - Turn So Cold.wav" WAVE
  TRACK 03 AUDIO
    TITLE "Turn So Cold"
    PERFORMER "Drowning Pool"
    INDEX 01 00:00:00
FILE "04 - Regret.wav" WAVE
  TRACK 04 AUDIO
    TITLE "Regret"
    PERFORMER "Drowning Pool"
    INDEX 01 00:00:00
FILE "05 - Over My Head.wav" WAVE
  TRACK 05 AUDIO
    TITLE "Over My Head"
    PERFORMER "Drowning Pool"
    INDEX 01 00:00:00
FILE "06 - All About Me.wav" WAVE
  TRACK 06 AUDIO
    TITLE "All About Me"
    PERFORMER "Drowning Pool"
    INDEX 01 00:00:00
FILE "07 - More Than Worthless.wav" WAVE
  TRACK 07 AUDIO
    TITLE "More Than Worthless"
    PERFORMER "Drowning Pool"
    INDEX 01 00:00:00
FILE "08 - Children Of The Gun.wav" WAVE
  TRACK 08 AUDIO
    TITLE "Children Of The Gun"
    PERFORMER "Drowning Pool"
    INDEX 01 00:00:00
FILE "09 - Alcohol Blind.wav" WAVE
  TRACK 09 AUDIO
    TITLE "Alcohol Blind"
    PERFORMER "Drowning Pool"
    INDEX 01 00:00:00
FILE "10 - Horns Up.wav" WAVE
  TRACK 10 AUDIO
    TITLE "Horns Up"
    PERFORMER "Drowning Pool"
    INDEX 01 00:00:00
FILE "11 - King Zero.wav" WAVE
  TRACK 11 AUDIO
    TITLE "King Zero"
    PERFORMER "Drowning Pool"
    INDEX 01 00:00:00
Продолжительность: 46:39
Треклист:
01. Anytime Anyplace (03:36)
02. Die For Nothing (03:13)
03. One Finger And A Fist (03:06)
04. Digging These Holes (03:48)
05. Saturday Night (03:53)
06. Low Crawl (03:40)
07. Life Of Misery (03:50)
08. Broken Again (03:20)
09. Understand (03:41)
10. Bleed With You (03:31)
11. Skip To The End (03:39)
12. In Memory Of (03:57)
13. Blindfold (03:11)

Код:

Exact Audio Copy V1.0 beta 3 from 29. August 2011

EAC extraction logfile from 20. April 2013, 7:07

Drowning Pool / Resilience (Best Buy Exclusive Edition)

Used drive  : PLEXTOR DVDR   PX-L890SA   Adapter: 1  ID: 0

Read mode               : Secure
Utilize accurate stream : Yes
Defeat audio cache      : Yes
Make use of C2 pointers : No

Read offset correction                      : 6
Overread into Lead-In and Lead-Out          : No
Fill up missing offset samples with silence : Yes
Delete leading and trailing silent blocks   : No
Null samples used in CRC calculations       : Yes
Used interface                              : Native Win32 interface for Win NT & 2000
Gap handling                                : Appended to previous track

Used output format              : User Defined Encoder
Selected bitrate                : 1024 kBit/s
Quality                         : High
Add ID3 tag                     : No
Command line compressor         : C:\Program Files (x86)\Exact Audio Copy\Flac\flac.exe
Additional command line options : -8 -V -T "ARTIST=%artist%" -T "TITLE=%title%" -T "ALBUM=%albumtitle%" -T "DATE=%year%" -T "TRACKNUMBER=%tracknr%" -T "GENRE=%genre%" -T "PERFORMER=%albuminterpret%" -T "COMPOSER=%composer%" %haslyrics%--tag-from-file=LYRICS="%lyricsfile%"%haslyrics% -T "ALBUMARTIST=%albumartist%" -T "DISCNUMBER=%cdnumber%" -T "TOTALDISCS=%totalcds%" -T "TOTALTRACKS=%numtracks%" -T "COMMENT=%comment%" %source% -o %dest%

TOC of the extracted CD

     Track |   Start  |  Length  | Start sector | End sector
    ---------------------------------------------------------
        1  |  0:00.00 |  3:37.35 |         0    |    16309
        2  |  3:37.35 |  3:13.73 |     16310    |    30857
        3  |  6:51.33 |  3:07.63 |     30858    |    44945
        4  |  9:59.21 |  3:48.24 |     44946    |    62069
        5  | 13:47.45 |  3:54.32 |     62070    |    79651
        6  | 17:42.02 |  3:40.56 |     79652    |    96207
        7  | 21:22.58 |  3:51.08 |     96208    |   113540
        8  | 25:13.66 |  3:20.70 |    113541    |   128610
        9  | 28:34.61 |  3:42.38 |    128611    |   145298
       10  | 32:17.24 |  3:32.11 |    145299    |   161209
       11  | 35:49.35 |  3:39.66 |    161210    |   177700
       12  | 39:29.26 |  3:58.00 |    177701    |   195550
       13  | 43:27.26 |  3:11.54 |    195551    |   209929

Track  1

     Filename E:\My Music\Drowning Pool - 2013 - Resilience (Best Buy Exclusive Edition) [FLAC]\01 - Anytime Anyplace.wav

     Pre-gap length  0:00:02.00

     Peak level 99.8 %
     Extraction speed 2.6 X
     Track quality 99.9 %
     Test CRC 28E1C6A7
     Copy CRC 28E1C6A7
     Track not present in AccurateRip database
     Copy OK

Track  2

     Filename E:\My Music\Drowning Pool - 2013 - Resilience (Best Buy Exclusive Edition) [FLAC]\02 - Die For Nothing.wav

     Pre-gap length  0:00:00.76

     Peak level 99.8 %
     Extraction speed 3.5 X
     Track quality 100.0 %
     Test CRC 653CA762
     Copy CRC 653CA762
     Track not present in AccurateRip database
     Copy OK

Track  3

     Filename E:\My Music\Drowning Pool - 2013 - Resilience (Best Buy Exclusive Edition) [FLAC]\03 - One Finger And A Fist.wav

     Pre-gap length  0:00:00.80

     Peak level 99.8 %
     Extraction speed 3.8 X
     Track quality 100.0 %
     Test CRC F7BFD545
     Copy CRC F7BFD545
     Track not present in AccurateRip database
     Copy OK

Track  4

     Filename E:\My Music\Drowning Pool - 2013 - Resilience (Best Buy Exclusive Edition) [FLAC]\04 - Digging These Holes.wav

     Pre-gap length  0:00:01.14

     Peak level 99.8 %
     Extraction speed 4.1 X
     Track quality 100.0 %
     Test CRC A8D417DC
     Copy CRC A8D417DC
     Track not present in AccurateRip database
     Copy OK

Track  5

     Filename E:\My Music\Drowning Pool - 2013 - Resilience (Best Buy Exclusive Edition) [FLAC]\05 - Saturday Night.wav

     Peak level 99.8 %
     Extraction speed 4.5 X
     Track quality 100.0 %
     Test CRC 0DCDEF2E
     Copy CRC 0DCDEF2E
     Track not present in AccurateRip database
     Copy OK

Track  6

     Filename E:\My Music\Drowning Pool - 2013 - Resilience (Best Buy Exclusive Edition) [FLAC]\06 - Low Crawl.wav

     Pre-gap length  0:00:00.98

     Peak level 99.8 %
     Extraction speed 3.7 X
     Track quality 99.9 %
     Test CRC FA849D98
     Copy CRC FA849D98
     Track not present in AccurateRip database
     Copy OK

Track  7

     Filename E:\My Music\Drowning Pool - 2013 - Resilience (Best Buy Exclusive Edition) [FLAC]\07 - Life Of Misery.wav

     Peak level 99.8 %
     Extraction speed 4.9 X
     Track quality 100.0 %
     Test CRC 66941403
     Copy CRC 66941403
     Track not present in AccurateRip database
     Copy OK

Track  8

     Filename E:\My Music\Drowning Pool - 2013 - Resilience (Best Buy Exclusive Edition) [FLAC]\08 - Broken Again.wav

     Pre-gap length  0:00:00.54

     Peak level 99.8 %
     Extraction speed 5.0 X
     Track quality 100.0 %
     Test CRC F077C965
     Copy CRC F077C965
     Track not present in AccurateRip database
     Copy OK

Track  9

     Filename E:\My Music\Drowning Pool - 2013 - Resilience (Best Buy Exclusive Edition) [FLAC]\09 - Understand.wav

     Pre-gap length  0:00:00.54

     Peak level 99.8 %
     Extraction speed 5.3 X
     Track quality 100.0 %
     Test CRC A4FC4A2C
     Copy CRC A4FC4A2C
     Track not present in AccurateRip database
     Copy OK

Track 10

     Filename E:\My Music\Drowning Pool - 2013 - Resilience (Best Buy Exclusive Edition) [FLAC]\10 - Bleed With You.wav

     Pre-gap length  0:00:00.58

     Peak level 99.8 %
     Extraction speed 4.3 X
     Track quality 99.9 %
     Test CRC A84D70F5
     Copy CRC A84D70F5
     Track not present in AccurateRip database
     Copy OK

Track 11

     Filename E:\My Music\Drowning Pool - 2013 - Resilience (Best Buy Exclusive Edition) [FLAC]\11 - Skip To The End.wav

     Pre-gap length  0:00:01.05

     Peak level 99.8 %
     Extraction speed 5.7 X
     Track quality 100.0 %
     Test CRC 3B1E21A4
     Copy CRC 3B1E21A4
     Track not present in AccurateRip database
     Copy OK

Track 12

     Filename E:\My Music\Drowning Pool - 2013 - Resilience (Best Buy Exclusive Edition) [FLAC]\12 - In Memory Of (Bonus Track).wav

     Pre-gap length  0:00:00.84

     Peak level 99.8 %
     Extraction speed 5.9 X
     Track quality 100.0 %
     Test CRC EA6A33D3
     Copy CRC EA6A33D3
     Track not present in AccurateRip database
     Copy OK

Track 13

     Filename E:\My Music\Drowning Pool - 2013 - Resilience (Best Buy Exclusive Edition) [FLAC]\13 - Blindfold (Bonus Track).wav

     Pre-gap length  0:00:00.62

     Peak level 99.8 %
     Extraction speed 5.9 X
     Track quality 100.0 %
     Test CRC 0EBEE81B
     Copy CRC 0EBEE81B
     Track not present in AccurateRip database
     Copy OK

None of the tracks are present in the AccurateRip database

No errors occurred

End of status report

---- CUETools DB Plugin V2.1.4

[CTDB TOCID: 603V5adap8I68ANga7bUIWXwZYM-] found
Submit result: 603V5adap8I68ANga7bUIWXwZYM- has been confirmed
Track | CTDB Status
  1   | (1/1) Accurately ripped
  2   | (1/1) Accurately ripped
  3   | (1/1) Accurately ripped
  4   | (1/1) Accurately ripped
  5   | (1/1) Accurately ripped
  6   | (1/1) Accurately ripped
  7   | (1/1) Accurately ripped
  8   | (1/1) Accurately ripped
  9   | (1/1) Accurately ripped
 10   | (1/1) Accurately ripped
 11   | (1/1) Accurately ripped
 12   | (1/1) Accurately ripped
 13   | (1/1) Accurately ripped

==== Log checksum 1D554070B642C823B4F3AD314FB9B013D0EBBE5DDF176EDF4C9CFED20CDC724F ====

Код:

REM GENRE "Hard Rock"
REM DATE 2013
REM DISCID A20AEF0D
REM COMMENT "ExactAudioCopy v1.0b3"
PERFORMER "Drowning Pool"
TITLE "Resilience (Best Buy Exclusive Edition)"
FILE "01 - Anytime Anyplace.wav" WAVE
  TRACK 01 AUDIO
    TITLE "Anytime Anyplace"
    PERFORMER "Drowning Pool"
    ISRC USDPK1291502
    INDEX 01 00:00:00
  TRACK 02 AUDIO
    TITLE "Die For Nothing"
    PERFORMER "Drowning Pool"
    ISRC USDPK1291503
    INDEX 00 03:36:53
FILE "02 - Die For Nothing.wav" WAVE
    INDEX 01 00:00:00
  TRACK 03 AUDIO
    TITLE "One Finger And A Fist"
    PERFORMER "Drowning Pool"
    ISRC USDPK1291504
    INDEX 00 03:13:13
FILE "03 - One Finger And A Fist.wav" WAVE
    INDEX 01 00:00:00
  TRACK 04 AUDIO
    TITLE "Digging These Holes"
    PERFORMER "Drowning Pool"
    ISRC USDPK1291505
    INDEX 00 03:06:52
FILE "04 - Digging These Holes.wav" WAVE
    INDEX 01 00:00:00
FILE "05 - Saturday Night.wav" WAVE
  TRACK 05 AUDIO
    TITLE "Saturday Night"
    PERFORMER "Drowning Pool"
    ISRC USDPK1291501
    INDEX 01 00:00:00
  TRACK 06 AUDIO
    TITLE "Low Crawl"
    PERFORMER "Drowning Pool"
    ISRC USDPK1291506
    INDEX 00 03:53:33
FILE "06 - Low Crawl.wav" WAVE
    INDEX 01 00:00:00
FILE "07 - Life Of Misery.wav" WAVE
  TRACK 07 AUDIO
    TITLE "Life Of Misery"
    PERFORMER "Drowning Pool"
    ISRC USDPK1291507
    INDEX 01 00:00:00
  TRACK 08 AUDIO
    TITLE "Broken Again"
    PERFORMER "Drowning Pool"
    ISRC USDPK1291508
    INDEX 00 03:50:42
FILE "08 - Broken Again.wav" WAVE
    INDEX 01 00:00:00
  TRACK 09 AUDIO
    TITLE "Understand"
    PERFORMER "Drowning Pool"
    ISRC USDPK1291509
    INDEX 00 03:20:29
FILE "09 - Understand.wav" WAVE
    INDEX 01 00:00:00
  TRACK 10 AUDIO
    TITLE "Bleed With You"
    PERFORMER "Drowning Pool"
    ISRC USDPK1291510
    INDEX 00 03:41:69
FILE "10 - Bleed With You.wav" WAVE
    INDEX 01 00:00:00
  TRACK 11 AUDIO
    TITLE "Skip To The End"
    PERFORMER "Drowning Pool"
    ISRC USDPK1291511
    INDEX 00 03:31:07
FILE "11 - Skip To The End.wav" WAVE
    INDEX 01 00:00:00
  TRACK 12 AUDIO
    TITLE "In Memory Of"
    PERFORMER "Drowning Pool"
    ISRC USDPK1291512
    INDEX 00 03:39:03
FILE "12 - In Memory Of (Bonus Track).wav" WAVE
    INDEX 01 00:00:00
  TRACK 13 AUDIO
    TITLE "Blindfold"
    PERFORMER "Drowning Pool"
    ISRC USDPK1291513
    INDEX 00 03:57:28
FILE "13 - Blindfold (Bonus Track).wav" WAVE
    INDEX 01 00:00:00


info [Профиль]  [ЛС] 

Nizrael

Пол: Пол:Муж

Стаж: 4 года 1 месяц

Сообщений: 3

Россия
Рейтинг

post 24-Июн-2013 23:17 (спустя 1 год 6 месяцев) [-]0[+]

[Цитировать] 

Обалденно!!))
info [Профиль]  [ЛС] 

bizkid

Стаж: 6 лет 8 месяцев

Сообщений: 11

Рейтинг

post 06-Авг-2013 16:42 (спустя 1 месяц 11 дней) [-]0[+]

[Цитировать] 

есть возможность в мп3 выложить дискографию? буду премного благодарен
info [Профиль]  [ЛС] 
Показать сообщения:    
Ответить на тему

Текущее время: 06-Дек 23:59

Часовой пояс: GMT + 4



Вы не можете начинать темы
Вы не можете отвечать на сообщения
Вы не можете редактировать свои сообщения
Вы не можете удалять свои сообщения
Вы не можете голосовать в опросах
Вы не можете прикреплять файлы к сообщениям
Вы не можете скачивать файлы