Ошибка

David Garrett - Rock Symphonies (Open Air Live) [2010, Symphony, Rock, Instrumental, BDRip, 720p]

Ответить на тему
 
Автор Сообщение

dimil

Пол: Пол:Муж

Стаж: 5 лет 5 месяцев

Сообщений: 128

Украина
Рейтинг

post 29-Ноя-2011 21:18 0[+]

[Цитировать] 

David Garrett - Rock Symphonies (Open Air Live)

Год выпуска: 2010
Жанр: Symphony, Rock, Instrumental
Продолжительность: 2:11:01
Описание: Концерт на открытом воздухе скрипача David Garrett в рамках тура в поддержку нового альбома "Rock Symphonies", состоявшегося 08.06.2010 г. в Берлинском амфитеатре Kindl-Bühne Wuhlheide.
Треклист:
01 Kashmir
02 Brahms: Hungarian Dance No.5
03 He's A Pirate ("Pirates Of The Caribbean" Theme)
04 Live And Let Die
05 Serenade
06 Jota Navarra
07 Smells Like Teen Spirit
08 Csardas - Gypsy Dance
09 Duelling Banjos (Duelling Strings)
10 Mission Impossible ("Mission Impossible" Theme)
11 Walk This Way
12 Smooth Criminal
13 Child's Anthem
14 Vocalise
15 Summer (from "The Four Seasons")
16 Peer Gynt Suite
17 Bicycle Race
18 Zorba's Dance
19 Humoresque
20 Little Wing
21 Asturias
22 Master Of Puppets
23 I'll Stand By You
24 Rocking All Over The World
25 Thunderstruck
26 Nothing Else Matters
27 Flight Of The Bumblebee
28 Hey Jude


Качество: BDRip
Контейнер: MKV
Видео кодек: H.264
Аудио кодек: AC3
Видео: 1280x720p/AVC High@L 4.1/16:9/4 295 Kbps/25.000 fps/4.34 GiB/2h 11mn
Аудио: German AC3 5.1 (48.0 KHz , 448 kbps , 16 bits) 6 channels Front: L C R, Side: L R, LFE
General
UniqueID : 248749294047163000571326125254012687235 (0xBB235F1466F17DCBADF4D92AC4C1D383)
Complete name : D:\films\David Garrett Rock Symphonies - Open Air Live 2010 Blu-ray 720p AVC AC3 5 1 ELR.mkv
Format : Matroska
File size : 4.34 GiB
Duration : 2h 11mn
Overall bit rate : 4 742 Kbps
Movie name : David Garrett Rock Symphonies - Open Air Live 2010 Blu-ray 720p AVC AC3 5 1 ELR
Encoded date : UTC 2010-11-17 18:19:46
Writing application : mkvmerge v4.3.0 ('Escape from the Island') built on Sep 5 2010 10:30:51
Writing library : libebml v1.0.0 + libmatroska v1.0.0

Video
ID : 1
Format : AVC
Format/Info : Advanced Video Codec
Format profile : High@L4.1
Format settings, CABAC : Yes
Format settings, ReFrames : 3 frames
Format settings, GOP : M=4, N=17
Codec ID : V_MPEG4/ISO/AVC
Duration : 2h 11mn
Bit rate mode : Variable
Bit rate : 4 295 Kbps
Maximum bit rate : 25.0 Mbps
Width : 1 280 pixels
Height : 720 pixels
Display aspect ratio : 16:9
Frame rate : 25.000 fps
Color space : YUV
Chroma subsampling : 4:2:0
Bit depth : 8 bits
Scan type : Progressive
Bits/(Pixel*Frame) : 0.186
Stream size : 3.84 GiB (89%)
Writing library : x264 core 105 r1732 2b04482
Encoding settings : cabac=1 / ref=3 / deblock=1:0:0 / analyse=0x3:0x133 / me=umh / subme=7 / psy=1 / psy_rd=1.00:0.00 / mixed_ref=1 / me_range=16 / chroma_me=1 / trellis=1 / 8x8dct=1 / cqm=0 / deadzone=21,11 / fast_pskip=1 / chroma_qp_offset=-2 / threads=6 / sliced_threads=0 / nr=0 / decimate=1 / interlaced=0 / constrained_intra=0 / bframes=3 / b_pyramid=0 / b_adapt=1 / b_bias=0 / direct=1 / weightb=1 / open_gop=0 / weightp=2 / keyint=250 / keyint_min=25 / scenecut=40 / intra_refresh=0 / rc_lookahead=40 / rc=2pass / mbtree=1 / bitrate=4295 / ratetol=1.0 / qcomp=0.60 / qpmin=10 / qpmax=51 / qpstep=4 / cplxblur=20.0 / qblur=0.5 / vbv_maxrate=25000 / vbv_bufsize=25000 / ip_ratio=1.40 / aq=1:1.00 / nal_hrd=vbr

Audio
ID : 2
Format : AC-3
Format/Info : Audio Coding 3
Mode extension : CM (complete main)
Codec ID : A_AC3
Duration : 2h 11mn
Bit rate mode : Constant
Bit rate : 448 Kbps
Channel(s) : 6 channels
Channel positions : Front: L C R, Side: L R, LFE
Sampling rate : 48.0 KHz
Bit depth : 16 bits
Compression mode : Lossy
Stream size : 420 MiB (9%)
Language : German

Menu
00:00:00.000 : en:00:00:00.000
00:05:25.320 : en:00:05:25.320
00:09:14.160 : en:00:09:14.160
00:13:40.000 : en:00:13:40.000
00:17:17.760 : en:00:17:17.760
00:22:03.880 : en:00:22:03.880
00:26:05.080 : en:00:26:05.080
00:31:10.960 : en:00:31:10.960
00:36:36.520 : en:00:36:36.520
00:41:00.680 : en:00:41:00.680
00:47:18.840 : en:00:47:18.840
00:50:38.120 : en:00:50:38.120
00:54:04.640 : en:00:54:04.640
00:59:38.600 : en:00:59:38.600
01:06:01.560 : en:01:06:01.560
01:09:32.800 : en:01:09:32.800
01:12:55.520 : en:01:12:55.520
01:16:15.800 : en:01:16:15.800
01:19:49.880 : en:01:19:49.880
01:25:35.760 : en:01:25:35.760
01:32:27.520 : en:01:32:27.520
01:36:52.200 : en:01:36:52.200
01:41:30.440 : en:01:41:30.440
01:45:40.000 : en:01:45:40.000
01:50:26.040 : en:01:50:26.040
01:55:21.720 : en:01:55:21.720
02:01:24.080 : en:02:01:24.080
02:05:01.200 : en:02:05:01.200
info [Профиль]  [ЛС] 

dimil

Пол: Пол:Муж

Стаж: 5 лет 5 месяцев

Сообщений: 128

Украина
Рейтинг

post 29-Ноя-2011 21:44 (спустя 26 минут) [-]0[+]

[Цитировать] 

Из концерта была вырезана одна композиция. Посмотреть можно тут:
          

_________________
Это - демо-версия поста. В полной версии мои мысли описаны более полно и без орфографических ошибок. Чтобы увидеть полную версию вы должны заплатить мне денег!
info [Профиль]  [ЛС] 

Big23

Стаж: 6 лет 5 месяцев

Сообщений: 993

Зимбабве
Рейтинг

post 29-Ноя-2011 22:12 (спустя 28 минут) [-]0[+]

[Цитировать] 

Мощный чувак, Дэвид! Прям второе дыхание классики открывает (первостатейно освежает!)! Да

_________________
везде требуются космонавты
info [Профиль]  [ЛС] 

Giltias

Пол: Пол:Муж

Стаж: 6 лет 9 месяцев

Сообщений: 544

Россия
Рейтинг

post 29-Ноя-2011 22:26 (спустя 13 минут) [-]0[+]

[Цитировать] 

Мужик вообще отжигает) особенно Пираты и Нирвана в его варианте нравятся))

_________________
Знал ли Создатель в шестой день творения,что уготовано миру людей...
info [Профиль]  [ЛС] 

dimil

Пол: Пол:Муж

Стаж: 5 лет 5 месяцев

Сообщений: 128

Украина
Рейтинг

post 29-Ноя-2011 23:12 (спустя 45 минут) [-]0[+]

[Цитировать] 

Извиняюсь за сэмпл такого размера. Просто глупо было вылаживать меньше 1й песни.
З.Ы. Сегодня у меня аплоад ограничен 15 Мб\с. Так что извините за маленькую скорость.

_________________
Это - демо-версия поста. В полной версии мои мысли описаны более полно и без орфографических ошибок. Чтобы увидеть полную версию вы должны заплатить мне денег!
info [Профиль]  [ЛС] 
Показать сообщения:    
Ответить на тему

Текущее время: 06-Дек 22:03

Часовой пояс: GMT + 4



Вы не можете начинать темы
Вы не можете отвечать на сообщения
Вы не можете редактировать свои сообщения
Вы не можете удалять свои сообщения
Вы не можете голосовать в опросах
Вы не можете прикреплять файлы к сообщениям
Вы не можете скачивать файлы