Ошибка

Назад в будущее: Трилогия / Back to the Future Trilogy (Роберт Земекис / Robert Zemeckis) 1985/1989/1990 г., фантастика, боевик, комедия, приключения, семейный, вестерн Blu-ray Remux; 1080p [25th Anniversary Edition] DVO + AVO + MVO + Sub

Ответить на тему
 
Автор Сообщение

Жура

Пол: Пол:Муж

Стаж: 7 лет 8 месяцев

Сообщений: 143

Предупреждений: 1

Россия
Рейтинг

post 10-Ноя-2011 17:49 6[+]

[Цитировать] 

Назад в будущее: Трилогия / Back to the Future Trilogy






Назад в будущее / Back to the Future

Год выпуска: 1985
Страна: США
Жанр: фантастика, комедия, приключения
Продолжительность: 01:56:05
Перевод: Профессиональный (многоголосый, закадровый), двухголосый, одноголосый

Режиссер:

  • Роберт Земекис / Robert Zemeckis


В ролях:

  • Майкл Дж. Фокс (Marty McFly), Кристофер Ллойд (Dr. Emmett Brown), Лиа Томпсон (Lorraine Baines), Криспин Гловер (George McFly), Томас Ф. Уилсон (Biff Tannen), Клодия Уэллс (Jennifer Parker), Марк МакКлюр (Dave McFly), Уэнди Джо Спербер (Linda McFly), Джордж ДиЧенцо (Sam Baines), Фрэнсис Ли МакКейн (Stella Baines), Джеймс Толкан (Mr. Strickland), Дж.Дж. Коэн (Skinhead)


Описание:

Подросток Марти с помощью машины времени, сооруженной его другом профессором доком Брауном, попадает из 80-х в далекие 50-е. Там он встречается со своими будущими родителями, еще подростками, и другом-профессором, совсем молодым.
Он нарушает естественный ход событий прошлого, чем вызывает массу смешных и драматических ситуаций. Собственная смекалка и фантазия профессора помогают преодолеть все препятствия и благополучно вернуться к себе, в свое время.

Качество: Blu-Ray Remux
Формат: MKV
Видео кодек: H.264
Аудио кодек: DTS; AC3
Видео: 1920x1080p, 23.976 fps, ~26904 kbps
Аудио:

MVO; DTS 5.1 ~1510 kbps 48 kHz [ОРТ]
DVO; DTS 5.1 ~1510 kbps 48 kHz [Гланц+Лютая]
DVO; DTS 5.1 ~1510 kbps 48 kHz [НТВ / СТС]
DVO; DTS 5.1 ~1510 kbps 48 kHz [Премьер]
AVO; DTS 5.1 ~1510 kbps 48 kHz [Гаврилов ранний]
AVO; DTS 5.1 ~1510 kbps 48 kHz [Гаврилов поздний]
Q&A Commentaries with Director Robert Zemeckis and Producer Bob Gale [RoxMarty]; AC3 2.0 256 kbps 48 kHz
Feature Commentaries with Producers Bob Gale and Neil Canton [RoxMarty]; AC3 2.0 256 kbps 48 kHz

DTS-HD Master Audio 5.1 ~4250 kbps 48 kHz 24-bit (DTS Core 5.1 ~1510 kbps 48 kHz 24-bit)
Q&A Commentaries with Director Robert Zemeckis and Producer Bob Gale; AC3 2.0 192 kbps 48 kHz
Feature Commentaries with Producers Bob Gale and Neil Canton; AC3 2.0 192 kbps 48 kHz

Субтитры:
Формат: PGS (.sup) / .srt

русские: forced; Full [small correct by RoxMarty]; Full; Full v2; Q&A Commentaries with Director Robert Zemeckis and Producer Bob Gale; Feature Commentaries with Producers Bob Gale and Neil Canton
английские: English; SDH; Q&A Commentaries with Director Robert Zemeckis and Producer Bob Gale; Feature Commentaries with Producers Bob Gale and Neil Canton
Format : Matroska
Format version : Version 2
File size : 33.4 GiB
Duration : 1h 56mn
Overall bit rate : 41.2 Mbps
Encoded date : UTC 2011-11-22 18:54:46
Writing application : mkvmerge v5.0.1 ('Es ist Sommer') built on Oct 9 2011 11:55:43
Writing library : libebml v1.2.2 + libmatroska v1.3.0

Video
ID : 1
Format : VC-1
Format profile : AP@L3
Codec ID : WVC1
Codec ID/Hint : Microsoft
Duration : 1h 56mn
Bit rate : 28.8 Mbps
Width : 1 920 pixels
Height : 1 080 pixels
Display aspect ratio : 16:9
Frame rate : 23.976 fps
Chroma subsampling : 4:2:0
Bit depth : 8 bits
Scan type : Progressive
Compression mode : Lossy
Bits/(Pixel*Frame) : 0.580
Stream size : 23.4 GiB (70%)
Title : Back to the Future ~26904 kbps
Language : English

Audio #1
ID : 2
Format : DTS
Format/Info : Digital Theater Systems
Codec ID : A_DTS
Duration : 1h 56mn
Bit rate mode : Constant
Bit rate : 1 510 Kbps
Channel(s) : 6 channels
Channel positions : Front: L C R, Side: L R, LFE
Sampling rate : 48.0 KHz
Bit depth : 24 bits
Compression mode : Lossy
Stream size : 1.22 GiB (4%)
Title : MVO; DTS 5.1 ~1510 kbps 48 kHz [ORT]
Language : Russian

Audio #2
ID : 3
Format : DTS
Format/Info : Digital Theater Systems
Codec ID : A_DTS
Duration : 1h 56mn
Bit rate mode : Constant
Bit rate : 1 510 Kbps
Channel(s) : 6 channels
Channel positions : Front: L C R, Side: L R, LFE
Sampling rate : 48.0 KHz
Bit depth : 24 bits
Compression mode : Lossy
Stream size : 1.22 GiB (4%)
Title : DVO; DTS 5.1 ~1510 kbps 48 kHz [Glanz & Lutaya]
Language : Russian

Audio #3
ID : 4
Format : DTS
Format/Info : Digital Theater Systems
Codec ID : A_DTS
Duration : 1h 56mn
Bit rate mode : Constant
Bit rate : 1 510 Kbps
Channel(s) : 6 channels
Channel positions : Front: L C R, Side: L R, LFE
Sampling rate : 48.0 KHz
Bit depth : 24 bits
Compression mode : Lossy
Stream size : 1.22 GiB (4%)
Title : DVO; DTS 5.1 ~1510 kbps 48 kHz [NTV-STS]
Language : Russian

Audio #4
ID : 5
Format : DTS
Format/Info : Digital Theater Systems
Codec ID : A_DTS
Duration : 1h 56mn
Bit rate mode : Constant
Bit rate : 1 510 Kbps
Channel(s) : 6 channels
Channel positions : Front: L C R, Side: L R, LFE
Sampling rate : 48.0 KHz
Bit depth : 24 bits
Compression mode : Lossy
Stream size : 1.22 GiB (4%)
Title : DVO; DTS 5.1 ~1510 kbps 48 kHz [Premier]
Language : Russian

Audio #5
ID : 6
Format : DTS
Format/Info : Digital Theater Systems
Codec ID : A_DTS
Duration : 1h 56mn
Bit rate mode : Constant
Bit rate : 1 510 Kbps
Channel(s) : 6 channels
Channel positions : Front: L C R, Side: L R, LFE
Sampling rate : 48.0 KHz
Bit depth : 24 bits
Compression mode : Lossy
Stream size : 1.22 GiB (4%)
Title : AVO; DTS 5.1 ~1510 kbps 48 kHz [Gavrilov ranniy]
Language : Russian

Audio #6
ID : 7
Format : DTS
Format/Info : Digital Theater Systems
Codec ID : A_DTS
Duration : 1h 56mn
Bit rate mode : Constant
Bit rate : 1 510 Kbps
Channel(s) : 6 channels
Channel positions : Front: L C R, Side: L R, LFE
Sampling rate : 48.0 KHz
Bit depth : 24 bits
Compression mode : Lossy
Stream size : 1.22 GiB (4%)
Title : AVO; DTS 5.1 ~1510 kbps 48 kHz [Gavrilov]
Language : Russian

Audio #7
ID : 8
Format : AC-3
Format/Info : Audio Coding 3
Mode extension : CM (complete main)
Codec ID : A_AC3
Duration : 1h 56mn
Bit rate mode : Constant
Bit rate : 256 Kbps
Channel(s) : 2 channels
Channel positions : Front: L R
Sampling rate : 48.0 KHz
Bit depth : 16 bits
Compression mode : Lossy
Stream size : 213 MiB (1%)
Title : Q&A Commentaries with Director Robert Zemeckis and Producer Bob Gale [RoxMarty]; AC3 2.0 256 kbps 48 kHz
Language : Russian

Audio #8
ID : 9
Format : AC-3
Format/Info : Audio Coding 3
Mode extension : CM (complete main)
Codec ID : A_AC3
Duration : 1h 56mn
Bit rate mode : Constant
Bit rate : 256 Kbps
Channel(s) : 2 channels
Channel positions : Front: L R
Sampling rate : 48.0 KHz
Bit depth : 16 bits
Compression mode : Lossy
Stream size : 213 MiB (1%)
Title : Feature Commentaries with Producers Bob Gale and Neil Canton [RoxMarty]; AC3 2.0 256 kbps 48 kHz
Language : Russian

Audio #9
ID : 10
Format : DTS
Format/Info : Digital Theater Systems
Format profile : MA / Core
Codec ID : A_DTS
Duration : 1h 56mn
Bit rate mode : Variable
Bit rate : 1 576 Kbps / 1 510 Kbps
Channel(s) : 6 channels
Channel positions : Front: L C R, Side: L R, LFE
Sampling rate : 48.0 KHz
Bit depth : 24 bits
Compression mode : Lossless / Lossy
Title : DTS-HD Master Audio 5.1 ~4250 kbps 48 kHz 24-bit (DTS Core 5.1 ~1510 kbps 48 kHz 24-bit)
Language : English

Audio #10
ID : 11
Format : AC-3
Format/Info : Audio Coding 3
Mode extension : CM (complete main)
Codec ID : A_AC3
Duration : 1h 56mn
Bit rate mode : Constant
Bit rate : 192 Kbps
Channel(s) : 2 channels
Channel positions : Front: L R
Sampling rate : 48.0 KHz
Bit depth : 16 bits
Compression mode : Lossy
Stream size : 159 MiB (0%)
Title : Q&A Commentaries with Director Robert Zemeckis and Producer Bob Gale; AC3 2.0 192 kbps 48 kHz
Language : English

Audio #11
ID : 12
Format : AC-3
Format/Info : Audio Coding 3
Format profile : Dolby Digital
Mode extension : CM (complete main)
Codec ID : A_AC3
Duration : 1h 56mn
Bit rate mode : Constant
Bit rate : 192 Kbps
Channel(s) : 2 channels
Channel positions : Front: L R
Sampling rate : 48.0 KHz
Bit depth : 16 bits
Compression mode : Lossy
Stream size : 159 MiB (0%)
Title : Feature Commentaries with Producers Bob Gale and Neil Canton; AC3 2.0 192 kbps 48 kHz
Language : English

Text #1
ID : 13
Format : UTF-8
Codec ID : S_TEXT/UTF8
Codec ID/Info : UTF-8 Plain Text
Title : forced
Language : Russian

Text #2
ID : 14
Format : UTF-8
Codec ID : S_TEXT/UTF8
Codec ID/Info : UTF-8 Plain Text
Title : Full [small correct by RoxMarty]
Language : Russian

Text #3
ID : 15
Format : UTF-8
Codec ID : S_TEXT/UTF8
Codec ID/Info : UTF-8 Plain Text
Title : Full
Language : Russian

Text #4
ID : 16
Format : UTF-8
Codec ID : S_TEXT/UTF8
Codec ID/Info : UTF-8 Plain Text
Title : Full v2
Language : Russian

Text #5
ID : 17
Format : UTF-8
Codec ID : S_TEXT/UTF8
Codec ID/Info : UTF-8 Plain Text
Title : Q&A Commentaries with Director Robert Zemeckis and Producer Bob Gale
Language : Russian

Text #6
ID : 18
Format : UTF-8
Codec ID : S_TEXT/UTF8
Codec ID/Info : UTF-8 Plain Text
Title : Feature Commentaries with Producers Bob Gale and Neil Canton
Language : Russian

Text #7
ID : 19
Format : UTF-8
Codec ID : S_TEXT/UTF8
Codec ID/Info : UTF-8 Plain Text
Language : English

Text #8
ID : 20
Format : UTF-8
Codec ID : S_TEXT/UTF8
Codec ID/Info : UTF-8 Plain Text
Title : SDH
Language : English

Text #9
ID : 21
Format : UTF-8
Codec ID : S_TEXT/UTF8
Codec ID/Info : UTF-8 Plain Text
Title : Q&A Commentaries with Director Robert Zemeckis and Producer Bob Gale
Language : English

Text #10
ID : 22
Format : UTF-8
Codec ID : S_TEXT/UTF8
Codec ID/Info : UTF-8 Plain Text
Title : Feature Commentaries with Producers Bob Gale and Neil Canton
Language : English

Text #11
ID : 23
Format : PGS
Muxing mode : zlib
Codec ID : S_HDMV/PGS
Codec ID/Info : The same subtitle format used on BDs/HD-DVDs
Title : forced; (.sup) PGS
Language : Russian

Text #12
ID : 24
Format : PGS
Muxing mode : zlib
Codec ID : S_HDMV/PGS
Codec ID/Info : The same subtitle format used on BDs/HD-DVDs
Title : Q&A Commentaries with Director Robert Zemeckis and Producer Bob Gale; (.sup) PGS
Language : Russian

Text #13
ID : 25
Format : PGS
Muxing mode : zlib
Codec ID : S_HDMV/PGS
Codec ID/Info : The same subtitle format used on BDs/HD-DVDs
Title : Feature Commentaries with Producers Bob Gale and Neil Canton; (.sup) PGS
Language : Russian

Text #14
ID : 26
Format : PGS
Muxing mode : zlib
Codec ID : S_HDMV/PGS
Codec ID/Info : The same subtitle format used on BDs/HD-DVDs
Title : Q&A Commentaries with Director Robert Zemeckis and Producer Bob Gale; (.sup) PGS
Language : English

Text #15
ID : 27
Format : PGS
Muxing mode : zlib
Codec ID : S_HDMV/PGS
Codec ID/Info : The same subtitle format used on BDs/HD-DVDs
Title : Feature Commentaries with Producers Bob Gale and Neil Canton; (.sup) PGS
Language : English

Text #16
ID : 28
Format : PGS
Muxing mode : zlib
Codec ID : S_HDMV/PGS
Codec ID/Info : The same subtitle format used on BDs/HD-DVDs
Title : SDH; (.sup) PGS
Language : English

Menu
00:00:00.000 : en:01. Main Titles
00:04:13.544 : en:02. Late for School
00:06:47.281 : en:03. The Slacker
00:11:45.246 : en:04. The Family McFly
00:18:04.166 : en:05. A Time Machine?
00:28:12.273 : en:06. Escape From the Past
00:31:30.680 : en:07. 1955
00:38:40.693 : en:08. Dad the Dork
00:41:22.313 : en:09. Calvin & Lorraine
00:47:53.370 : en:10. Future Boy & Doc
00:55:53.141 : en:11. Marty's Problem
00:58:49.859 : en:12. The Matchmaker
01:05:16.787 : en:13. Skateboard Hero
01:16:40.304 : en:14. The Big Date
01:20:14.643 : en:15. The Real George
01:27:23.321 : en:16. Johnny B. Goode
01:31:12.049 : en:17. Back to the Future
01:41:40.552 : en:18. Doc's Decision
01:46:41.436 : en:19. Future Shock
01:51:24.511 : en:20. Roads? (Credits)

Назад в будущее 2 / Back to the Future Part II

Год выпуска: 1989
Страна: США
Жанр: фантастика, комедия, приключения
Продолжительность: 01:48:05
Перевод: Профессиональный (многоголосый, закадровый), двухголосый, одноголосый

Режиссер:

  • Роберт Земекис / Robert Zemeckis


В ролях:

  • Майкл Дж. Фокс (Marty McFly / Marty McFly Jr / Marlene McFly), Кристофер Ллойд (Dr. Emmett Brown), Лиа Томпсон (Lorraine), Томас Ф. Уилсон (Biff Tannen / Griff Tannen), Элизабет Шу (Jennifer Parker / Jennifer McFly), Джеймс Толкан (Mr. Strickland), Джеффри Вайсман (George McFly), Кэйси Семашко (3-D), Билли Зейн (Match), Дж.Дж. Коэн (Skinhead), Чарльз Флайшер (Terry), Э. Казанова Эванс ('Michael Jackson' Video Waiter)


Описание:

Продолжение фантастической истории о приключениях американского подростка во времени. На этот раз с помощью модернизированной Доком машины времени Марти из 80-х попадает в будущее.
Дети Марти в беде, и их надо выручать. Приходится повозиться со злодеем…

Качество: Blu-Ray Remux
Формат: MKV
Видео кодек: H.264
Аудио кодек: DTS; AC3
Видео: 1920x1080p, 23.976 fps, ~28483 kbps kbps
Аудио:

MVO; DTS 5.1 ~1510 kbps 48 kHz [ОРТ]
DVO; DTS 5.1 ~1510 kbps 48 kHz [Гланц+Лютая]
DVO; DTS 5.1 ~1510 kbps 48 kHz [НТВ / СТС]
DVO; DTS 5.1 ~1510 kbps 48 kHz [Премьер]
AVO; DTS 5.1 ~1510 kbps 48 kHz [Гаврилов поздний]
Q&A Commentaries with Director Robert Zemeckis and Producer Bob Gale [RoxMarty]; AC3 2.0 256 kbps 48 kHz
Feature Commentaries with Producers Bob Gale and Neil Canton [RoxMarty]; AC3 2.0 256 kbps 48 kHz

DTS-HD Master Audio 5.1 ~4151 kbps 48 kHz 24-bit (DTS Core 5.1 ~1510 kbps 48 kHz 24-bit)
Q&A Commentaries with Director Robert Zemeckis and Producer Bob Gale; AC3 2.0 192 kbps 48 kHz
Feature Commentaries with Producers Bob Gale and Neil Canton; AC3 2.0 192 kbps 48 kHz

Субтитры:
Формат: PGS (.sup) / .srt

русские: forced; RoxMarty; Full; Full v2; Q&A Commentaries with Director Robert Zemeckis and Producer Bob Gale; Feature Commentaries with Producers Bob Gale and Neil Canton
английские: RoxMarty; English; SDH; Q&A Commentaries with Director Robert Zemeckis and Producer Bob Gale; Feature Commentaries with Producers Bob Gale and Neil Canton
Format : Matroska
Format version : Version 2
File size : 31.1 GiB
Duration : 1h 48mn
Overall bit rate : 41.2 Mbps
Movie name : Back to the Future II
Encoded date : UTC 2011-11-22 18:54:43
Writing application : mkvmerge v5.0.1 ('Es ist Sommer') built on Oct 9 2011 11:55:43
Writing library : libebml v1.2.2 + libmatroska v1.3.0

Video
ID : 1
Format : VC-1
Format profile : AP@L3
Codec ID : WVC1
Codec ID/Hint : Microsoft
Duration : 1h 48mn
Bit rate : 30.3 Mbps
Width : 1 920 pixels
Height : 1 080 pixels
Display aspect ratio : 16:9
Frame rate : 23.976 fps
Chroma subsampling : 4:2:0
Bit depth : 8 bits
Scan type : Progressive
Compression mode : Lossy
Bits/(Pixel*Frame) : 0.610
Stream size : 22.9 GiB (74%)
Title : Back to the Future Part II ~28483 kbps
Language : English

Audio #1
ID : 2
Format : DTS
Format/Info : Digital Theater Systems
Codec ID : A_DTS
Duration : 1h 48mn
Bit rate mode : Constant
Bit rate : 1 510 Kbps
Channel(s) : 6 channels
Channel positions : Front: L C R, Side: L R, LFE
Sampling rate : 48.0 KHz
Bit depth : 24 bits
Compression mode : Lossy
Stream size : 1.14 GiB (4%)
Title : MVO; DTS 5.1 ~1510 kbps 48 kHz [ORT]
Language : Russian

Audio #2
ID : 3
Format : DTS
Format/Info : Digital Theater Systems
Codec ID : A_DTS
Duration : 1h 48mn
Bit rate mode : Constant
Bit rate : 1 510 Kbps
Channel(s) : 6 channels
Channel positions : Front: L C R, Side: L R, LFE
Sampling rate : 48.0 KHz
Bit depth : 24 bits
Compression mode : Lossy
Stream size : 1.14 GiB (4%)
Title : DVO; DTS 5.1 ~1510 kbps 48 kHz [Glanz & Lutaya]
Language : Russian

Audio #3
ID : 4
Format : DTS
Format/Info : Digital Theater Systems
Codec ID : A_DTS
Duration : 1h 48mn
Bit rate mode : Constant
Bit rate : 1 510 Kbps
Channel(s) : 6 channels
Channel positions : Front: L C R, Side: L R, LFE
Sampling rate : 48.0 KHz
Bit depth : 24 bits
Compression mode : Lossy
Stream size : 1.14 GiB (4%)
Title : DVO; DTS 5.1 ~1510 kbps 48 kHz [NTV-STS]
Language : Russian

Audio #4
ID : 5
Format : DTS
Format/Info : Digital Theater Systems
Codec ID : A_DTS
Duration : 1h 48mn
Bit rate mode : Constant
Bit rate : 1 510 Kbps
Channel(s) : 6 channels
Channel positions : Front: L C R, Side: L R, LFE
Sampling rate : 48.0 KHz
Bit depth : 24 bits
Compression mode : Lossy
Stream size : 1.14 GiB (4%)
Title : DVO; DTS 5.1 ~1510 kbps 48 kHz [Premier]
Language : Russian

Audio #5
ID : 6
Format : DTS
Format/Info : Digital Theater Systems
Codec ID : A_DTS
Duration : 1h 48mn
Bit rate mode : Constant
Bit rate : 1 510 Kbps
Channel(s) : 6 channels
Channel positions : Front: L C R, Side: L R, LFE
Sampling rate : 48.0 KHz
Bit depth : 24 bits
Compression mode : Lossy
Stream size : 1.14 GiB (4%)
Title : AVO; DTS 5.1 ~1510 kbps 48 kHz [Gavrilov]
Language : Russian

Audio #6
ID : 7
Format : AC-3
Format/Info : Audio Coding 3
Mode extension : CM (complete main)
Codec ID : A_AC3
Duration : 1h 48mn
Bit rate mode : Constant
Bit rate : 256 Kbps
Channel(s) : 2 channels
Channel positions : Front: L R
Sampling rate : 48.0 KHz
Bit depth : 16 bits
Compression mode : Lossy
Stream size : 198 MiB (1%)
Title : Q&A Commentaries with Director Robert Zemeckis and Producer Bob Gale [RoxMarty]; AC3 2.0 256 kbps 48 kHz
Language : Russian

Audio #7
ID : 8
Format : AC-3
Format/Info : Audio Coding 3
Mode extension : CM (complete main)
Codec ID : A_AC3
Duration : 1h 48mn
Bit rate mode : Constant
Bit rate : 256 Kbps
Channel(s) : 2 channels
Channel positions : Front: L R
Sampling rate : 48.0 KHz
Bit depth : 16 bits
Compression mode : Lossy
Stream size : 198 MiB (1%)
Title : Feature Commentaries with Producers Bob Gale and Neil Canton [RoxMarty]; AC3 2.0 256 kbps 48 kHz
Language : Russian

Audio #8
ID : 9
Format : DTS
Format/Info : Digital Theater Systems
Format profile : MA / Core
Codec ID : A_DTS
Duration : 1h 48mn
Bit rate mode : Variable
Bit rate : 1 576 Kbps / 1 510 Kbps
Channel(s) : 6 channels
Channel positions : Front: L C R, Side: L R, LFE
Sampling rate : 48.0 KHz
Bit depth : 24 bits
Compression mode : Lossless / Lossy
Title : DTS-HD Master Audio 5.1 ~4151 kbps 48 kHz 24-bit (DTS Core 5.1 ~1510 kbps 48 kHz 24-bit)
Language : English

Audio #9
ID : 10
Format : AC-3
Format/Info : Audio Coding 3
Mode extension : CM (complete main)
Codec ID : A_AC3
Duration : 1h 48mn
Bit rate mode : Constant
Bit rate : 192 Kbps
Channel(s) : 2 channels
Channel positions : Front: L R
Sampling rate : 48.0 KHz
Bit depth : 16 bits
Compression mode : Lossy
Stream size : 148 MiB (0%)
Title : Q&A Commentaries with Director Robert Zemeckis and Producer Bob Gale; AC3 2.0 192 kbps 48 kHz
Language : English

Audio #10
ID : 11
Format : AC-3
Format/Info : Audio Coding 3
Format profile : Dolby Digital
Mode extension : CM (complete main)
Codec ID : A_AC3
Duration : 1h 48mn
Bit rate mode : Constant
Bit rate : 192 Kbps
Channel(s) : 2 channels
Channel positions : Front: L R
Sampling rate : 48.0 KHz
Bit depth : 16 bits
Compression mode : Lossy
Stream size : 148 MiB (0%)
Title : Feature Commentaries with Producers Bob Gale and Neil Canton; AC3 2.0 192 kbps 48 kHz
Language : English

Text #1
ID : 12
Format : UTF-8
Codec ID : S_TEXT/UTF8
Codec ID/Info : UTF-8 Plain Text
Title : forced
Language : Russian

Text #2
ID : 13
Format : UTF-8
Codec ID : S_TEXT/UTF8
Codec ID/Info : UTF-8 Plain Text
Title : RoxMarty
Language : Russian

Text #3
ID : 14
Format : UTF-8
Codec ID : S_TEXT/UTF8
Codec ID/Info : UTF-8 Plain Text
Title : Full
Language : Russian

Text #4
ID : 15
Format : UTF-8
Codec ID : S_TEXT/UTF8
Codec ID/Info : UTF-8 Plain Text
Title : Full v2
Language : Russian

Text #5
ID : 16
Format : UTF-8
Codec ID : S_TEXT/UTF8
Codec ID/Info : UTF-8 Plain Text
Title : Q&A Commentaries with Director Robert Zemeckis and Producer Bob Gale
Language : Russian

Text #6
ID : 17
Format : UTF-8
Codec ID : S_TEXT/UTF8
Codec ID/Info : UTF-8 Plain Text
Title : Commentaries with Producers Bob Gale and Neil Canton
Language : Russian

Text #7
ID : 18
Format : UTF-8
Codec ID : S_TEXT/UTF8
Codec ID/Info : UTF-8 Plain Text
Title : RoxMarty
Language : English

Text #8
ID : 19
Format : UTF-8
Codec ID : S_TEXT/UTF8
Codec ID/Info : UTF-8 Plain Text
Language : English

Text #9
ID : 20
Format : UTF-8
Codec ID : S_TEXT/UTF8
Codec ID/Info : UTF-8 Plain Text
Title : SDH
Language : English

Text #10
ID : 21
Format : UTF-8
Codec ID : S_TEXT/UTF8
Codec ID/Info : UTF-8 Plain Text
Title : Q&A Commentaries with Director Robert Zemeckis and Producer Bob Gale
Language : English

Text #11
ID : 22
Format : UTF-8
Codec ID : S_TEXT/UTF8
Codec ID/Info : UTF-8 Plain Text
Title : Commentaries with Producers Bob Gale and Neil Canton
Language : English

Text #12
ID : 23
Format : PGS
Muxing mode : zlib
Codec ID : S_HDMV/PGS
Codec ID/Info : The same subtitle format used on BDs/HD-DVDs
Title : forced; (.sup) PGS
Language : Russian

Text #13
ID : 24
Format : PGS
Muxing mode : zlib
Codec ID : S_HDMV/PGS
Codec ID/Info : The same subtitle format used on BDs/HD-DVDs
Title : Q&A Commentaries with Director Robert Zemeckis and Producer Bob Gale; (PGS) .sup
Language : Russian

Text #14
ID : 25
Format : PGS
Muxing mode : zlib
Codec ID : S_HDMV/PGS
Codec ID/Info : The same subtitle format used on BDs/HD-DVDs
Title : Commentaries with Producers Bob Gale and Neil Canton; (.sup) PGS
Language : Russian

Text #15
ID : 26
Format : PGS
Muxing mode : zlib
Codec ID : S_HDMV/PGS
Codec ID/Info : The same subtitle format used on BDs/HD-DVDs
Title : Q&A Commentaries with Director Robert Zemeckis and Producer Bob Gale; (.sup) PGS
Language : English

Text #16
ID : 27
Format : PGS
Muxing mode : zlib
Codec ID : S_HDMV/PGS
Codec ID/Info : The same subtitle format used on BDs/HD-DVDs
Title : Commentaries with Producers Bob Gale and Neil Canton; (.sup) PGS
Language : English

Text #17
ID : 28
Format : PGS
Muxing mode : zlib
Codec ID : S_HDMV/PGS
Codec ID/Info : The same subtitle format used on BDs/HD-DVDs
Title : SDH; (.sup) PGS
Language : English

Menu
00:00:00.000 : en:01. Back From the Future
00:02:57.511 : en:02. Main Titles
00:04:17.632 : en:03. Hill Valley
00:12:44.389 : en:04. Marty Junior?
00:17:09.111 : en:05. Batter Up!
00:21:16.525 : en:06. The Almanac
00:26:59.660 : en:07. The Future McFlys
00:34:15.428 : en:08. Chicken
00:38:32.477 : en:09. Past Imperfect
00:46:13.062 : en:10. My Father?
00:50:35.449 : en:11. An Alternate 1985
00:55:32.621 : en:12. Anout That Book
01:01:30.145 : en:13. Back to 1955
01:07:14.197 : en:14. Biff's Lucky Day
01:14:45.940 : en:15. Back to the Dance
01:28:00.609 : en:16. Get That Book!
01:34:43.303 : en:17. Back to Normal?
01:37:46.027 : en:18. A Letter From 1885
01:40:37.240 : en:19. I'm Back
01:43:25.491 : en:20. End Titles

Назад в будущее 3 / Back to the Future Part III

Год выпуска: 1990
Страна: США
Жанр: фантастика, комедия, приключения
Продолжительность: 01:58:24
Перевод: Профессиональный (многоголосый, закадровый), двухголосый, одноголосый

Режиссер:

  • Роберт Земекис / Robert Zemeckis


В ролях:

    Майкл Дж. Фокс (Marty McFly / Seamus McFly), Кристофер Ллойд (Dr. Emmett Brown), Мэри Стинберген (Clara Clayton), Томас Ф. Уилсон (Buford 'Mad Dog' Tannen / Biff Tannen), Лиа Томпсон (Maggie McFly / Lorraine McFly), Элизабет Шу (Jennifer Parker), Джеймс Толкан (Chief Marshal James Strickland), Мэтт Кларк (Chester the Bartender), Даб Тейлор (Saloon Old-Timer #1), Гарри Кэри мл. (Saloon Old-Timer #2), Пэт Баттрем (Saloon Old-Timer #3), Кристофер Уинн (Buford's Gang Member #1 / Needles' Gang Member #1)


Описание:

Из газет 1985 года Марти узнает, что доктор Браун погиб еще сто лет назад. Несмотря на просьбы Дока не навещать его в XIX веке, Марти вновь хочет вмешаться в ход событий и на машине времени уносится в 1885 год, навстречу Дикому Западу.
Это путешествие, как и все прежние, не обходится без опасных приключений, но смелый Марти, рискуя жизнью, предотвращает трагедию в жизни Эммета Брауна. Тот, в свою очередь, без памяти влюбляется в очаровательную незнакомку, которую спасает от гибели, и поездка домой — в будущее — теряет для него всякий смысл…

Качество: Blu-Ray Remux
Формат: MKV
Видео кодек: H.264
Аудио кодек: DTS; AC3
Видео: 1920x1080p, 23.976 fps, ~28538 kbps kbps
Аудио:

MVO; DTS 5.1 ~1510 kbps 48 kHz [ОРТ]
DVO; DTS 5.1 ~1510 kbps 48 kHz [Гланц+Лютая]
DVO; DTS 5.1 ~1510 kbps 48 kHz [НТВ / СТС]
DVO; DTS 5.1 ~1510 kbps 48 kHz [Премьер]
AVO; DTS 5.1 ~1510 kbps 48 kHz [Гаврилов поздний]
Q&A Commentaries with Director Robert Zemeckis and Producer Bob Gale [RoxMarty]; AC3 2.0 256 kbps 48 kHz
Feature Commentaries with Producers Bob Gale and Neil Canton [RoxMarty]; AC3 2.0 256 kbps 48 kHz

DTS-HD Master Audio 5.1 ~4234 kbps 48 kHz 24-bit (DTS Core 5.1 ~1510 kbps 48 kHz 24-bit)
Q&A Commentaries with Director Robert Zemeckis and Producer Bob Gale; AC3 2.0 192 kbps 48 kHz
Feature Commentaries with Producers Bob Gale and Neil Canton; AC3 2.0 192 kbps 48 kHz

Субтитры:
Формат: PGS (.sup) / .srt

русские: forced; RoxMarty; Full; Full v2; Q&A Commentaries with Director Robert Zemeckis and Producer Bob Gale; Feature Commentaries with Producers Bob Gale and Neil Canton
английские: English; SDH; Q&A Commentaries with Director Robert Zemeckis and Producer Bob Gale; Feature Commentaries with Producers Bob Gale and Neil Canton
Format : Matroska
Format version : Version 2
File size : 34.1 GiB
Duration : 1h 58mn
Overall bit rate : 41.2 Mbps
Encoded date : UTC 2011-11-21 19:23:52
Writing application : mkvmerge v5.0.1 ('Es ist Sommer') built on Oct 9 2011 11:55:43
Writing library : libebml v1.2.2 + libmatroska v1.3.0

Video
ID : 1
Format : AVC
Format/Info : Advanced Video Codec
Format profile : High@L4.1
Format settings, CABAC : Yes
Format settings, ReFrames : 4 frames
Muxing mode : Container profile=Unknown@0.0
Codec ID : V_MPEG4/ISO/AVC
Duration : 1h 58mn
Bit rate mode : Variable
Bit rate : 30.4 Mbps
Maximum bit rate : 31.0 Mbps
Width : 1 920 pixels
Height : 1 080 pixels
Display aspect ratio : 16:9
Frame rate : 23.976 fps
Color space : YUV
Chroma subsampling : 4:2:0
Bit depth : 8 bits
Scan type : Progressive
Bits/(Pixel*Frame) : 0.611
Stream size : 25.1 GiB (74%)
Title : Back to the Future Part III ~28538 kbps
Language : English
Color primaries : BT.709-5, BT.1361, IEC 61966-2-4, SMPTE RP177
Transfer characteristics : BT.709-5, BT.1361
Matrix coefficients : BT.709-5, BT.1361, IEC 61966-2-4 709, SMPTE RP177

Audio #1
ID : 2
Format : DTS
Format/Info : Digital Theater Systems
Codec ID : A_DTS
Duration : 1h 58mn
Bit rate mode : Constant
Bit rate : 1 510 Kbps
Channel(s) : 6 channels
Channel positions : Front: L C R, Side: L R, LFE
Sampling rate : 48.0 KHz
Bit depth : 24 bits
Compression mode : Lossy
Stream size : 1.25 GiB (4%)
Title : MVO; DTS 5.1 ~1510 kbps 48 kHz [ORT]
Language : Russian

Audio #2
ID : 3
Format : DTS
Format/Info : Digital Theater Systems
Codec ID : A_DTS
Duration : 1h 58mn
Bit rate mode : Constant
Bit rate : 1 510 Kbps
Channel(s) : 6 channels
Channel positions : Front: L C R, Side: L R, LFE
Sampling rate : 48.0 KHz
Bit depth : 24 bits
Compression mode : Lossy
Stream size : 1.25 GiB (4%)
Title : DVO; DTS 5.1 ~1510 kbps 48 kHz [Glanz & Lutaya]
Language : Russian

Audio #3
ID : 4
Format : DTS
Format/Info : Digital Theater Systems
Codec ID : A_DTS
Duration : 1h 58mn
Bit rate mode : Constant
Bit rate : 1 510 Kbps
Channel(s) : 6 channels
Channel positions : Front: L C R, Side: L R, LFE
Sampling rate : 48.0 KHz
Bit depth : 24 bits
Compression mode : Lossy
Stream size : 1.25 GiB (4%)
Title : DVO; DTS 5.1 ~1510 kbps 48 kHz [NTV-STS]
Language : Russian

Audio #4
ID : 5
Format : DTS
Format/Info : Digital Theater Systems
Codec ID : A_DTS
Duration : 1h 58mn
Bit rate mode : Constant
Bit rate : 1 510 Kbps
Channel(s) : 6 channels
Channel positions : Front: L C R, Side: L R, LFE
Sampling rate : 48.0 KHz
Bit depth : 24 bits
Compression mode : Lossy
Stream size : 1.25 GiB (4%)
Title : DVO; DTS 5.1 ~1510 kbps 48 kHz [Premier]
Language : Russian

Audio #5
ID : 6
Format : DTS
Format/Info : Digital Theater Systems
Codec ID : A_DTS
Duration : 1h 58mn
Bit rate mode : Constant
Bit rate : 1 510 Kbps
Channel(s) : 6 channels
Channel positions : Front: L C R, Side: L R, LFE
Sampling rate : 48.0 KHz
Bit depth : 24 bits
Compression mode : Lossy
Stream size : 1.25 GiB (4%)
Title : AVO; DTS 5.1 ~1510 kbps 48 kHz [Gavrilov]
Language : Russian

Audio #6
ID : 7
Format : AC-3
Format/Info : Audio Coding 3
Mode extension : CM (complete main)
Codec ID : A_AC3
Duration : 1h 58mn
Bit rate mode : Constant
Bit rate : 256 Kbps
Channel(s) : 2 channels
Channel positions : Front: L R
Sampling rate : 48.0 KHz
Bit depth : 16 bits
Compression mode : Lossy
Stream size : 217 MiB (1%)
Title : Q&A Commentaries with Director Robert Zemeckis and Producer Bob Gale [RoxMarty]; AC3 2.0 256 kbps 48 kHz
Language : Russian

Audio #7
ID : 8
Format : AC-3
Format/Info : Audio Coding 3
Mode extension : CM (complete main)
Codec ID : A_AC3
Duration : 1h 58mn
Bit rate mode : Constant
Bit rate : 256 Kbps
Channel(s) : 2 channels
Channel positions : Front: L R
Sampling rate : 48.0 KHz
Bit depth : 16 bits
Compression mode : Lossy
Stream size : 217 MiB (1%)
Title : Feature Commentaries with Producers Bob Gale and Neil Canton [RoxMarty]; AC3 2.0 256 kbps 48 kHz
Language : Russian

Audio #8
ID : 9
Format : DTS
Format/Info : Digital Theater Systems
Format profile : MA / Core
Codec ID : A_DTS
Duration : 1h 58mn
Bit rate mode : Variable
Bit rate : 1 576 Kbps / 1 510 Kbps
Channel(s) : 6 channels
Channel positions : Front: L C R, Side: L R, LFE
Sampling rate : 48.0 KHz
Bit depth : 24 bits
Compression mode : Lossless / Lossy
Title : DTS-HD Master Audio 5.1 ~4234 kbps 48 kHz 24-bit (DTS Core 5.1 ~1510 kbps 48 kHz 24-bit)
Language : English

Audio #9
ID : 10
Format : AC-3
Format/Info : Audio Coding 3
Format profile : Dolby Digital
Mode extension : CM (complete main)
Codec ID : A_AC3
Duration : 1h 58mn
Bit rate mode : Constant
Bit rate : 192 Kbps
Channel(s) : 2 channels
Channel positions : Front: L R
Sampling rate : 48.0 KHz
Bit depth : 16 bits
Compression mode : Lossy
Stream size : 163 MiB (0%)
Title : Q&A Commentaries with Director Robert Zemeckis and Producer Bob Gale; AC3 2.0 192 kbps 48 kHz
Language : English

Audio #10
ID : 11
Format : AC-3
Format/Info : Audio Coding 3
Format profile : Dolby Digital
Mode extension : CM (complete main)
Codec ID : A_AC3
Duration : 1h 58mn
Bit rate mode : Constant
Bit rate : 192 Kbps
Channel(s) : 2 channels
Channel positions : Front: L R
Sampling rate : 48.0 KHz
Bit depth : 16 bits
Compression mode : Lossy
Stream size : 163 MiB (0%)
Title : Feature Commentaries with Producers Bob Gale and Neil Canton; AC3 2.0 192 kbps 48 kHz
Language : English

Text #1
ID : 12
Format : UTF-8
Codec ID : S_TEXT/UTF8
Codec ID/Info : UTF-8 Plain Text
Title : forced
Language : Russian

Text #2
ID : 13
Format : UTF-8
Codec ID : S_TEXT/UTF8
Codec ID/Info : UTF-8 Plain Text
Title : RoxMarty
Language : Russian

Text #3
ID : 14
Format : UTF-8
Codec ID : S_TEXT/UTF8
Codec ID/Info : UTF-8 Plain Text
Title : Full
Language : Russian

Text #4
ID : 15
Format : UTF-8
Codec ID : S_TEXT/UTF8
Codec ID/Info : UTF-8 Plain Text
Title : Full v2
Language : Russian

Text #5
ID : 16
Format : UTF-8
Codec ID : S_TEXT/UTF8
Codec ID/Info : UTF-8 Plain Text
Title : Q&A Commentaries with Director Robert Zemeckis and Producer Bob Gale
Language : Russian

Text #6
ID : 17
Format : UTF-8
Codec ID : S_TEXT/UTF8
Codec ID/Info : UTF-8 Plain Text
Title : Commentaries with Producers Bob Gale and Neil Canton
Language : Russian

Text #7
ID : 18
Format : UTF-8
Codec ID : S_TEXT/UTF8
Codec ID/Info : UTF-8 Plain Text
Title : SDH
Language : English

Text #8
ID : 19
Format : UTF-8
Codec ID : S_TEXT/UTF8
Codec ID/Info : UTF-8 Plain Text
Language : English

Text #9
ID : 20
Format : UTF-8
Codec ID : S_TEXT/UTF8
Codec ID/Info : UTF-8 Plain Text
Title : Q&A Commentaries with Director Robert Zemeckis and Producer Bob Gale
Language : English

Text #10
ID : 21
Format : UTF-8
Codec ID : S_TEXT/UTF8
Codec ID/Info : UTF-8 Plain Text
Title : Commentaries with Producers Bob Gale and Neil Canton
Language : English

Text #11
ID : 22
Format : PGS
Muxing mode : zlib
Codec ID : S_HDMV/PGS
Codec ID/Info : The same subtitle format used on BDs/HD-DVDs
Title : forced; (.sup) PGS
Language : Russian

Text #12
ID : 23
Format : PGS
Muxing mode : zlib
Codec ID : S_HDMV/PGS
Codec ID/Info : The same subtitle format used on BDs/HD-DVDs
Title : Q&A Commentaries with Director Robert Zemeckis and Producer Bob Gale; (.sup) PGS
Language : Russian

Text #13
ID : 24
Format : PGS
Muxing mode : zlib
Codec ID : S_HDMV/PGS
Codec ID/Info : The same subtitle format used on BDs/HD-DVDs
Title : Commentaries with Producers Bob Gale and Neil Canton; (.sup) PGS
Language : Russian

Text #14
ID : 25
Format : PGS
Muxing mode : zlib
Codec ID : S_HDMV/PGS
Codec ID/Info : The same subtitle format used on BDs/HD-DVDs
Title : Q&A Commentaries with Director Robert Zemeckis and Producer Bob Gale; (.sup) PGS
Language : English

Text #15
ID : 26
Format : PGS
Muxing mode : zlib
Codec ID : S_HDMV/PGS
Codec ID/Info : The same subtitle format used on BDs/HD-DVDs
Title : Commentaries with Producers Bob Gale and Neil Canton; (.sup) PGS
Language : English

Text #16
ID : 27
Format : PGS
Muxing mode : zlib
Codec ID : S_HDMV/PGS
Codec ID/Info : The same subtitle format used on BDs/HD-DVDs
Title : SDH; (.sup) PGS
Language : English

Menu
00:00:00.000 : en:01. Back Again
00:02:50.336 : en:02. Main Titles
00:05:01.134 : en:03. A Letter From Doc
00:12:42.011 : en:04. Doc's Destiny
00:15:49.365 : en:05. Back to 1885
00:22:15.208 : en:06. Clint Eastwood?
00:30:03.593 : en:07. Mad Dog
00:33:16.119 : en:08. Reunited
00:37:44.679 : en:09. Out of Gas
00:41:54.303 : en:10. Clara
00:50:43.331 : en:11. The Town Festival
00:56:58.665 : en:12. Trouble With Tannen
01:06:25.439 : en:13. The Course of the Future
01:16:23.078 : en:14. Late for a Train
01:20:44.840 : en:15. Showdown
01:30:33.678 : en:16. Racing Against Time
01:42:19.758 : en:17. Back to Normal
01:46:07.235 : en:18. Marty's Choice
01:48:07.939 : en:19. Meet the Family
01:51:52.831 : en:20. End Titles
info [Профиль]  [ЛС] 

EKSTAZY

Пол: Пол:Муж

Стаж: 6 лет 5 месяцев

Сообщений: 77

Россия
Рейтинг

post 21-Ноя-2011 14:48 (спустя 10 дней) [-]7[+]

[Цитировать] 

это "что-то", а не фильм)
В детстве раз 50 смотрел)
info [Профиль]  [ЛС] 

SpYFoX

Пол: Пол:Муж

Стаж: 5 лет 5 месяцев

Сообщений: 27

Россия
Рейтинг

post 21-Ноя-2011 16:50 (спустя 2 часа 1 минута) [-]4[+]

[Цитировать] 

Да офигенный фильм. Тем кто не смотрел, смотреть!
info [Профиль]  [ЛС] 

Anri62rus

Пол: Пол:Муж

Стаж: 5 лет 2 месяца

Сообщений: 6

Россия
Рейтинг

post 21-Ноя-2011 17:11 (спустя 21 минута) [-]2[+]

[Цитировать] 

EKSTAZY писал(а):

это "что-то", а не фильм)
В детстве раз 50 смотрел)
А я его до сих пор смотрю
3-4 раза в год бывает по телевизору)))
info [Профиль]  [ЛС] 

Wrex25

Пол: Пол:Муж

Стаж: 6 лет 9 месяцев

Сообщений: 333

Россия
Рейтинг

post 21-Ноя-2011 17:14 (спустя 2 минуты) [-]0[+]

[Цитировать] 

kolob_188
Смысла не вижу качать сие без озвучки "Премьер-а". kolob_132
info [Профиль]  [ЛС] 

Michman

Пол: Пол:Муж

Стаж: 7 лет 3 месяца

Сообщений: 11

Россия
Рейтинг

post 21-Ноя-2011 18:27 (спустя 1 час 13 минут) [-]0[+]

[Цитировать] 

Wrex25 писал(а):

kolob_188
Смысла не вижу качать сие без озвучки "Премьер-а". kolob_132
Подтверждаю! "Игорь Тарадайкин и Любовь Германова" лучшие из всех озвучек!!!

_________________
info [Профиль]  [ЛС] 

Жура

Пол: Пол:Муж

Стаж: 7 лет 8 месяцев

Сообщений: 143

Предупреждений: 1

Россия
Рейтинг

post 21-Ноя-2011 22:22 (спустя 3 часа) [-]1[+]

[Цитировать] 

Wrex25, Michman
Всем не угодишь. Выбирал, на свой взгляд, лучшие переводы. Если никто не будет просить FDV, карусели, киномании, Михалёва и прочих, то обновлю раздачу и добавлю перевод премьера. kolob_125
__________________________________________________________________________________________________________________

Торрент обновлён. Добавлен перевод от "Премьер"
info [Профиль]  [ЛС] 

EKSTAZY

Пол: Пол:Муж

Стаж: 6 лет 5 месяцев

Сообщений: 77

Россия
Рейтинг

post 27-Ноя-2011 12:00 (спустя 5 дней) [-]0[+]

[Цитировать] 

Жура, спасибо)
Вопрос немного не по теме: Док ещё жив?
info [Профиль]  [ЛС] 

kirdik2

Пол: Пол:Муж

Стаж: 6 лет 9 месяцев

Сообщений: 53

Рейтинг

post 27-Ноя-2011 12:11 (спустя 10 минут) [-]2[+]

[Цитировать] 

EKSTAZY писал(а):

Жура, спасибо)
Вопрос немного не по теме: Док ещё жив?
а кого по твоему использовали при озвучке игр от теллтейл?)

_________________
info [Профиль]  [ЛС] 

Ядурак

Пол: Пол:Муж

Стаж: 6 лет 8 месяцев

Сообщений: 796

Северные Марианские острова
Рейтинг

post 27-Ноя-2011 12:41 (спустя 30 минут) [-]1[+]

[Цитировать] 

EKSTAZY писал(а):

Жура, спасибо)
Вопрос немного не по теме: Док ещё жив?
Кристофер Ллойд жив и умирать не собирается :3

_________________
кончились аргументы - саркастически шути про мой ник
info [Профиль]  [ЛС] 

EKSTAZY

Пол: Пол:Муж

Стаж: 6 лет 5 месяцев

Сообщений: 77

Россия
Рейтинг

post 27-Ноя-2011 19:59 (спустя 7 часов) [-]0[+]

[Цитировать] 

спасибо парни))))
я рад)
info [Профиль]  [ЛС] 

Жура

Пол: Пол:Муж

Стаж: 7 лет 8 месяцев

Сообщений: 143

Предупреждений: 1

Россия
Рейтинг

post 09-Янв-2012 00:42 (спустя 1 месяц 11 дней) [-]0[+]

[Цитировать] 

вследствие некоторых причин, ухожу с раздачи.
info [Профиль]  [ЛС] 

NepsterOne

Пол: Пол:Муж

Стаж: 7 лет 8 месяцев

Сообщений: 157

Россия
Рейтинг

post 05-Мар-2012 23:35 (спустя 1 месяц 27 дней) [-]0[+]

[Цитировать] 

т.к данное чудо раздавать некому( и в большей мере раздую только я. В связи с временными трудностями на раздачу вернусь 19 марта, до этого времени если уважаемый Жура не вернется, раздавать будет некому:)

_________________
info [Профиль]  [ЛС] 

fafnir4ik

Стаж: 4 года 10 месяцев

Сообщений: 3

Албания
Рейтинг

post 29-Апр-2012 13:39 (спустя 1 месяц 23 дня) [-]1[+]

[Цитировать] 

А на раздаче снова никого. Дайте скачать и буду раздавать до упора свой любимый фильм.

_________________
info [Профиль]  [ЛС] 

Risk23

Пол: Пол:Муж

Стаж: 4 года 6 месяцев

Сообщений: 14

Украина
Рейтинг

post 29-Июн-2012 20:09 (спустя 2 месяца) [-]0[+]

[Цитировать] 

fafnir4ik писал(а):

А на раздаче снова никого. Дайте скачать и буду раздавать до упора свой любимый фильм.
+1 встанте на раздачу плиииззз!!!
info [Профиль]  [ЛС] 

Yakimov

Пол: Пол:Муж

Стаж: 4 года 6 месяцев

Сообщений: 7

Россия
Рейтинг

post 09-Июл-2012 12:15 (спустя 9 дней) [-]0[+]

[Цитировать] 

дайте скорости пожалуйста, 2е суток, скачано 15% при ширине загрузки в 2 мегабайта минимум.
info [Профиль]  [ЛС] 

kaliasa

Пол: Пол:Муж

Стаж: 4 года 4 месяца

Сообщений: 50

СССР
Рейтинг

post 24-Июл-2012 12:08 (спустя 14 дней) [-]0[+]

[Цитировать] 

Тоже не вижу смысла качать без дубляжа.
И на фига все дороги впихнули в один контеннер.
За релиз конечно спасибо.
Но качать не буду.
Был бы дубляж я бы скачал бы тогда.

_________________
info [Профиль]  [ЛС] 

Grepar

Пол: Пол:Муж

Стаж: 4 года 11 месяцев

Сообщений: 27

США
Рейтинг

post 13-Фев-2013 14:16 (спустя 6 месяцев 20 дней) [-]0[+]

[Цитировать] 

Дайте скорости. Вторые сутки 6,3%. Комп не вырубаю.
info [Профиль]  [ЛС] 

Catastrophe

Стаж: 3 года 10 месяцев

Сообщений: 14

Австралия
Рейтинг

post 30-Мар-2013 09:00 (спустя 1 месяц 16 дней) [-]1[+]

[Цитировать] 

спасибо огроменное . особенно за АНДРЕЯ ЮРЬЕВИЧА ГАВРИЛОВА ( таких людей как он надо писать только капсом ) в dts
info [Профиль]  [ЛС] 

Radiator Springs

Пол: Пол:Муж

Стаж: 6 лет 2 месяца

Сообщений: 100

Белоруссия
Рейтинг

post 18-Сен-2013 10:08 (спустя 5 месяцев 19 дней) [-]0[+]

[Цитировать] 

помогите плз качнуть сеё чудное кино!? спасибо!
info [Профиль]  [ЛС] 

post 25-Сен-2015 08:02 (спустя 2 года) [-]0[+]

Топик был перенесен из форума Зарубежное кино | HD DVD и Blu-ray в форум Зерубежное видео от R.G. TNclub

L
 

post 25-Сен-2015 08:20 (спустя 2 года) [-]0[+]

Топик был перенесен из форума Зерубежное видео от R.G. TNclub в форум Зарубежное кино | HD DVD и Blu-ray

L
 

goggi

Пол: Пол:Муж

Стаж: 3 года 11 месяцев

Сообщений: 59

Рейтинг

post 08-Янв-2016 13:24 (спустя 2 года 3 месяца) [-]0[+]

[Цитировать] 

Потрясающая детализация реально переносит в американские 80е.
info [Профиль]  [ЛС] 
Показать сообщения:    
Ответить на тему

Текущее время: 09-Дек 07:52

Часовой пояс: GMT + 4



Вы не можете начинать темы
Вы не можете отвечать на сообщения
Вы не можете редактировать свои сообщения
Вы не можете удалять свои сообщения
Вы не можете голосовать в опросах
Вы не можете прикреплять файлы к сообщениям
Вы не можете скачивать файлы