Ошибка

(Alternative Metal | Nu-Metal | Gothic Rock) Evanescence - Evanescence (Deluxe edition) - 2011, FLAC (tracks+.cue), lossless

Ответить на тему
 
Автор Сообщение

WebeR

Пол: Пол:Муж

Стаж: 7 лет 4 месяца

Сообщений: 260

Рейтинг

post 08-Окт-2011 22:20 1[+]

[Цитировать] 


Жанр: Alternative Metal | Nu-Metal | Gothic Rock
Происхождение исполнителя: США
Год издания данного носителя: 2011
Страна-производитель носителя: США
Тип релиза: tracks+.cue
Аудио кодек: FLAC
Битрейт аудио: lossless
Продолжительность: 01:01:34
Источник (релизер): What.cd (IchiKafka)
Лейбл: Wind-Up Records
Треклист:
01. «What You Want» (03:41)
02. «Made of Stone» (03:32)
03. «The Change» (03:43)
04. «My Heart is Broken» (04:29)
05. «The Other Side» (04:04)
06. «Erase This» (03:52)
07. «Lost in Paradise» (04:42)
08. «Sick» (03:29)
09. «End of the Dream» (03:49)
10. «Oceans» (03:36)
11. «Never Go Back» (04:26)
12. «Swimming Home» (03:43)
Бонусные треки:
13. «New Way to Bleed» (3:46)
14. «Say You Will» (3:43)
15. «Disappear» (3:07)
16. «Secret Door» (3:53)

Код:

Exact Audio Copy V1.0 beta 1 from 15. November 2010

EAC extraction logfile from 13. October 2011, 20:59

Evanescence / Evanescence

Used drive  : PIONEER DVD-RW  DVRTD08L   Adapter: 2  ID: 0

Read mode               : Secure
Utilize accurate stream : Yes
Defeat audio cache      : Yes
Make use of C2 pointers : No

Read offset correction                      : 48
Overread into Lead-In and Lead-Out          : No
Fill up missing offset samples with silence : Yes
Delete leading and trailing silent blocks   : No
Null samples used in CRC calculations       : Yes
Used interface                              : Installed external ASPI interface
Gap handling                                : Appended to previous track

Used output format              : User Defined Encoder
Selected bitrate                : 768 kBit/s
Quality                         : High
Add ID3 tag                     : No
Command line compressor         : C:\Program Files\Exact Audio Copy\FLAC\FLAC.EXE
Additional command line options : -6 -V -T "ARTIST=%a" -T "TITLE=%t" -T "ALBUM=%g" -T "DATE=%y" -T "TRACKNUMBER=%n" -T "GENRE=%m" -T "COMMENT=%e" %j--picture="%i"%j %s -o %d

TOC of the extracted CD

     Track |   Start  |  Length  | Start sector | End sector
    ---------------------------------------------------------
        1  |  0:00.00 |  3:41.27 |         0    |    16601
        2  |  3:41.27 |  3:33.43 |     16602    |    32619
        3  |  7:14.70 |  3:42.26 |     32620    |    49295
        4  | 10:57.21 |  4:29.12 |     49296    |    69482
        5  | 15:26.33 |  4:05.00 |     69483    |    87857
        6  | 19:31.33 |  3:55.18 |     87858    |   105500
        7  | 23:26.51 |  4:42.22 |    105501    |   126672
        8  | 28:08.73 |  3:30.03 |    126673    |   142425
        9  | 31:39.01 |  3:49.11 |    142426    |   159611
       10  | 35:28.12 |  3:38.17 |    159612    |   175978
       11  | 39:06.29 |  4:27.23 |    175979    |   196026
       12  | 43:33.52 |  3:44.01 |    196027    |   212827
       13  | 47:17.53 |  3:46.30 |    212828    |   229807
       14  | 51:04.08 |  3:43.21 |    229808    |   246553
       15  | 54:47.29 |  3:06.71 |    246554    |   260574
       16  | 57:54.25 |  3:53.26 |    260575    |   278075

Track  1

     Filename G:\Music\Evanescence - 2011 - Evanescence\01 - What You Want.wav

     Pre-gap length  0:00:02.00

     Peak level 100.0 %
     Extraction speed 2.0 X
     Track quality 100.0 %
     Test CRC 4979FF04
     Copy CRC 4979FF04
     Track not present in AccurateRip database
     Copy OK

Track  2

     Filename G:\Music\Evanescence - 2011 - Evanescence\02 - Made Of Stone.wav

     Peak level 100.0 %
     Extraction speed 2.2 X
     Track quality 100.0 %
     Test CRC 1615E945
     Copy CRC 1615E945
     Track not present in AccurateRip database
     Copy OK

Track  3

     Filename G:\Music\Evanescence - 2011 - Evanescence\03 - The Change.wav

     Peak level 100.0 %
     Extraction speed 2.4 X
     Track quality 100.0 %
     Test CRC A663A8C4
     Copy CRC A663A8C4
     Track not present in AccurateRip database
     Copy OK

Track  4

     Filename G:\Music\Evanescence - 2011 - Evanescence\04 - My Heart Is Broken.wav

     Peak level 100.0 %
     Extraction speed 2.6 X
     Track quality 100.0 %
     Test CRC 30327736
     Copy CRC 30327736
     Track not present in AccurateRip database
     Copy OK

Track  5

     Filename G:\Music\Evanescence - 2011 - Evanescence\05 - The Other Side.wav

     Peak level 100.0 %
     Extraction speed 2.8 X
     Track quality 100.0 %
     Test CRC DFB80409
     Copy CRC DFB80409
     Track not present in AccurateRip database
     Copy OK

Track  6

     Filename G:\Music\Evanescence - 2011 - Evanescence\06 - Erase This.wav

     Peak level 100.0 %
     Extraction speed 2.9 X
     Track quality 100.0 %
     Test CRC 55592705
     Copy CRC 55592705
     Track not present in AccurateRip database
     Copy OK

Track  7

     Filename G:\Music\Evanescence - 2011 - Evanescence\07 - Lost In Paradise.wav

     Peak level 100.0 %
     Extraction speed 3.1 X
     Track quality 100.0 %
     Test CRC 46F86C05
     Copy CRC 46F86C05
     Track not present in AccurateRip database
     Copy OK

Track  8

     Filename G:\Music\Evanescence - 2011 - Evanescence\08 - Sick.wav

     Peak level 100.0 %
     Extraction speed 3.1 X
     Track quality 100.0 %
     Test CRC A982DB20
     Copy CRC A982DB20
     Track not present in AccurateRip database
     Copy OK

Track  9

     Filename G:\Music\Evanescence - 2011 - Evanescence\09 - End Of The Dream.wav

     Peak level 100.0 %
     Extraction speed 2.9 X
     Track quality 99.9 %
     Test CRC 75F49234
     Copy CRC 75F49234
     Track not present in AccurateRip database
     Copy OK

Track 10

     Filename G:\Music\Evanescence - 2011 - Evanescence\10 - Oceans.wav

     Peak level 100.0 %
     Extraction speed 3.3 X
     Track quality 100.0 %
     Test CRC 1C5C1B6F
     Copy CRC 1C5C1B6F
     Track not present in AccurateRip database
     Copy OK

Track 11

     Filename G:\Music\Evanescence - 2011 - Evanescence\11 - Never Go Back.wav

     Peak level 100.0 %
     Extraction speed 3.1 X
     Track quality 99.9 %
     Test CRC 56934A2B
     Copy CRC 56934A2B
     Track not present in AccurateRip database
     Copy OK

Track 12

     Filename G:\Music\Evanescence - 2011 - Evanescence\12 - Swimming Home.wav

     Peak level 98.4 %
     Extraction speed 3.6 X
     Track quality 100.0 %
     Test CRC E3CE00AE
     Copy CRC E3CE00AE
     Track not present in AccurateRip database
     Copy OK

Track 13

     Filename G:\Music\Evanescence - 2011 - Evanescence\13 - New Way To Bleed.wav

     Pre-gap length  0:00:02.62

     Peak level 100.0 %
     Extraction speed 3.7 X
     Track quality 100.0 %
     Test CRC 9D4088BE
     Copy CRC 9D4088BE
     Track not present in AccurateRip database
     Copy OK

Track 14

     Filename G:\Music\Evanescence - 2011 - Evanescence\14 - Say You Will.wav

     Peak level 100.0 %
     Extraction speed 3.8 X
     Track quality 100.0 %
     Test CRC 8150CC88
     Copy CRC 8150CC88
     Track not present in AccurateRip database
     Copy OK

Track 15

     Filename G:\Music\Evanescence - 2011 - Evanescence\15 - Disappear.wav

     Peak level 100.0 %
     Extraction speed 3.2 X
     Track quality 99.9 %
     Test CRC E353E6FC
     Copy CRC E353E6FC
     Track not present in AccurateRip database
     Copy OK

Track 16

     Filename G:\Music\Evanescence - 2011 - Evanescence\16 - Secret Door.wav

     Peak level 96.9 %
     Extraction speed 4.0 X
     Track quality 100.0 %
     Test CRC 43CEB5D8
     Copy CRC 43CEB5D8
     Track not present in AccurateRip database
     Copy OK

None of the tracks are present in the AccurateRip database

No errors occurred

End of status report

==== Log checksum 3B7B4E058751B0820D18CBEDCCBEAC912777248D49339F72CB8B5914CCB9491A ====

Код:

REM GENRE Rock
REM DATE 2011
REM DISCID E50E7B10
REM COMMENT "ExactAudioCopy v1.0b1"
PERFORMER "Evanescence"
TITLE "Evanescence"
FILE "Evanescence - 2011 - Evanescence\01 - What You Want.wav" WAVE
  TRACK 01 AUDIO
    TITLE "What You Want"
    PERFORMER "Evanescence"
    INDEX 01 00:00:00
FILE "Evanescence - 2011 - Evanescence\02 - Made Of Stone.wav" WAVE
  TRACK 02 AUDIO
    TITLE "Made Of Stone"
    PERFORMER "Evanescence"
    INDEX 01 00:00:00
FILE "Evanescence - 2011 - Evanescence\03 - The Change.wav" WAVE
  TRACK 03 AUDIO
    TITLE "The Change"
    PERFORMER "Evanescence"
    INDEX 01 00:00:00
FILE "Evanescence - 2011 - Evanescence\04 - My Heart Is Broken.wav" WAVE
  TRACK 04 AUDIO
    TITLE "My Heart Is Broken"
    PERFORMER "Evanescence"
    INDEX 01 00:00:00
FILE "Evanescence - 2011 - Evanescence\05 - The Other Side.wav" WAVE
  TRACK 05 AUDIO
    TITLE "The Other Side"
    PERFORMER "Evanescence"
    INDEX 01 00:00:00
FILE "Evanescence - 2011 - Evanescence\06 - Erase This.wav" WAVE
  TRACK 06 AUDIO
    TITLE "Erase This"
    PERFORMER "Evanescence"
    INDEX 01 00:00:00
FILE "Evanescence - 2011 - Evanescence\07 - Lost In Paradise.wav" WAVE
  TRACK 07 AUDIO
    TITLE "Lost In Paradise"
    PERFORMER "Evanescence"
    INDEX 01 00:00:00
FILE "Evanescence - 2011 - Evanescence\08 - Sick.wav" WAVE
  TRACK 08 AUDIO
    TITLE "Sick"
    PERFORMER "Evanescence"
    INDEX 01 00:00:00
FILE "Evanescence - 2011 - Evanescence\09 - End Of The Dream.wav" WAVE
  TRACK 09 AUDIO
    TITLE "End Of The Dream"
    PERFORMER "Evanescence"
    INDEX 01 00:00:00
FILE "Evanescence - 2011 - Evanescence\10 - Oceans.wav" WAVE
  TRACK 10 AUDIO
    TITLE "Oceans"
    PERFORMER "Evanescence"
    INDEX 01 00:00:00
FILE "Evanescence - 2011 - Evanescence\11 - Never Go Back.wav" WAVE
  TRACK 11 AUDIO
    TITLE "Never Go Back"
    PERFORMER "Evanescence"
    INDEX 01 00:00:00
FILE "Evanescence - 2011 - Evanescence\12 - Swimming Home.wav" WAVE
  TRACK 12 AUDIO
    TITLE "Swimming Home"
    PERFORMER "Evanescence"
    INDEX 01 00:00:00
  TRACK 13 AUDIO
    TITLE "New Way To Bleed"
    PERFORMER "Evanescence"
    INDEX 00 03:41:29
FILE "Evanescence - 2011 - Evanescence\13 - New Way To Bleed.wav" WAVE
    INDEX 01 00:00:00
FILE "Evanescence - 2011 - Evanescence\14 - Say You Will.wav" WAVE
  TRACK 14 AUDIO
    TITLE "Say You Will"
    PERFORMER "Evanescence"
    INDEX 01 00:00:00
FILE "Evanescence - 2011 - Evanescence\15 - Disappear.wav" WAVE
  TRACK 15 AUDIO
    TITLE "Disappear"

Evanescence — третий студийный альбом американской рок-группы Evanescence. Официальная дата выхода - 11 октября 2011 года на лейбле Wind-Up Records. Группа начала работу над альбомом в июне 2009 года, дата релиза неоднократно переносилась. Изначально запись проходила с продюсером Стивом Лиллиуайтом. Выход диска тогда был намечен на август-сентябрь 2010 года, но позже Эми Ли на форуме EvThreads.com объявила, что группа покинула студию и релиз откладывается. В апреле 2011 года работа возобновилась, но уже с другим продюсером, Ником Рискулинешем, и 11 июля запись была завершена.

Эми о новом альбоме:

«Этот альбом не попсовый и не тяжелый. Он более интуитивный. Он прекрасен и это настоящая совместная работа музыкантов, которой мы очень гордимся. Всем известно наше звучание, но только это основа, и сейчас мы на вершине её. Оно по-прежнему очень тяжелое и тёмное, но мы немного развлеклись с ним. Я не чувствую себя загнанной в рамки. Я гораздо более защищена, чем должна быть. У меня было довольно много глупых правил, но мы нарушаем их на этом альбоме. Расслабившись, ты чувствуешь, как будто поднимаешься выше.»
    Amy Lee — клавишные, арфа, вокал
    Terry Balsamo — гитара
    Will Hunt — ударные
    Tim McCord — бас-гитара
    Troy McLawhorn — ритм-гитара
    Nick Raskulinecz — продюсер
    David Campbell — струнные аранжировки

Внимание! 11.10.2011 Раздача обновлена. Теперь раздача с бонус-треками.
Внимание! 14.10.2011 Раздача обновлена. Теперь раздача с логом создания рипа. и cue индексной картой
info [Профиль]  [ЛС] 

bobahchik3

Пол: Пол:Муж

Стаж: 6 лет 8 месяцев

Сообщений: 276

Россия
Рейтинг

post 08-Окт-2011 22:24 (спустя 3 минуты) [-]0[+]

[Цитировать] 

Спасибо, послушаем)

_________________
info [Профиль]  [ЛС] 

kirillKudache

Пол: Пол:Муж

Стаж: 6 лет 1 месяц

Сообщений: 218

Россия
Рейтинг

post 09-Окт-2011 14:32 (спустя 16 часов) [-]0[+]

[Цитировать] 

А можно в MP3 ?
info [Профиль]  [ЛС] 

s1d5gt

Пол: Пол:Муж

Стаж: 6 лет 8 месяцев

Сообщений: 4

Россия
Рейтинг

post 09-Окт-2011 17:37 (спустя 3 часа) [-]0[+]

[Цитировать] 

kirillKudache писал(а):

А можно в MP3 ?
Поиском пользуйся МП3 уже несколько дней лежит
info [Профиль]  [ЛС] 

WebeR

Пол: Пол:Муж

Стаж: 7 лет 4 месяца

Сообщений: 260

Рейтинг

post 14-Окт-2011 20:27 (спустя 5 дней) [-]0[+]

[Цитировать] 

Внимание! 14.10.2011 Раздача обновлена. Теперь раздача с логом создания рипа. и cue индексной картой
info [Профиль]  [ЛС] 

kid-rock

Стаж: 7 лет 2 месяца

Сообщений: 267

Предупреждений: 1

Россия
Рейтинг

post 14-Окт-2011 21:57 (спустя 1 час 29 минут) [-]0[+]

[Цитировать] 

это новый альбом? почему без названия?
info [Профиль]  [ЛС] 

WebeR

Пол: Пол:Муж

Стаж: 7 лет 4 месяца

Сообщений: 260

Рейтинг

post 14-Окт-2011 21:58 (спустя 1 минута) [-]0[+]

[Цитировать] 

kid-rock писал(а):

это новый альбом? почему без названия?
Есть название, оно одноимённое. kolob_111
info [Профиль]  [ЛС] 

Slipkn0t

Пол: Пол:Муж

Стаж: 6 лет 2 месяца

Сообщений: 45

Россия
Рейтинг

post 14-Окт-2011 22:51 (спустя 52 минуты) [-]0[+]

[Цитировать] 

уже не те эванесенс, что были когда то...
info [Профиль]  [ЛС] 

Raa

Пол: Пол:Муж

Стаж: 6 лет 8 месяцев

Сообщений: 1099

Рейтинг

post 14-Окт-2011 23:04 (спустя 12 минут) [-]0[+]

[Цитировать] 

WebeR
Лог создания рипа и Содержание индексной карты (.CUE) должны быть в тэге

Код:

[code][/code]
info [Профиль]  [ЛС] 

gudzonsergo

Пол: Пол:Муж

Стаж: 7 лет 6 месяцев

Сообщений: 157

Россия
Рейтинг

post 15-Окт-2011 17:24 (спустя 18 часов) [-]0[+]

[Цитировать] 

Супер, спасибо!

_________________
MB: Asus Z97-A
CPU: Intel Core i5 - 4690K 3.9GHz (39x100Mhz)
RAM: DDR3-1600Mhz 4Gb x 2 (Kingston 9-9-9-27)
GPU: Radeon R9 390, 8Gb (Main)
........Intel HD4600 (Secondary)
Windows 10 Pro x64
info [Профиль]  [ЛС] 

Raa

Пол: Пол:Муж

Стаж: 6 лет 8 месяцев

Сообщений: 1099

Рейтинг

post 25-Окт-2011 02:46 (спустя 9 дней) [-]0[+]

[Цитировать] 

info [Профиль]  [ЛС] 
Показать сообщения:    
Ответить на тему

Текущее время: 03-Дек 00:13

Часовой пояс: GMT + 4



Вы не можете начинать темы
Вы не можете отвечать на сообщения
Вы не можете редактировать свои сообщения
Вы не можете удалять свои сообщения
Вы не можете голосовать в опросах
Вы не можете прикреплять файлы к сообщениям
Вы не можете скачивать файлы