Ошибка

(Electronic) Robert Miles - Discography - 1995 - 2011, MP3, CBR 320 kbps

Ответить на тему
 
Автор Сообщение

Reznov

Пол: Пол:Муж

Стаж: 7 лет 8 месяцев

Сообщений: 2138

Россия
Рейтинг

post 21-Сен-2011 19:57 0[+]

[Цитировать] 

Robert Miles - Discography (1996 - 2011)

pic="http://hostingkartinok.com/image/01201109/a9afe669dab32e3708b19ae06e744682.jpg"

Жанр: Electronic
Происхождение исполнителя: Швейцария
Аудио кодек: MP3
Битрейт аудио: CBR 320 kbps
Общая продолжительность: 11 часов 7 минут

Tsbol.ru писал(а):

  История Роберта Майлза (настоящее имя Roberto Concina) является смесью трех путешествий: географических, духовных и музыкальной, конечно же. И хотя он много раз объезжал весь земной шар, получал награды и призы за свое творчество, все равно музыка — его настоящая любовь. Эта любовь и перенесла Роберта из маленького городка в швейцарских горах к успеху в мировых столицах музыки и за их пределами. Кроме того, музыка продолжает двигать Робертом в направление следующей стадии этого замечательного путешествия.

  Роберт Майлз родился 3 ноября 1969 года в Швейцарском городе Флёйер (Fleurier). Когда Роберт был еще совсем маленьким мальчиком, его семья переехала в Италию, в маленький поселок Fagagna, который находится в сотне километров от Венеции. Именно там Роберт обнаружил свою любовь к музыке через семейное фортепиано и вертушки.

  В 17 лет Роберт забрасывает школу и карьеру инженера чтобы посвятить себя музыке. Он направляет свои технические знания на создание пиратской радиостации, где и происходит его дебют в качестве диджея. Смешение самостоятельности и постоянного движения является двигателем в карьере Роберта — это обязательно проявит себя позже в деловых отношениях и спасет его от механизма создания поверхностной музыки.

  За следующие несколько лет он построит себе репутацию как живой и радио диджей, где все более и более проникается в электронную экспериментальную музыку, которую он создает дома, вдохновляясь от таких товарищей как Kraftwerk, Robert Fripp, Braian Eno, Bill Laswll, Future Sound of London.
Источник: what.cd

01 Children (Dream Version)
02 Fable (Message Version)
03 Fantasya
04 Landscape
05 In My Dreams
06 Princess Of Light
07 Fable
08 In The Dawn
09 Children
10 Red Zone
Exact Audio Copy V0.99 prebeta 4 from 23. January 2008

EAC extraction logfile from 23. May 2009, 15:00

Robert Miles / Dreamland

Used drive : HL-DT-STDVDRAM GSA-H42L Adapter: 0 ID: 0

Read mode : Secure
Utilize accurate stream : Yes
Defeat audio cache : Yes
Make use of C2 pointers : No

Read offset correction : 667
Overread into Lead-In and Lead-Out : No
Fill up missing offset samples with silence : Yes
Delete leading and trailing silent blocks : No
Null samples used in CRC calculations : Yes
Used interface : Native Win32 interface for Win NT & 2000
Gap handling : Appended to previous track

Used output format : Internal WAV Routines
Sample format : 44.100 Hz; 16 Bit; Stereo

TOC of the extracted CD

Track | Start | Length | Start sector | End sector
---------------------------------------------------------
1 | 0:00.25 | 7:05.20 | 25 | 31919
2 | 7:05.45 | 6:24.47 | 31920 | 60766
3 | 13:30.17 | 5:43.10 | 60767 | 86501
4 | 19:13.27 | 6:02.08 | 86502 | 113659
5 | 25:15.35 | 6:14.52 | 113660 | 141761
6 | 31:30.12 | 6:21.00 | 141762 | 170336
7 | 37:51.12 | 7:12.68 | 170337 | 202804
8 | 45:04.05 | 7:59.22 | 202805 | 238751
9 | 53:03.27 | 6:19.53 | 238752 | 267229
10 | 59:23.05 | 6:57.40 | 267230 | 298544

Track 1

Filename Z:\rm-d-t\Robert Miles\1996 - Dreamland\01 - Children (Dream Version).wav

Pre-gap length 0:00:02.33

Peak level 96.9 %
Track quality 99.9 %
Test CRC FC3BC265
Copy CRC FC3BC265
Accurately ripped (confidence 1) [DF505CC7]
Copy OK

Track 2

Filename Z:\rm-d-t\Robert Miles\1996 - Dreamland\02 - Fable (Message Version).wav

Pre-gap length 0:00:00.04

Peak level 98.9 %
Track quality 100.0 %
Test CRC C4EF8509
Copy CRC C4EF8509
Accurately ripped (confidence 1) [B8A1115E]
Copy OK

Track 3

Filename Z:\rm-d-t\Robert Miles\1996 - Dreamland\03 - Fantasya.wav

Pre-gap length 0:00:00.02

Peak level 98.0 %
Track quality 100.0 %
Test CRC 2EFC287C
Copy CRC 2EFC287C
Accurately ripped (confidence 1) [E824CF40]
Copy OK

Track 4

Filename Z:\rm-d-t\Robert Miles\1996 - Dreamland\04 - Landscape.wav

Pre-gap length 0:00:00.02

Peak level 99.0 %
Track quality 100.0 %
Test CRC FAD8AABE
Copy CRC FAD8AABE
Accurately ripped (confidence 1) [8F2088DE]
Copy OK

Track 5

Filename Z:\rm-d-t\Robert Miles\1996 - Dreamland\05 - In My Dreams.wav

Pre-gap length 0:00:00.06

Peak level 98.4 %
Track quality 100.0 %
Test CRC B4195777
Copy CRC B4195777
Accurately ripped (confidence 1) [6708FA42]
Copy OK

Track 6

Filename Z:\rm-d-t\Robert Miles\1996 - Dreamland\06 - Princess Of Light.wav

Pre-gap length 0:00:00.02

Peak level 97.7 %
Track quality 100.0 %
Test CRC 7AB509B4
Copy CRC 7AB509B4
Accurately ripped (confidence 1) [E7BF9FDC]
Copy OK

Track 7

Filename Z:\rm-d-t\Robert Miles\1996 - Dreamland\07 - Fable (Dream Version).wav

Pre-gap length 0:00:00.06

Peak level 98.5 %
Track quality 100.0 %
Test CRC 8FE592D2
Copy CRC 8FE592D2
Accurately ripped (confidence 1) [C81FD701]
Copy OK

Track 8

Filename Z:\rm-d-t\Robert Miles\1996 - Dreamland\08 - In The Dawn.wav

Pre-gap length 0:00:00.04

Peak level 98.1 %
Track quality 100.0 %
Test CRC E7B91C4C
Copy CRC E7B91C4C
Accurately ripped (confidence 1) [4E409815]
Copy OK

Track 9

Filename Z:\rm-d-t\Robert Miles\1996 - Dreamland\09 - Children (Original Version).wav

Pre-gap length 0:00:00.06

Peak level 98.2 %
Track quality 100.0 %
Test CRC E6A4892A
Copy CRC E6A4892A
Accurately ripped (confidence 1) [9A536CE1]
Copy OK

Track 10

Filename Z:\rm-d-t\Robert Miles\1996 - Dreamland\10 - Red Zone.wav

Pre-gap length 0:00:00.04

Peak level 98.5 %
Track quality 100.0 %
Test CRC 69708C97
Copy CRC 69708C97
Accurately ripped (confidence 1) [C2D7FC6D]
Copy OK

All tracks accurately ripped

No errors occurred

End of status report
Источник: Robert Miles - 23 AM

01 Introducing
02 A New Flower
03 Everyday Life
04 Freedom
05 Textures
06 Enjoy
07 Flying Away
08 Heatwave
09 Maresias
10 Full Moon
11 Leaving Behind...
Exact Audio Copy V0.99 prebeta 3 from 28. July 2007
Отчёт EAC об извлечении, выполненном 21. апреля 2008, 4:37
Robert Miles / 23 am
Дисковод: HL-DT-STDVDRAM GSA-4167B Adapter: 0 ID: 1
Режим чтения : Достоверность
Использование точного потока : Да
Отключение кэша аудио : Да
Использование указателей C2 : Нет
Коррекция смещения при чтении : 667
Способность читать области Lead-in и Lead-out : Нет
Заполнение пропущенных сэмплов тишиной : Да
Удаление блоков с тишиной в начале и конце : Нет
При вычислениях CRC использовались нулевые сэмплы : Да
Интерфейс : Установленный внешний ASPI-интерфейс
Выходной формат : Внутренние WAV-операции
Формат сэмплов : 44.100 Гц; 16 бит; стерео
Смещение при сжатии : 0
TOC извлечённого CD
Трек | Старт | Длительность | Начальный сектор | Конечный сектор
---------------------------------------------------------------------
1 | 0:00.00 | 3:25.00 | 0 | 15374
2 | 3:25.00 | 5:58.32 | 15375 | 42256
3 | 9:23.32 | 10:29.58 | 42257 | 89489
4 | 19:53.15 | 5:51.57 | 89490 | 115871
5 | 25:44.72 | 3:14.10 | 115872 | 130431
6 | 28:59.07 | 5:55.73 | 130432 | 157129
7 | 34:55.05 | 4:59.12 | 157130 | 179566
8 | 39:54.17 | 5:56.63 | 179567 | 206329
9 | 45:51.05 | 5:48.52 | 206330 | 232481
10 | 51:39.57 | 6:59.68 | 232482 | 263974
11 | 58:39.50 | 2:21.35 | 263975 | 274584
Характеристики диапазона извлечения и сообщения об ошибках
Выбранный диапазон
Имя файла C:\Documents and Settings\Igor\Мои документы\Моя музыка\Robert Miles - 23 am.wav
Пиковый уровень 97.7 %
Качество диапазона 100.0 %
CRC копии D2B9AA72
Копирование... OK
Ошибок не произошло
Конец отчёта
Источник: Собственная веб-версия.

01 TSBOL
02 Separation
03 Paths
04 Wrong
05 It’s All Coming Back
06 Pour Te Parler
07 Trance Shapes
08 Connections
09 Release Me
10 Improvisations, Pt. 1
11 Improvisations, Pt. 2
12 Endless

Код:

01 -===- \\Asus\torrent\work\Robert Miles [2001 -2011] Salt records Discography (WEB)\2001 - Organik\01. TSBOL.flac
  Extracted successfully
  Conclusion: this track is CDDA with probability 99%
  Tempfile successfully deleted.
02 -===- \\Asus\torrent\work\Robert Miles [2001 -2011] Salt records Discography (WEB)\2001 - Organik\02. Separation.flac
  Extracted successfully
  Conclusion: this track is CDDA with probability 100%
  Tempfile successfully deleted.
03 -===- \\Asus\torrent\work\Robert Miles [2001 -2011] Salt records Discography (WEB)\2001 - Organik\03. Paths.flac
  Extracted successfully
  Conclusion: this track is CDDA with probability 99%
  Tempfile successfully deleted.
04 -===- \\Asus\torrent\work\Robert Miles [2001 -2011] Salt records Discography (WEB)\2001 - Organik\04. Wrong.flac
  Extracted successfully
  Conclusion: this track is CDDA with probability 99%
  Tempfile successfully deleted.
05 -===- \\Asus\torrent\work\Robert Miles [2001 -2011] Salt records Discography (WEB)\2001 - Organik\05. It's All Coming Back.flac
  Extracted successfully
  Conclusion: this track is CDDA with probability 100%
  Tempfile successfully deleted.
06 -===- \\Asus\torrent\work\Robert Miles [2001 -2011] Salt records Discography (WEB)\2001 - Organik\06. Pour Te Parler.flac
  Extracted successfully
  Conclusion: this track is CDDA with probability 100%
  Tempfile successfully deleted.
07 -===- \\Asus\torrent\work\Robert Miles [2001 -2011] Salt records Discography (WEB)\2001 - Organik\07. Trance Shapes.flac
  Extracted successfully
  Conclusion: this track is CDDA with probability 100%
  Tempfile successfully deleted.
08 -===- \\Asus\torrent\work\Robert Miles [2001 -2011] Salt records Discography (WEB)\2001 - Organik\08. Connections.flac
  Extracted successfully
  Conclusion: this track is CDDA with probability 100%
  Tempfile successfully deleted.
09 -===- \\Asus\torrent\work\Robert Miles [2001 -2011] Salt records Discography (WEB)\2001 - Organik\09. Release Me.flac
  Extracted successfully
  Conclusion: this track is CDDA with probability 100%
  Tempfile successfully deleted.
10 -===- \\Asus\torrent\work\Robert Miles [2001 -2011] Salt records Discography (WEB)\2001 - Organik\10. Improvisations, Pt. 1.flac
  Extracted successfully
  Conclusion: this track is CDDA with probability 100%
  Tempfile successfully deleted.
11 -===- \\Asus\torrent\work\Robert Miles [2001 -2011] Salt records Discography (WEB)\2001 - Organik\11. Improvisations, Pt. 2.flac
  Extracted successfully
  Conclusion: this track is CDDA with probability 100%
  Tempfile successfully deleted.
12 -===- \\Asus\torrent\work\Robert Miles [2001 -2011] Salt records Discography (WEB)\2001 - Organik\12. Endless.flac
  Extracted successfully
  Conclusion: this track is CDDA with probability 100%
  Tempfile successfully deleted.
Источник: Собственная веб-версия.

01 Paths (FSOL Cosmic Juke Box Mix)
02 Wrong (Alexkid May B Mix)
03 Pour Te Parler (Riton-Re-Rub)
04 Release Me (Da Lata El Duderino Mix)
05 Pour Te Parler (Kuzu Mix).
06 Pour Te Parler (Fissure Mix)
07 Paths (KV5 Mix)
08 It's All Coming Back (Chamber Mix)
09 Separation (2nd Gen Mix)
10 Connections (PunkA fro The Hackney Drive By Mix)
11 Improvisations P2 (Si Begg S.I.Futures Mix)
12 Improvisations P2 (The Fabrics Mix)
13 Paths (Robert Miles S_alted Mix)
14 Bhairav (Robert Miles Feat. Amelia Cuni)

Код:

01 -===- \\Asus\Torrent\work\Robert Miles [2001 -2011] Salt records Discography (WEB)\2002 - Organik Remixes\01. Paths (FSOL Cosmic Juke Box Mix).flac
  Extracted successfully
  Conclusion: this track is MPEG with probability 95%
  Tempfile successfully deleted.
02 -===- \\Asus\Torrent\work\Robert Miles [2001 -2011] Salt records Discography (WEB)\2002 - Organik Remixes\02 .Wrong (Alexkid May B Mix).flac
  Extracted successfully
  Conclusion: this track is CDDA with probability 100%
  Tempfile successfully deleted.
03 -===- \\Asus\Torrent\work\Robert Miles [2001 -2011] Salt records Discography (WEB)\2002 - Organik Remixes\03. Pour Te Parler (Riton-Re-Rub).flac
  Extracted successfully
  Conclusion: this track is CDDA with probability 100%
  Tempfile successfully deleted.
04 -===- \\Asus\Torrent\work\Robert Miles [2001 -2011] Salt records Discography (WEB)\2002 - Organik Remixes\04. Release Me (Da Lata El Duderino Mix).flac
  Extracted successfully
  Conclusion: this track is CDDA with probability 100%
  Tempfile successfully deleted.
05 -===- \\Asus\Torrent\work\Robert Miles [2001 -2011] Salt records Discography (WEB)\2002 - Organik Remixes\05. Pour Te Parler (Kuzu Mix).flac
  Extracted successfully
  Conclusion: this track is CDDA with probability 100%
  Tempfile successfully deleted.
06 -===- \\Asus\Torrent\work\Robert Miles [2001 -2011] Salt records Discography (WEB)\2002 - Organik Remixes\06. Pour Te Parler (Fissure Mix).flac
  Extracted successfully
  Conclusion: this track is CDDA with probability 100%
  Tempfile successfully deleted.
07 -===- \\Asus\Torrent\work\Robert Miles [2001 -2011] Salt records Discography (WEB)\2002 - Organik Remixes\07. Paths (KV5 Mix).flac
  Extracted successfully
  Conclusion: this track is CDDA with probability 100%
  Tempfile successfully deleted.
08 -===- \\Asus\Torrent\work\Robert Miles [2001 -2011] Salt records Discography (WEB)\2002 - Organik Remixes\08. It's All Coming Back (Chamber Mix).flac
  Extracted successfully
  Conclusion: this track is CDDA with probability 100%
  Tempfile successfully deleted.
09 -===- \\Asus\Torrent\work\Robert Miles [2001 -2011] Salt records Discography (WEB)\2002 - Organik Remixes\09. Separation (2nd Gen Mix).flac
  Extracted successfully
  Conclusion: this track is CDDA with probability 100%
  Tempfile successfully deleted.
10 -===- \\Asus\Torrent\work\Robert Miles [2001 -2011] Salt records Discography (WEB)\2002 - Organik Remixes\10. Connections (PunkA fro The Hackney Drive By Mix).flac
  Extracted successfully
  Conclusion: this track is CDDA with probability 100%
  Tempfile successfully deleted.
11 -===- \\Asus\Torrent\work\Robert Miles [2001 -2011] Salt records Discography (WEB)\2002 - Organik Remixes\11. Improvisations P2 (Si Begg S.I.Futures Mix).flac
  Extracted successfully
  Conclusion: this track is CDDA with probability 100%
  Tempfile successfully deleted.
12 -===- \\Asus\Torrent\work\Robert Miles [2001 -2011] Salt records Discography (WEB)\2002 - Organik Remixes\12. Improvisations P2 (The Fabrics Mix).flac
  Extracted successfully
  Conclusion: this track is CDDA with probability 100%
  Tempfile successfully deleted.
13 -===- \\Asus\Torrent\work\Robert Miles [2001 -2011] Salt records Discography (WEB)\2002 - Organik Remixes\13. Paths (Robert Miles S_alted Mix).flac
  Extracted successfully
  Conclusion: this track is CDDA with probability 99%
  Tempfile successfully deleted.
14 -===- \\Asus\Torrent\work\Robert Miles [2001 -2011] Salt records Discography (WEB)\2002 - Organik Remixes\14. Bhairav (Robert Miles Feat. Amelia Cuni).flac
  Extracted successfully
  Conclusion: this track is CDDA with probability 100%
  Tempfile successfully deleted.
Источник: Собственная веб-версия.

01 Golden Rust
02 Soul Driven
03 Wearing Masks
04 Tragedy _ Comedy
05 Omen
06 Loom
07 Languages Of Conscious Thought
08 Without A Doubt
09 Small World
10 Small World (Reprise)
11 Inductive
12 The Big Picture
13 Xenon

Код:

01 -===- \\Asus\torrent\work\Robert Miles [2001 -2011] Salt records Discography (WEB)\2004 - Miles_Gurtu\01. Golden Rust.flac
  Extracted successfully
  Conclusion: this track is CDDA with probability 100%
  Tempfile successfully deleted.
02 -===- \\Asus\torrent\work\Robert Miles [2001 -2011] Salt records Discography (WEB)\2004 - Miles_Gurtu\02. Soul Driven.flac
  Extracted successfully
  Conclusion: this track is CDDA with probability 100%
  Tempfile successfully deleted.
03 -===- \\Asus\torrent\work\Robert Miles [2001 -2011] Salt records Discography (WEB)\2004 - Miles_Gurtu\03. Wearing Masks.flac
  Extracted successfully
  Conclusion: this track is CDDA with probability 100%
  Tempfile successfully deleted.
04 -===- \\Asus\torrent\work\Robert Miles [2001 -2011] Salt records Discography (WEB)\2004 - Miles_Gurtu\04. Tragedy _ Comedy.flac
  Extracted successfully
  Conclusion: this track is CDDA with probability 100%
  Tempfile successfully deleted.
05 -===- \\Asus\torrent\work\Robert Miles [2001 -2011] Salt records Discography (WEB)\2004 - Miles_Gurtu\05. Omen.flac
  Extracted successfully
  Conclusion: this track is CDDA with probability 100%
  Tempfile successfully deleted.
06 -===- \\Asus\torrent\work\Robert Miles [2001 -2011] Salt records Discography (WEB)\2004 - Miles_Gurtu\06. Loom.flac
  Extracted successfully
  Conclusion: this track is CDDA with probability 100%
  Tempfile successfully deleted.
07 -===- \\Asus\torrent\work\Robert Miles [2001 -2011] Salt records Discography (WEB)\2004 - Miles_Gurtu\07. Languages of Conscious Thought.flac
  Extracted successfully
  Conclusion: this track is CDDA with probability 100%
  Tempfile successfully deleted.
08 -===- \\Asus\torrent\work\Robert Miles [2001 -2011] Salt records Discography (WEB)\2004 - Miles_Gurtu\08. Without A Doubt.flac
  Extracted successfully
  Conclusion: this track is CDDA with probability 100%
  Tempfile successfully deleted.
09 -===- \\Asus\torrent\work\Robert Miles [2001 -2011] Salt records Discography (WEB)\2004 - Miles_Gurtu\09. Small World.flac
  Extracted successfully
  Conclusion: this track is CDDA with probability 100%
  Tempfile successfully deleted.
10 -===- \\Asus\torrent\work\Robert Miles [2001 -2011] Salt records Discography (WEB)\2004 - Miles_Gurtu\10. Small World (Reprise).flac
  Extracted successfully
  Conclusion: this track is CDDA with probability 100%
  Tempfile successfully deleted.
11 -===- \\Asus\torrent\work\Robert Miles [2001 -2011] Salt records Discography (WEB)\2004 - Miles_Gurtu\11. Inductive.flac
  Extracted successfully
  Conclusion: this track is CDDA with probability 100%
  Tempfile successfully deleted.
12 -===- \\Asus\torrent\work\Robert Miles [2001 -2011] Salt records Discography (WEB)\2004 - Miles_Gurtu\12. The Big Picture.flac
  Extracted successfully
  Conclusion: this track is CDDA with probability 100%
  Tempfile successfully deleted.
13 -===- \\Asus\torrent\work\Robert Miles [2001 -2011] Salt records Discography (WEB)\2004 - Miles_Gurtu\13. Xenon.flac
  Extracted successfully
  Conclusion: this track is CDDA with probability 100%
  Tempfile successfully deleted.
Источник: Собственная веб-версия.

01 Orchid Miracle
02 Moving
03 Somnambulism
04 Everything Or Nothing
05 Afterglow
06 Deep End
07 Black Rubber
08 Miniature World
09 Antimony
10 Archives
11 Voices From A Submerged Sea
12 Nonsense
13 The Wolf
14 Miniature World (Critical World Remix)
15 Deep End (Robert Miles Hypnotronic Remix)
16 Black Rubber (Marco Bellini & Val Weller Hypnovista Remix)
17 Antimony (Max Pollyul Hypnotica Remix)
01 -===- \\Asus\torrent\work\Robert Miles [2001 -2011] Salt records Discography (WEB)\2011 - Th1rt3en (Deluxe Edition)\01. Orchid Miracle.flac
Extracted successfully
Conclusion: this track is CDDA with probability 100%
Tempfile successfully deleted.
02 -===- \\Asus\torrent\work\Robert Miles [2001 -2011] Salt records Discography (WEB)\2011 - Th1rt3en (Deluxe Edition)\02. Moving.flac
Extracted successfully
Conclusion: this track is CDDA with probability 100%
Tempfile successfully deleted.
03 -===- \\Asus\torrent\work\Robert Miles [2001 -2011] Salt records Discography (WEB)\2011 - Th1rt3en (Deluxe Edition)\03. Somnambulism.flac
Extracted successfully
Conclusion: this track is CDDA with probability 100%
Tempfile successfully deleted.
04 -===- \\Asus\torrent\work\Robert Miles [2001 -2011] Salt records Discography (WEB)\2011 - Th1rt3en (Deluxe Edition)\04. Everything Or Nothing.flac
Extracted successfully
Conclusion: this track is CDDA with probability 100%
Tempfile successfully deleted.
05 -===- \\Asus\torrent\work\Robert Miles [2001 -2011] Salt records Discography (WEB)\2011 - Th1rt3en (Deluxe Edition)\05. Afterglow.flac
Extracted successfully
Conclusion: this track is CDDA with probability 100%
Tempfile successfully deleted.
06 -===- \\Asus\torrent\work\Robert Miles [2001 -2011] Salt records Discography (WEB)\2011 - Th1rt3en (Deluxe Edition)\06. Deep End.flac
Extracted successfully
Conclusion: this track is MPEG with probability 95%
Tempfile successfully deleted.
07 -===- \\Asus\torrent\work\Robert Miles [2001 -2011] Salt records Discography (WEB)\2011 - Th1rt3en (Deluxe Edition)\07. Black Rubber.flac
Extracted successfully
Conclusion: this track is CDDA with probability 100%
Tempfile successfully deleted.
08 -===- \\Asus\torrent\work\Robert Miles [2001 -2011] Salt records Discography (WEB)\2011 - Th1rt3en (Deluxe Edition)\08. Miniature World.flac
Extracted successfully
Conclusion: this track is CDDA with probability 100%
Tempfile successfully deleted.
09 -===- \\Asus\torrent\work\Robert Miles [2001 -2011] Salt records Discography (WEB)\2011 - Th1rt3en (Deluxe Edition)\09. Antimony.flac
Extracted successfully
Conclusion: this track is CDDA with probability 100%
Tempfile successfully deleted.
10 -===- \\Asus\torrent\work\Robert Miles [2001 -2011] Salt records Discography (WEB)\2011 - Th1rt3en (Deluxe Edition)\10. Archives.flac
Extracted successfully
Conclusion: this track is CDDA with probability 100%
Tempfile successfully deleted.
11 -===- \\Asus\torrent\work\Robert Miles [2001 -2011] Salt records Discography (WEB)\2011 - Th1rt3en (Deluxe Edition)\11. Voices From A Submerged Sea.flac
Extracted successfully
Conclusion: this track is CDDA with probability 99%
Tempfile successfully deleted.
12 -===- \\Asus\torrent\work\Robert Miles [2001 -2011] Salt records Discography (WEB)\2011 - Th1rt3en (Deluxe Edition)\12. Nonsense.flac
Extracted successfully
Conclusion: this track is CDDA with probability 99%
Tempfile successfully deleted.
13 -===- \\Asus\torrent\work\Robert Miles [2001 -2011] Salt records Discography (WEB)\2011 - Th1rt3en (Deluxe Edition)\13. The Wolf.flac
Extracted successfully
Conclusion: this track is CDDA with probability 99%
Tempfile successfully deleted.
14 -===- \\Asus\torrent\work\Robert Miles [2001 -2011] Salt records Discography (WEB)\2011 - Th1rt3en (Deluxe Edition)\14. Miniature World (Critical World Remix).flac
Extracted successfully
Conclusion: this track is CDDA with probability 100%
Tempfile successfully deleted.
15 -===- \\Asus\torrent\work\Robert Miles [2001 -2011] Salt records Discography (WEB)\2011 - Th1rt3en (Deluxe Edition)\15. Deep End (Robert Miles Hypnotronic Remix).flac
Extracted successfully
Conclusion: this track is CDDA with probability 100%
Tempfile successfully deleted.
16 -===- \\Asus\torrent\work\Robert Miles [2001 -2011] Salt records Discography (WEB)\2011 - Th1rt3en (Deluxe Edition)\16. Black Rubber (Marco Bellini & Val Weller Hypnovista Remix).flac
Extracted successfully
Conclusion: this track is CDDA with probability 100%
Tempfile successfully deleted.
17 -===- \\Asus\torrent\work\Robert Miles [2001 -2011] Salt records Discography (WEB)\2011 - Th1rt3en (Deluxe Edition)\17. Antimony (Max Pollyul Hypnotica Remix).flac
Extracted successfully
Conclusion: this track is CDDA with probability 100%
Tempfile successfully deleted.
Источник: what.cd

01. Red Zone (Part 1)
02. Red Zone (Part 2)
03. Red Zone (Part 3)
04. Shake 95

Код:

Started at: ïîíåäåëüíèê, 08. 10. 2012. - 17:55.36
4 files found

1 -===- K:\Ìîå áàðàõëî\Ìóçûêà\Robert Miles\Robert Miles - Red Zone - DBX Records - DBX008 - 1995\B2.  Robert Miles - Shake 95_DC .wav
  Conclusion: this track is CDDA with probability 100%

2 -===- K:\Ìîå áàðàõëî\Ìóçûêà\Robert Miles\Robert Miles - Red Zone - DBX Records - DBX008 - 1995\A1.  Robert Miles - Red Zone (Part 1)_DC.wav
  Conclusion: this track is CDDA with probability 100%

3 -===- K:\Ìîå áàðàõëî\Ìóçûêà\Robert Miles\Robert Miles - Red Zone - DBX Records - DBX008 - 1995\A2.  Robert Miles - Red Zone (Part 2)_DC .wav
  Conclusion: this track is CDDA with probability 100%

4 -===- K:\Ìîå áàðàõëî\Ìóçûêà\Robert Miles\Robert Miles - Red Zone - DBX Records - DBX008 - 1995\B1.  Robert Miles - Red Zone (Part 3)_DC .wav
  Conclusion: this track is CDDA with probability 100%

Finished at: ïîíåäåëüíèê, 08. 10. 2012. - 17:57.50 (operation time: 0:02.13)
Источник: Robert Miles - Soundtracks

01. Children
02. Space
03. X-Plosion
04. Nation

Код:

Started at: ïîíåäåëüíèê, 08. 10. 2012. - 18:20.37
4 files found

1 -===- K:\Ìîå áàðàõëî\Ìóçûêà\Robert Miles\B2. Robert Miles - Nation_DC.wav
  Conclusion: this track is CDDA with probability 100%

2 -===- K:\Ìîå áàðàõëî\Ìóçûêà\Robert Miles\A1. Robert Miles - Children_DC.wav
  Conclusion: this track is CDDA with probability 100%

3 -===- K:\Ìîå áàðàõëî\Ìóçûêà\Robert Miles\A2. Robert Miles - Space_DC.wav
  Conclusion: this track is CDDA with probability 100%

4 -===- K:\Ìîå áàðàõëî\Ìóçûêà\Robert Miles\B1. Robert Miles - X-Plosion_DC.wav
  Conclusion: this track is CDDA with probability 100%

Finished at: ïîíåäåëüíèê, 08. 10. 2012. - 18:22.34 (operation time: 0:01.56)
Источник: Robert Miles - Children

01 Children (Original Version)
02 Children (Dream Version)
03 Children (Message Version)
Exact Audio Copy V0.99 prebeta 4 from 23. January 2008
EAC extraction logfile from 6. May 2008, 23:18
Robert Miles / Children CDS Germany 577 911-2
Used drive : Compaq DVD-ROM SD-M1612 Adapter: 1 ID: 0
Read mode : Secure
Utilize accurate stream : Yes
Defeat audio cache : Yes
Make use of C2 pointers : No
Read offset correction : -472
Overread into Lead-In and Lead-Out : No
Fill up missing offset samples with silence : Yes
Delete leading and trailing silent blocks : No
Null samples used in CRC calculations : Yes
Used interface : Native Win32 interface for Win NT & 2000
Gap handling : Appended to previous track
Used output format : User Defined Encoder
Selected bitrate : 320 kBit/s
Quality : High
Add ID3 tag : No
Command line compressor : C:\Program Files\FLAC\flac.exe
Additional command line options : -V -8 -T "artist=%a" -T "title=%t" -T "album=%g" -T "date=%y" -T "tracknumber=%n/03" -T "comment=Encoded by themagicke of OiNK (RIP)" %s
TOC of the extracted CD
Track | Start | Length | Start sector | End sector
---------------------------------------------------------
1 | 0:00.32 | 7:17.08 | 32 | 32814
2 | 7:17.40 | 7:34.47 | 32815 | 66911
3 | 14:52.12 | 6:51.18 | 66912 | 97754
Track 1
Filename D:\magicke\rips\01 - Children (Original Version).wav
Pre-gap length 0:00:02.42
Peak level 98.8 %
Track quality 100.0 %
Test CRC 1D6D7515
Copy CRC 1D6D7515
Accurately ripped (confidence 21) [EA8AD589]
Copy OK
Track 2
Filename D:\magicke\rips\02 - Children (Dream Version).wav
Pre-gap length 0:00:01.53
Peak level 98.8 %
Track quality 100.0 %
Test CRC 37205F66
Copy CRC 37205F66
Accurately ripped (confidence 20) [A4BE718C]
Copy OK
Track 3
Filename D:\magicke\rips\03 - Children (Message Version).wav
Pre-gap length 0:00:01.53
Peak level 98.8 %
Track quality 100.0 %
Test CRC BBD38564
Copy CRC BBD38564
Accurately ripped (confidence 21) [5D5C353A]
Copy OK
All tracks accurately ripped
No errors occurred
End of status report
Источник: Robert Miles - Fable

01 Fable (Dream Radio)
02 Fable (Message Version)
03 Fable (Dream Version)
04 Fable (Club Version)
05 Fable (Message Version)
06 Fable (Psycho Version (NRG mix))
07 Fable (Wake Up)
EAC extraction logfile from 9. January 2006, 21:39 for CD
Robert Miles / Fable CDS
Used drive : PLEXTOR CD-R PREMIUM Adapter: 0 ID: 2
Read mode : Secure with NO C2, accurate stream, disable cache
Read offset correction : 30
Overread into Lead-In and Lead-Out : Yes
Used output format : Internal WAV Routines
44.100 Hz; 16 Bit; Stereo
Other options :
Fill up missing offset samples with silence : Yes
Delete leading and trailing silent blocks : No
Installed external ASPI interface
Range status and errors
Selected range
Filename D:\Releases\Robert Miles\Fable CDS\Robert Miles - Fable CDS.wav
Peak level 96.7 %
Range quality 100.0 %
CRC FCCDEAE7
Copy OK
No errors occured
End of status report
Источник: what.cd

01 One & One (Radio Version)
02 One & One (Club Version)
03 4Us
Exact Audio Copy V1.0 beta 2 from 29. April 2011

EAC extraction logfile from 30. March 2012, 19:03

Robert Miles Featuring Maria Nayler / One & One CD1

Used drive : HL-DT-STDVDRAM GH20NS15 Adapter: 3 ID: 1

Read mode : Secure
Utilize accurate stream : Yes
Defeat audio cache : Yes
Make use of C2 pointers : No

Read offset correction : 667
Overread into Lead-In and Lead-Out : No
Fill up missing offset samples with silence : Yes
Delete leading and trailing silent blocks : No
Null samples used in CRC calculations : Yes
Used interface : Native Win32 interface for Win NT & 2000
Gap handling : Appended to previous track

Used output format : User Defined Encoder
Selected bitrate : 1024 kBit/s
Quality : High
Add ID3 tag : No
Command line compressor : C:\Program Files\Exact Audio Copy\FLAC\FLAC.EXE
Additional command line options : -6 -V -T "ARTIST=%artist%" -T "TITLE=%title%" -T "ALBUM=%albumtitle%" -T "DATE=%year%" -T "TRACKNUMBER=%tracknr%" -T "GENRE=%genre%" -T "COMMENT=%comment%" -T "BAND=%albuminterpret%" -T "COMPOSER=%composer%" %haslyrics%--ta

TOC of the extracted CD

Track | Start | Length | Start sector | End sector
---------------------------------------------------------
1 | 0:00.32 | 4:02.38 | 32 | 18219
2 | 4:02.70 | 6:30.62 | 18220 | 47531
3 | 10:33.57 | 7:42.25 | 47532 | 82206

Track 1

Filename J:\FLAC to What.CD\Robert Miles Featuring Maria Nayler – One & One CD1 [FLAC] {74321 42769 2}\01 One & One (Radio Version).wav

Pre-gap length 0:00:02.42

Peak level 98.5 %
Extraction speed 4.5 X
Track quality 100.0 %
Test CRC 0A94B661
Copy CRC 0A94B661
Accurately ripped (confidence 19) [7F78A6D4] (AR v1)
Copy OK

Track 2

Filename J:\FLAC to What.CD\Robert Miles Featuring Maria Nayler – One & One CD1 [FLAC] {74321 42769 2}\02 One & One (Club Version).wav

Pre-gap length 0:00:01.33

Peak level 98.4 %
Extraction speed 5.3 X
Track quality 100.0 %
Test CRC 7833D6EA
Copy CRC 7833D6EA
Accurately ripped (confidence 18) [EC258484] (AR v1)
Copy OK

Track 3

Filename J:\FLAC to What.CD\Robert Miles Featuring Maria Nayler – One & One CD1 [FLAC] {74321 42769 2}\03 4Us.wav

Pre-gap length 0:00:00.42

Peak level 99.3 %
Extraction speed 6.2 X
Track quality 100.0 %
Test CRC FE491562
Copy CRC FE491562
Accurately ripped (confidence 17) [3AA3A707] (AR v1)
Copy OK

All tracks accurately ripped

No errors occurred

End of status report

==== Log checksum 3FB7A8E76774B86E6AF51C7BCE808A8F7D4F7CDD2C4A3546B9A3098275D67541 ====
Источник: Robert Miles - Freedom

01 Freedom (radio edit)
02 Freedom (original)
03 Freedom (robert miles club mix)
04 Freedom (frankie knuckles classic club mix)
05 Freedom (frankie knuckles 'the shit' mix)
06 Freedom (frankie knuckles director's cut dub)
EAC extraction logfile from 9. September 2006, 19:30 for CD
Robert Miles feat. Kathy Sledge / Freedom CDM
Used drive : TEAC DV-W516GA Adapter: 0 ID: 0
Read mode : Secure with NO C2, accurate stream, disable cache
Read offset correction : 12
Overread into Lead-In and Lead-Out : No
Used output format : Internal WAV Routines
44.100 Hz; 16 Bit; Stereo
Other options :
Fill up missing offset samples with silence : Yes
Delete leading and trailing silent blocks : No
Installed external ASPI interface
Range status and errors
Selected range
Filename D:\Robert Miles\CDImage.wav
Peak level 97.7 %
Range quality 100.0 %
CRC D4EED3FF
Copy OK
No errors occured
End of status report
Источник: Robert Miles - Full Moon

01 Full Moon (Robert Miles Radio Edit)
02 Full Moon (Robert Miles Mnemba Island Mix)
03 Full Moon (Tony Ecosta Mix)
04 Full Moon (Fluke Vocals Eclipse)
05 Full Moon (Fluke Instrumental Eclipse)
06 Full Moon (Darshan Trancesphere Mix)
07 Full Moon (Darshan Dub Bubble Mix)
08 Full Moon (Joe T Vannelli Club Mix)
09 Full Moon (Joe T Vannelli Dubby Vocal Mix)
10 Full Moon (Joe T Vannelli Dubby Mix)
11 Full Moon (Double S Mix)
X Lossless Decoder version 20100711 (120.5)
XLD extraction logfile from 2010-08-06 15:10:36 -0500
Robert Miles / Full Moon
Used drive : OPTIARC DVD RW AD-5670S (revision 2AHH)
Use cdparanoia mode : YES (CDParanoia III 10.2 engine)
Disable audio cache : OK for the drive with cache less than 2750KB
Make use of C2 pointers : NO
Read offset correction : 48
Max retry count : 100
Gap status : Analyzed, Appended
TOC of the extracted CD
Track | Start | Length | Start sector | End sector
---------------------------------------------------------
1 | 00:00:00 | 04:00:73 | 0 | 18072
2 | 04:00:73 | 03:47:24 | 18073 | 35121
3 | 07:48:22 | 05:58:06 | 35122 | 61977
4 | 13:46:28 | 06:41:26 | 61978 | 92078
5 | 20:27:54 | 05:11:45 | 92079 | 115448
6 | 25:39:24 | 09:03:25 | 115449 | 156198
7 | 34:42:49 | 08:27:35 | 156199 | 194258
8 | 43:10:09 | 07:16:13 | 194259 | 226971
9 | 50:26:22 | 07:39:21 | 226972 | 261417
10 | 58:05:43 | 07:07:35 | 261418 | 293477
11 | 65:13:03 | 05:54:65 | 293478 | 320092
All Tracks
Album gain : -5.17 dB
Peak : 1.000000
Track 01
Filename : /Users/captain/Music/ripped by XLD here/01 - Full Moon (Robert Miles Radio Edit).flac
Pre-gap length : 00:02:00
Track gain : 0.87 dB
Peak : 0.935944
CRC32 hash (test run) : 690365B1
CRC32 hash : 690365B1
CRC32 hash (skip zero) : 21211B77
Statistics
Read error : 0
Skipped (treated as error) : 0
Edge jitter error (maybe fixed) : 0
Atom jitter error (maybe fixed) : 0
Drift error (maybe fixed) : 0
Dropped bytes error (maybe fixed) : 0
Duplicated bytes error (maybe fixed) : 0
Inconsistency in error sectors : 0
Track 02
Filename : /Users/captain/Music/ripped by XLD here/02 - Full Moon (Robert Miles Mnemba Island Mix).flac
Pre-gap length : 00:02:00
Track gain : -7.71 dB
Peak : 0.966064
CRC32 hash (test run) : C20DCEF4
CRC32 hash : C20DCEF4
CRC32 hash (skip zero) : D79B0697
Statistics
Read error : 0
Skipped (treated as error) : 0
Edge jitter error (maybe fixed) : 0
Atom jitter error (maybe fixed) : 0
Drift error (maybe fixed) : 0
Dropped bytes error (maybe fixed) : 0
Duplicated bytes error (maybe fixed) : 0
Inconsistency in error sectors : 0
Track 03
Filename : /Users/captain/Music/ripped by XLD here/03 - Full Moon (Tony Ecosta Mix).flac
Pre-gap length : 00:02:00
Track gain : -5.88 dB
Peak : 1.000000
CRC32 hash (test run) : F9D3A4ED
CRC32 hash : F9D3A4ED
CRC32 hash (skip zero) : B13E8965
Statistics
Read error : 0
Skipped (treated as error) : 0
Edge jitter error (maybe fixed) : 0
Atom jitter error (maybe fixed) : 0
Drift error (maybe fixed) : 0
Dropped bytes error (maybe fixed) : 0
Duplicated bytes error (maybe fixed) : 0
Inconsistency in error sectors : 0
Track 04
Filename : /Users/captain/Music/ripped by XLD here/04 - Full Moon (Fluke Vocals Eclipse).flac
Pre-gap length : 00:02:00
Track gain : -5.12 dB
Peak : 0.966064
CRC32 hash (test run) : 3105EE4A
CRC32 hash : 3105EE4A
CRC32 hash (skip zero) : D32EF0FE
Statistics
Read error : 0
Skipped (treated as error) : 0
Edge jitter error (maybe fixed) : 0
Atom jitter error (maybe fixed) : 0
Drift error (maybe fixed) : 0
Dropped bytes error (maybe fixed) : 0
Duplicated bytes error (maybe fixed) : 0
Inconsistency in error sectors : 0
Track 05
Filename : /Users/captain/Music/ripped by XLD here/05 - Full Moon (Fluke Instrumental Eclipse).flac
Pre-gap length : 00:02:00
Track gain : -2.59 dB
Peak : 0.965851
CRC32 hash (test run) : 2F35C42D
CRC32 hash : 2F35C42D
CRC32 hash (skip zero) : 9B7D15B7
Statistics
Read error : 0
Skipped (treated as error) : 0
Edge jitter error (maybe fixed) : 0
Atom jitter error (maybe fixed) : 0
Drift error (maybe fixed) : 0
Dropped bytes error (maybe fixed) : 0
Duplicated bytes error (maybe fixed) : 0
Inconsistency in error sectors : 0
Track 06
Filename : /Users/captain/Music/ripped by XLD here/06 - Full Moon (Darshan Trancesphere Mix).flac
Pre-gap length : 00:02:00
Track gain : -4.48 dB
Peak : 0.966064
CRC32 hash (test run) : 5F12DCB8
CRC32 hash : 5F12DCB8
CRC32 hash (skip zero) : 9E6C9407
Statistics
Read error : 0
Skipped (treated as error) : 0
Edge jitter error (maybe fixed) : 0
Atom jitter error (maybe fixed) : 0
Drift error (maybe fixed) : 0
Dropped bytes error (maybe fixed) : 0
Duplicated bytes error (maybe fixed) : 0
Inconsistency in error sectors : 0
Track 07
Filename : /Users/captain/Music/ripped by XLD here/07 - Full Moon (Darshan Dub Bubble Mix).flac
Pre-gap length : 00:02:00
Track gain : -3.86 dB
Peak : 0.966064
CRC32 hash (test run) : 56CFB14B
CRC32 hash : 56CFB14B
CRC32 hash (skip zero) : 2862B6C5
Statistics
Read error : 0
Skipped (treated as error) : 0
Edge jitter error (maybe fixed) : 0
Atom jitter error (maybe fixed) : 0
Drift error (maybe fixed) : 0
Dropped bytes error (maybe fixed) : 0
Duplicated bytes error (maybe fixed) : 0
Inconsistency in error sectors : 0
Track 08
Filename : /Users/captain/Music/ripped by XLD here/08 - Full Moon (Joe T Vannelli Club Mix).flac
Pre-gap length : 00:02:00
Track gain : -4.68 dB
Peak : 0.966064
CRC32 hash (test run) : A3759A6A
CRC32 hash : A3759A6A
CRC32 hash (skip zero) : 6BC6CB13
Statistics
Read error : 0
Skipped (treated as error) : 0
Edge jitter error (maybe fixed) : 0
Atom jitter error (maybe fixed) : 0
Drift error (maybe fixed) : 0
Dropped bytes error (maybe fixed) : 0
Duplicated bytes error (maybe fixed) : 0
Inconsistency in error sectors : 0
Track 09
Filename : /Users/captain/Music/ripped by XLD here/09 - Full Moon (Joe T Vannelli Dubby Vocal Mix).flac
Pre-gap length : 00:02:00
Track gain : -4.03 dB
Peak : 0.965942
CRC32 hash (test run) : D95AC5B5
CRC32 hash : D95AC5B5
CRC32 hash (skip zero) : BB63C103
Statistics
Read error : 0
Skipped (treated as error) : 0
Edge jitter error (maybe fixed) : 0
Atom jitter error (maybe fixed) : 0
Drift error (maybe fixed) : 0
Dropped bytes error (maybe fixed) : 0
Duplicated bytes error (maybe fixed) : 0
Inconsistency in error sectors : 0
Track 10
Filename : /Users/captain/Music/ripped by XLD here/10 - Full Moon (Joe T Vannelli Dubby Mix).flac
Pre-gap length : 00:02:00
Track gain : -5.36 dB
Peak : 0.966034
CRC32 hash (test run) : DF10D16B
CRC32 hash : DF10D16B
CRC32 hash (skip zero) : D66CB477
Statistics
Read error : 0
Skipped (treated as error) : 0
Edge jitter error (maybe fixed) : 0
Atom jitter error (maybe fixed) : 0
Drift error (maybe fixed) : 0
Dropped bytes error (maybe fixed) : 0
Duplicated bytes error (maybe fixed) : 0
Inconsistency in error sectors : 0
Track 11
Filename : /Users/captain/Music/ripped by XLD here/11 - Full Moon (Double S Mix).flac
Pre-gap length : 00:02:00
Track gain : -6.24 dB
Peak : 0.966064
CRC32 hash (test run) : BBBDA64A
CRC32 hash : BBBDA64A
CRC32 hash (skip zero) : 558A1AA0
Statistics
Read error : 0
Skipped (treated as error) : 0
Edge jitter error (maybe fixed) : 0
Atom jitter error (maybe fixed) : 0
Drift error (maybe fixed) : 0
Dropped bytes error (maybe fixed) : 0
Duplicated bytes error (maybe fixed) : 0
Inconsistency in error sectors : 0
No errors occurred
End of status report
Источник: what.cd

01 Everyday Life (Radio Cut)
02 Everyday Life (Album Version)
Exact Audio Copy V1.0 beta 3 from 29. August 2011

EAC extraction logfile from 7. April 2012, 9:09

Robert Miles / Everyday Life

Used drive : SlimtypeDVD A DS8A1P Adapter: 1 ID: 0

Read mode : Secure
Utilize accurate stream : Yes
Defeat audio cache : Yes
Make use of C2 pointers : No

Read offset correction : 594
Overread into Lead-In and Lead-Out : No
Fill up missing offset samples with silence : Yes
Delete leading and trailing silent blocks : No
Null samples used in CRC calculations : Yes
Used interface : Native Win32 interface for Win NT & 2000
Gap handling : Appended to previous track

Used output format : User Defined Encoder
Selected bitrate : 1024 kBit/s
Quality : High
Add ID3 tag : No
Command line compressor : C:\Program Files\Exact Audio Copy\Flac\flac.exe
Additional command line options : -8 -V -T "ARTIST=%artist%" -T "TITLE=%title%" -T "ALBUM=%albumtitle%" -T "DATE=%year%" -T "TRACKNUMBER=%tracknr%" -T "GENRE=%genre%" -T "COMPOSER=%composer%" -T "COMMENT=ripped by Westlife" %source%

TOC of the extracted CD

Track | Start | Length | Start sector | End sector
---------------------------------------------------------
1 | 0:00.00 | 4:08.49 | 0 | 18648
2 | 4:08.49 | 8:25.53 | 18649 | 56576

Track 1

Filename G:\lossless_releases_mine\Robert_Miles-Everyday_Life-CDS-FLAC-1998-WESTLIFE\01. Robert Miles - Everyday Life (Radio Cut).wav

Pre-gap length 0:00:02.00

Peak level 100.0 %
Extraction speed 1.0 X
Track quality 99.9 %
Test CRC FBC8866B
Copy CRC FBC8866B
Track not present in AccurateRip database
Copy OK

Track 2

Filename G:\lossless_releases_mine\Robert_Miles-Everyday_Life-CDS-FLAC-1998-WESTLIFE\02. Robert Miles - Everyday Life (Album Version).wav

Peak level 100.0 %
Extraction speed 1.2 X
Track quality 100.0 %
Test CRC 96378246
Copy CRC 96378246
Track not present in AccurateRip database
Copy OK

None of the tracks are present in the AccurateRip database

No errors occurred

End of status report

==== Log checksum D2EF550BE1F6F58B6D72841AA1CE4849B45B183D2E7B1B1FF41C9242BFD5A2E7 ====
Источник: what.cd

01 Paths (Robert Miles Salted Remix)
02 Paths (Jah Wobble Remix)
03 Paths (FSOL 'Cosmic Jukebox' Remix Edit)
04 Paths (Robert Miles Album Version Radio Edit)
05 Paths (Alex Haas Dream Free Remix)
06 Paths (KV5 Remix)
07 Paths (FSOL 'Cosmic Jukebox' Remix)
Exact Audio Copy V1.0 beta 3 from 29. August 2011

EAC extraction logfile from 25. October 2012, 11:29

Robert Miles / Paths

Used drive : HL-DT-STDVDRAM GSA-H42N Adapter: 0 ID: 1

Read mode : Secure
Utilize accurate stream : Yes
Defeat audio cache : Yes
Make use of C2 pointers : No

Read offset correction : 667
Overread into Lead-In and Lead-Out : No
Fill up missing offset samples with silence : Yes
Delete leading and trailing silent blocks : No
Null samples used in CRC calculations : Yes
Used interface : Native Win32 interface for Win NT & 2000
Gap handling : Appended to previous track

Used output format : User Defined Encoder
Selected bitrate : 1024 kBit/s
Quality : High
Add ID3 tag : No
Command line compressor : C:\Program Files (x86)\Exact Audio Copy\Flac\flac.exe
Additional command line options : -8 -V -T "ARTIST=%artist%" -T "TITLE=%title%" -T "ALBUM=%albumtitle%" -T "DATE=%year%" -T "TRACKNUMBER=%tracknr%" -T "GENRE=%genre%" -T "PERFORMER=%albuminterpret%" -T "COMPOSER=%composer%" %haslyrics%--tag-from-file=LYRICS="%lyricsfile%"%haslyrics% -T "ALBUMARTIST=%albumartist%" -T "DISCNUMBER=%cdnumber%" -T "TOTALDISCS=%totalcds%" -T "TOTALTRACKS=%numtracks%" -T "COMMENT=%comment%" %source% -o %dest%

TOC of the extracted CD

Track | Start | Length | Start sector | End sector
---------------------------------------------------------
1 | 0:00.00 | 6:04.51 | 0 | 27350
2 | 6:04.51 | 6:25.24 | 27351 | 56249
3 | 12:30.00 | 3:50.01 | 56250 | 73500
4 | 16:20.01 | 3:51.70 | 73501 | 90895
5 | 20:11.71 | 4:02.33 | 90896 | 109078
6 | 24:14.29 | 5:08.67 | 109079 | 132245
7 | 29:23.21 | 7:10.65 | 132246 | 164560

Track 1

Filename G:\Torrent What\Robert Miles - Paths (2001) [Single]\01 - Paths (Robert Miles Salted Remix).wav

Pre-gap length 0:00:02.00

Peak level 98.8 %
Extraction speed 4.1 X
Track quality 99.9 %
Test CRC 16297B4A
Copy CRC 16297B4A
Cannot be verified as accurate (confidence 1) [69E1A94E], AccurateRip returned [BC40D29E] (AR v2)
Copy OK

Track 2

Filename G:\Torrent What\Robert Miles - Paths (2001) [Single]\02 - Paths (Jah Wobble Remix).wav

Pre-gap length 0:00:01.98

Peak level 98.8 %
Extraction speed 5.4 X
Track quality 100.0 %
Test CRC DCC22236
Copy CRC DCC22236
Cannot be verified as accurate (confidence 1) [4D22B917], AccurateRip returned [4A1B0BF0] (AR v2)
Copy OK

Track 3

Filename G:\Torrent What\Robert Miles - Paths (2001) [Single]\03 - Paths (FSOL 'Cosmic Jukebox' Remix Edit).wav

Pre-gap length 0:00:01.98

Peak level 98.8 %
Extraction speed 5.5 X
Track quality 100.0 %
Test CRC 6FFC0FE0
Copy CRC 6FFC0FE0
Cannot be verified as accurate (confidence 1) [A144A470], AccurateRip returned [416F8F2C] (AR v2)
Copy OK

Track 4

Filename G:\Torrent What\Robert Miles - Paths (2001) [Single]\04 - Paths (Robert Miles Album Version Radio Edit).wav

Pre-gap length 0:00:01.98

Peak level 100.0 %
Extraction speed 5.8 X
Track quality 100.0 %
Test CRC 9BF02650
Copy CRC 9BF02650
Cannot be verified as accurate (confidence 1) [1BEEAEC2], AccurateRip returned [61FBA549] (AR v2)
Copy OK

Track 5

Filename G:\Torrent What\Robert Miles - Paths (2001) [Single]\05 - Paths (Alex Haas Dream Free Remix).wav

Pre-gap length 0:00:01.98

Peak level 98.8 %
Extraction speed 6.3 X
Track quality 100.0 %
Test CRC AB3C016E
Copy CRC AB3C016E
Cannot be verified as accurate (confidence 1) [36DAF4A0], AccurateRip returned [2C39E74F] (AR v2)
Copy OK

Track 6

Filename G:\Torrent What\Robert Miles - Paths (2001) [Single]\06 - Paths (KV5 Remix).wav

Pre-gap length 0:00:01.98

Peak level 98.8 %
Extraction speed 6.8 X
Track quality 100.0 %
Test CRC 76C5339B
Copy CRC 76C5339B
Cannot be verified as accurate (confidence 1) [C7FCEC9B], AccurateRip returned [C8FE0EE2] (AR v2)
Copy OK

Track 7

Filename G:\Torrent What\Robert Miles - Paths (2001) [Single]\07 - Paths (FSOL 'Cosmic Jukebox' Remix).wav

Pre-gap length 0:00:01.98

Peak level 98.8 %
Extraction speed 7.4 X
Track quality 100.0 %
Test CRC 68B52910
Copy CRC 68B52910
Cannot be verified as accurate (confidence 1) [32FE18EF], AccurateRip returned [01BCD955] (AR v2)
Copy OK

No tracks could be verified as accurate
You may have a different pressing from the one(s) in the database

No errors occurred

End of status report

---- CUETools DB Plugin V2.1.3

[CTDB TOCID: tGk6qOmEw84o3ge0QtaLhJ9sHP8-] disk not present in database, Submit result: tGk6qOmEw84o3ge0QtaLhJ9sHP8- has been uploaded

==== Log checksum D6AAC4F0E150CA1D8A7808DF80A6269AC233A67E43AB7CB2650BCE1C176EC1C4 ====
Источник: Собственная веб-версия.

01 Miniature World (Critical World Remix)
02 Miniature World
1 -===- K:\Iia aa?aoei\Robert Miles - Miniature World [2011]\01. Miniature World (Critical World Remix).flac
Extracted successfully
Conclusion: this track is CDDA with probability 100%
Tempfile successfully deleted.
2 -===- K:\Iia aa?aoei\Robert Miles - Miniature World [2011]\02. Miniature World.flac
Extracted successfully
Conclusion: this track is CDDA with probability 100%
Tempfile successfully deleted.
Источник: Robert Miles - In The Mix

01 Chicane - Offshore
02 Goldie - Inner City Life
03 Prana - Geomantik
04 D SAW - Track
05 Analogue Silence - Magnetik Field
06 L.S.G. - Transmutation
07 Nunca - Ballistique
08 Robert Miles - Fable
09 Arkana - House of Fire
10 Underworld - Pearl's Girl
11 SEM - Red Dragon
12 Robert Miles - For Us
13 Clockwork - Dream
14 Castle Trancelott - The Gloom
15 Csilla - Man in the Moon
16 Peter Lazonby - Sacred Cycles
17 Altered State - Thoughts
18 Ascendence - D.R.O.P.
19 Nem Cru - Hot Knives
Exact Audio Copy V0.99 prebeta 4 from 23. January 2008
EAC extraction logfile from 29. January 2009, 7:41
Robert Miles / Dj Miles In The Mix
Used drive : SONY DVD RW DW-Q28A Adapter: 0 ID: 0
Read mode : Secure
Utilize accurate stream : Yes
Defeat audio cache : Yes
Make use of C2 pointers : No
Read offset correction : 12
Overread into Lead-In and Lead-Out : No
Fill up missing offset samples with silence : Yes
Delete leading and trailing silent blocks : No
Null samples used in CRC calculations : Yes
Used interface : Native Win32 interface for Win NT & 2000
Gap handling : Appended to previous track
Used output format : User Defined Encoder
Selected bitrate : 768 kBit/s
Quality : High
Add ID3 tag : No
Command line compressor : C:\Program Files (x86)\Exact Audio Copy\Flac\flac.exe
Additional command line options : -8 -V -T "ARTIST=%a" -T "TITLE=%t" -T "ALBUM=%g" -T "DATE=%y" -T "TRACKNUMBER=%n" -T "GENRE=%m" -T "COMMENT=%e" %s -o %d
TOC of the extracted CD
Track | Start | Length | Start sector | End sector
---------------------------------------------------------
1 | 0:00.00 | 4:14.16 | 0 | 19065
2 | 4:14.16 | 3:35.29 | 19066 | 35219
3 | 7:49.45 | 4:10.69 | 35220 | 54038
4 | 12:00.39 | 2:51.12 | 54039 | 66875
5 | 14:51.51 | 4:30.26 | 66876 | 87151
6 | 19:22.02 | 3:04.54 | 87152 | 101005
7 | 22:26.56 | 3:21.12 | 101006 | 116092
8 | 25:47.68 | 3:58.71 | 116093 | 134013
9 | 29:46.64 | 4:52.69 | 134014 | 155982
10 | 34:39.58 | 5:27.34 | 155983 | 180541
11 | 40:07.17 | 2:19.24 | 180542 | 190990
12 | 42:26.41 | 4:24.69 | 190991 | 210859
13 | 46:51.35 | 5:21.42 | 210860 | 234976
14 | 52:13.02 | 1:20.01 | 234977 | 240977
15 | 53:33.03 | 5:33.57 | 240978 | 266009
16 | 59:06.60 | 4:55.56 | 266010 | 288190
17 | 64:02.41 | 2:59.29 | 288191 | 301644
18 | 67:01.70 | 2:43.34 | 301645 | 313903
19 | 69:45.29 | 4:11.54 | 313904 | 332782
Track 1
Filename C:\Music_torrent\Robert Miles\Robert Miles - In The Mix\01 - Chicane , Offshore.wav
Pre-gap length 0:00:02.00
Peak level 95.1 %
Track quality 100.0 %
Test CRC FC11ED99
Copy CRC FC11ED99
Copy OK
Track 2
Filename C:\Music_torrent\Robert Miles\Robert Miles - In The Mix\02 - Goldie , Inner City Life.wav
Peak level 94.8 %
Track quality 100.0 %
Test CRC F320FDCE
Copy CRC F320FDCE
Copy OK
Track 3
Filename C:\Music_torrent\Robert Miles\Robert Miles - In The Mix\03 - Praha , Geomantik.wav
Peak level 95.4 %
Track quality 100.0 %
Test CRC 61BE7BC4
Copy CRC 61BE7BC4
Copy OK
Track 4
Filename C:\Music_torrent\Robert Miles\Robert Miles - In The Mix\04 - D Saw , Track 7-22.wav
Peak level 96.8 %
Track quality 100.0 %
Test CRC 16E0D4C1
Copy CRC 16E0D4C1
Copy OK
Track 5
Filename C:\Music_torrent\Robert Miles\Robert Miles - In The Mix\05 - Analogue Silence , Magnetic Field.wav
Peak level 97.0 %
Track quality 100.0 %
Test CRC CE61AAC3
Copy CRC CE61AAC3
Copy OK
Track 6
Filename C:\Music_torrent\Robert Miles\Robert Miles - In The Mix\06 - L.S.G. , Transmutation.wav
Peak level 94.7 %
Track quality 100.0 %
Test CRC FE0449E4
Copy CRC FE0449E4
Copy OK
Track 7
Filename C:\Music_torrent\Robert Miles\Robert Miles - In The Mix\07 - Nunca , Ballistique.wav
Peak level 96.8 %
Track quality 100.0 %
Test CRC CA8FF284
Copy CRC CA8FF284
Copy OK
Track 8
Filename C:\Music_torrent\Robert Miles\Robert Miles - In The Mix\08 - Robert Miles , Fable.wav
Peak level 95.4 %
Track quality 100.0 %
Test CRC A72C7D60
Copy CRC A72C7D60
Copy OK
Track 9
Filename C:\Music_torrent\Robert Miles\Robert Miles - In The Mix\09 - Arkana , House On Fire.wav
Peak level 97.2 %
Track quality 100.0 %
Test CRC 918A36E5
Copy CRC 918A36E5
Copy OK
Track 10
Filename C:\Music_torrent\Robert Miles\Robert Miles - In The Mix\10 - Underworld , Pearl's Girl.wav
Peak level 96.9 %
Track quality 100.0 %
Test CRC 6D410750
Copy CRC 6D410750
Copy OK
Track 11
Filename C:\Music_torrent\Robert Miles\Robert Miles - In The Mix\11 - Sem , Red Dragon.wav
Peak level 95.5 %
Track quality 100.0 %
Test CRC FBC97BEA
Copy CRC FBC97BEA
Copy OK
Track 12
Filename C:\Music_torrent\Robert Miles\Robert Miles - In The Mix\12 - Robert Miles , For Us.wav
Peak level 100.0 %
Track quality 100.0 %
Test CRC 43275EF1
Copy CRC 43275EF1
Copy OK
Track 13
Filename C:\Music_torrent\Robert Miles\Robert Miles - In The Mix\13 - Clockwork , Dream.wav
Peak level 96.5 %
Track quality 100.0 %
Test CRC 85E484E8
Copy CRC 85E484E8
Copy OK
Track 14
Filename C:\Music_torrent\Robert Miles\Robert Miles - In The Mix\14 - Castle Trancelott , The Gloom.wav
Peak level 94.6 %
Track quality 99.8 %
Test CRC CAC7D31F
Copy CRC CAC7D31F
Copy OK
Track 15
Filename C:\Music_torrent\Robert Miles\Robert Miles - In The Mix\15 - Csilla , Man In The Moon.wav
Peak level 95.9 %
Track quality 100.0 %
Test CRC 3AFDB926
Copy CRC 3AFDB926
Copy OK
Track 16
Filename C:\Music_torrent\Robert Miles\Robert Miles - In The Mix\16 - Peter Lazonby , Sacred Cycles.wav
Peak level 96.1 %
Track quality 100.0 %
Test CRC 30202195
Copy CRC 30202195
Copy OK
Track 17
Filename C:\Music_torrent\Robert Miles\Robert Miles - In The Mix\17 - Altered State , Thoughts.wav
Peak level 96.4 %
Track quality 100.0 %
Test CRC 7DCC822B
Copy CRC 7DCC822B
Copy OK
Track 18
Filename C:\Music_torrent\Robert Miles\Robert Miles - In The Mix\18 - Ascendence , D.R.O.P..wav
Peak level 94.4 %
Track quality 100.0 %
Test CRC F349E030
Copy CRC F349E030
Copy OK
Track 19
Filename C:\Music_torrent\Robert Miles\Robert Miles - In The Mix\19 - Nem Cru , Hot Knives.wav
Peak level 94.3 %
Track quality 99.9 %
Test CRC 07B08472
Copy CRC 07B08472
Copy OK
No errors occurred
End of status report
Источник: Renaissance Worldwide - London

01 Smoke City - Underwater Love (Morales Reprise & Underwater Club Mixes) 7:57
02 Furry Phreaks - Soothe (Chicane Jazz Mix) 5:23
03 Bulkhead - Easy Rider Blues 2:15
04 Garbage - Milk (Rabbit In The Moon Got It Mix) 7:24
05 Lustral - Everytime (Nalin & Kane Mix) 6:28
06 Pako - Western Approaches 0:57
07 Dina Carroll - Mind, Body & Soul (Acapella) 3:34
08 Stone Factory - Saint And Sinner 1:54
09 Underworld - Cowgirl (Irish Pub In Kyoto & Original Mixes) 11:05
10 Skunk Anansie - Twisted (Everyday Hurts) (Blue Amazon DMC Mix) 12:33
11 Saint Etienne - The Sea (PFM Mix) 6:41
12 Lamb - Gorecki 6:28
13 Fluke - Absurd (Reeferendum Mix) 4:43
14 Way Out West - Drive By 3:47
15 Empirion - B.E.T.A. (Original Mix) 4:55
16 Landlord - Split Second 3:03
17 Polybeat - Koea 954 (Heart Of Steel Mix) 4:42
18 Rebel Yelle - Mizbehavinit (Gizelle's Mizbe'ere We Go Again Mix) 2:20
19 Moogability - Houston ('97 Remix) 3:09
20 Metal Spark - Smells Electric 3:16
21 Ascendence - D.R.O.P. 5:23
22 Sultan - Gel Gor Beni Ask N'Eyledi 3:38
23 Delta, The - As A Child I Could Walk On The Ceiling 7:52
24 Children Of Paradise - Alien Nation (Part 2) 4:54
26 Darshan - Mind Merge 7:03
Exact Audio Copy V0.99 prebeta 4 from 23. January 2008
EAC extraction logfile from 18. June 2009, 17:21
Various / Renaissance Worldwide - London
Used drive : SONY CD-RW CRX195E1 Adapter: 1 ID: 0
Read mode : Secure
Utilize accurate stream : Yes
Defeat audio cache : Yes
Make use of C2 pointers : No
Read offset correction : 12
Overread into Lead-In and Lead-Out : No
Fill up missing offset samples with silence : Yes
Delete leading and trailing silent blocks : No
Null samples used in CRC calculations : Yes
Used interface : Native Win32 interface for Win NT & 2000
Gap handling : Appended to previous track
Used output format : User Defined Encoder
Selected bitrate : 128 kBit/s
Quality : High
Add ID3 tag : No
Command line compressor : C:\Program Files\Exact Audio Copy\Flac\flac.exe
Additional command line options : -V -8 -T "artist=%a" -T "title=%t" -T "album=%g" -T "date=%y" -T "tracknumber=%n" -T "genre=%m" %s
TOC of the extracted CD
Track | Start | Length | Start sector | End sector
---------------------------------------------------------
1 | 0:00.33 | 7:57.02 | 33 | 35809
2 | 7:57.35 | 5:23.35 | 35810 | 60069
3 | 13:20.70 | 2:15.15 | 60070 | 70209
4 | 15:36.10 | 7:23.65 | 70210 | 103499
5 | 23:00.00 | 6:28.48 | 103500 | 132647
6 | 29:28.48 | 0:57.25 | 132648 | 136947
7 | 30:25.73 | 3:34.67 | 136948 | 153064
8 | 34:00.65 | 1:54.33 | 153065 | 161647
9 | 35:55.23 | 11:05.02 | 161648 | 211524
10 | 47:00.25 | 12:33.10 | 211525 | 268009
11 | 59:33.35 | 6:40.63 | 268010 | 298072
12 | 66:14.23 | 6:28.10 | 298073 | 327182
Track 1
Filename C:\EACrips\Various - Renaissance Worldwide - London (1997) [FLAC]\01 - Smoke City - Underwater Love (Morales Reprise & Underwater Club Mixes).wav
Pre-gap length 0:00:02.44
Peak level 98.8 %
Track quality 100.0 %
Test CRC E84B163B
Copy CRC E84B163B
Accurately ripped (confidence 11) [E568AF37]
Copy OK
Track 2
Filename C:\EACrips\Various - Renaissance Worldwide - London (1997) [FLAC]\02 - Furry Phreaks - Soothe (Chicane Jazz Mix).wav
Peak level 98.8 %
Track quality 100.0 %
Test CRC 1F844760
Copy CRC 1F844760
Accurately ripped (confidence 12) [2742F475]
Copy OK
Track 3
Filename C:\EACrips\Various - Renaissance Worldwide - London (1997) [FLAC]\03 - Bulkhead - Easy Rider Blues.wav
Peak level 98.8 %
Track quality 100.0 %
Test CRC F89C41DF
Copy CRC F89C41DF
Accurately ripped (confidence 12) [F1E1F56A]
Copy OK
Track 4
Filename C:\EACrips\Various - Renaissance Worldwide - London (1997) [FLAC]\04 - Garbage - Milk (Rabbit In The Moon's Got It Mix).wav
Peak level 98.8 %
Track quality 100.0 %
Test CRC FBDE2809
Copy CRC FBDE2809
Accurately ripped (confidence 12) [8F3D94FC]
Copy OK
Track 5
Filename C:\EACrips\Various - Renaissance Worldwide - London (1997) [FLAC]\05 - Lustral - Everytime (Nalin & Kane Mix).wav
Peak level 98.8 %
Track quality 100.0 %
Test CRC 91528F67
Copy CRC 91528F67
Accurately ripped (confidence 12) [2C8C283A]
Copy OK
Track 6
Filename C:\EACrips\Various - Renaissance Worldwide - London (1997) [FLAC]\06 - Pako - Western Approaches.wav
Peak level 95.6 %
Track quality 100.0 %
Test CRC D3C47055
Copy CRC D3C47055
Accurately ripped (confidence 12) [C03CA3A7]
Copy OK
Track 7
Filename C:\EACrips\Various - Renaissance Worldwide - London (1997) [FLAC]\07 - Dina Carroll - Mind, Body & Soul (Acapella).wav
Peak level 98.8 %
Track quality 100.0 %
Test CRC ACC23BF7
Copy CRC ACC23BF7
Accurately ripped (confidence 12) [0413551C]
Copy OK
Track 8
Filename C:\EACrips\Various - Renaissance Worldwide - London (1997) [FLAC]\08 - Stone Factory - Saint And Sinner.wav
Peak level 98.8 %
Track quality 100.0 %
Test CRC F1798B98
Copy CRC F1798B98
Accurately ripped (confidence 12) [4A4DE502]
Copy OK
Track 9
Filename C:\EACrips\Various - Renaissance Worldwide - London (1997) [FLAC]\09 - Underworld - Cowgirl (Irish Pub In Kyoto & Original Mixes).wav
Peak level 98.8 %
Track quality 100.0 %
Test CRC A005B2D9
Copy CRC A005B2D9
Accurately ripped (confidence 12) [4C59F398]
Copy OK
Track 10
Filename C:\EACrips\Various - Renaissance Worldwide - London (1997) [FLAC]\10 - Skunk Anansie - Twisted (Everyday Hurts) (Blue Amazon DMC Mix).wav
Peak level 98.8 %
Track quality 99.9 %
Test CRC CE9A1230
Copy CRC CE9A1230
Accurately ripped (confidence 12) [7EABF0DE]
Copy OK
Track 11
Filename C:\EACrips\Various - Renaissance Worldwide - London (1997) [FLAC]\11 - St. Etienne - The Sea (PFM Mix).wav
Peak level 98.8 %
Track quality 100.0 %
Test CRC 95E73559
Copy CRC 95E73559
Accurately ripped (confidence 12) [976FDF35]
Copy OK
Track 12
Filename C:\EACrips\Various - Renaissance Worldwide - London (1997) [FLAC]\12 - Lamb - Gorecki.wav
Peak level 80.2 %
Track quality 100.0 %
Test CRC 2AD0F73C
Copy CRC 2AD0F73C
Accurately ripped (confidence 12) [330F5385]
Copy OK
All tracks accurately ripped
No errors occurred
End of status report
Exact Audio Copy V0.99 prebeta 4 from 23. January 2008
EAC extraction logfile from 18. June 2009, 18:34
Various / Renaissance Worldwide - London (CD2)
Used drive : SONY CD-RW CRX195E1 Adapter: 1 ID: 0
Read mode : Secure
Utilize accurate stream : Yes
Defeat audio cache : Yes
Make use of C2 pointers : No
Read offset correction : 12
Overread into Lead-In and Lead-Out : No
Fill up missing offset samples with silence : Yes
Delete leading and trailing silent blocks : No
Null samples used in CRC calculations : Yes
Used interface : Native Win32 interface for Win NT & 2000
Gap handling : Appended to previous track
Used output format : User Defined Encoder
Selected bitrate : 128 kBit/s
Quality : High
Add ID3 tag : No
Command line compressor : C:\Program Files\Exact Audio Copy\Flac\flac.exe
Additional command line options : -V -8 -T "artist=%a" -T "title=%t" -T "album=%g" -T "date=%y" -T "tracknumber=%n" -T "genre=%m" %s
TOC of the extracted CD
Track | Start | Length | Start sector | End sector
---------------------------------------------------------
1 | 0:00.32 | 4:43.10 | 32 | 21266
2 | 4:43.42 | 3:47.05 | 21267 | 38296
3 | 8:30.47 | 4:54.65 | 38297 | 60411
4 | 13:25.37 | 3:02.70 | 60412 | 74131
5 | 16:28.32 | 4:42.38 | 74132 | 95319
6 | 21:10.70 | 2:20.30 | 95320 | 105849
7 | 23:31.25 | 3:09.37 | 105850 | 120061
8 | 26:40.62 | 3:16.15 | 120062 | 134776
9 | 29:57.02 | 5:23.23 | 134777 | 159024
10 | 35:20.25 | 3:38.47 | 159025 | 175421
11 | 38:58.72 | 7:52.65 | 175422 | 210886
12 | 46:51.62 | 4:53.18 | 210887 | 232879
13 | 51:45.05 | 7:02.72 | 232880 | 264601
Track 1
Filename C:\EACrips\Various - Renaissance Worldwide - London (CD2) (1997) [FLAC]\01 - Fluke - Absurd (Reeferendrum Mix).wav
Pre-gap length 0:00:02.42
Peak level 100.0 %
Track quality 100.0 %
Test CRC FF4B8E6B
Copy CRC FF4B8E6B
Accurately ripped (confidence 12) [7334A73E]
Copy OK
Track 2
Filename C:\EACrips\Various - Renaissance Worldwide - London (CD2) (1997) [FLAC]\02 - Way Out West - Drive By.wav
Peak level 100.0 %
Track quality 100.0 %
Test CRC A99B6632
Copy CRC A99B6632
Accurately ripped (confidence 12) [A9BEC698]
Copy OK
Track 3
Filename C:\EACrips\Various - Renaissance Worldwide - London (CD2) (1997) [FLAC]\03 - Empirion - B.E.T.A. (Original Mix).wav
Peak level 100.0 %
Track quality 99.9 %
Test CRC B68386B9
Copy CRC B68386B9
Accurately ripped (confidence 12) [EA951D14]
Copy OK
Track 4
Filename C:\EACrips\Various - Renaissance Worldwide - London (CD2) (1997) [FLAC]\04 - Landlord - Split Second.wav
Peak level 100.0 %
Track quality 99.9 %
Test CRC 14432D4B
Copy CRC 14432D4B
Accurately ripped (confidence 12) [4FA627BE]
Copy OK
Track 5
Filename C:\EACrips\Various - Renaissance Worldwide - London (CD2) (1997) [FLAC]\05 - Polybeat - Koea 954 (Heart Of Steel Mix).wav
Peak level 99.8 %
Track quality 100.0 %
Test CRC F94FFCE9
Copy CRC F94FFCE9
Accurately ripped (confidence 12) [DB6814CD]
Copy OK
Track 6
Filename C:\EACrips\Various - Renaissance Worldwide - London (CD2) (1997) [FLAC]\06 - Rebel Yelle - Mizbehavinit (Gizelle's Mizbe'ere We Go Again Mix).wav
Peak level 100.0 %
Track quality 100.0 %
Test CRC FD5B51BB
Copy CRC FD5B51BB
Accurately ripped (confidence 12) [47E42AF7]
Copy OK
Track 7
Filename C:\EACrips\Various - Renaissance Worldwide - London (CD2) (1997) [FLAC]\07 - Moogability - Houston ('97 Remix).wav
Peak level 99.8 %
Track quality 100.0 %
Test CRC 0E851E25
Copy CRC 0E851E25
Accurately ripped (confidence 12) [ABCA95EF]
Copy OK
Track 8
Filename C:\EACrips\Various - Renaissance Worldwide - London (CD2) (1997) [FLAC]\08 - Metal Spark - Smells Electric.wav
Peak level 99.9 %
Track quality 100.0 %
Test CRC 5FF1023A
Copy CRC 5FF1023A
Accurately ripped (confidence 12) [3AD1E3E2]
Copy OK
Track 9
Filename C:\EACrips\Various - Renaissance Worldwide - London (CD2) (1997) [FLAC]\09 - Ascendence - D.R.O.P..wav
Peak level 99.3 %
Track quality 100.0 %
Test CRC DDCC2549
Copy CRC DDCC2549
Accurately ripped (confidence 12) [2A24203C]
Copy OK
Track 10
Filename C:\EACrips\Various - Renaissance Worldwide - London (CD2) (1997) [FLAC]\10 - Sultan - Gel Gor Beni Ask N'Eyledi.wav
Peak level 94.4 %
Track quality 100.0 %
Test CRC ED616411
Copy CRC ED616411
Accurately ripped (confidence 12) [29C3BA19]
Copy OK
Track 11
Filename C:\EACrips\Various - Renaissance Worldwide - London (CD2) (1997) [FLAC]\11 - The Delta - As A Child I Could Walk On The Ceiling.wav
Peak level 100.0 %
Track quality 99.9 %
Test CRC 1C6D8DBF
Copy CRC 1C6D8DBF
Accurately ripped (confidence 12) [10882500]
Copy OK
Track 12
Filename C:\EACrips\Various - Renaissance Worldwide - London (CD2) (1997) [FLAC]\12 - Children Of Paradise - Alien Nation (Part 2).wav
Peak level 100.0 %
Track quality 99.9 %
Test CRC D84B7A70
Copy CRC D84B7A70
Accurately ripped (confidence 12) [FEF5EE87]
Copy OK
Track 13
Filename C:\EACrips\Various - Renaissance Worldwide - London (CD2) (1997) [FLAC]\13 - Darshan - Mind Merge.wav
Peak level 100.0 %
Track quality 100.0 %
Test CRC 75CD688E
Copy CRC 75CD688E
Accurately ripped (confidence 12) [00A8A9CF]
Copy OK
All tracks accurately ripped
No errors occurred
End of status report

Внимание!
26.10.12 Торрент был перезалит. Была сделана наиболее полная дискография.
info [Профиль]  [ЛС] 

Raa

Пол: Пол:Муж

Стаж: 6 лет 8 месяцев

Сообщений: 1099

Рейтинг

post 21-Сен-2011 22:02 (спустя 2 часа 4 минуты) [-]-1[+]

[Цитировать] 

Reznov
Название должно быть такого формата:

Код:

(Жанр) Исполнитель - Название альбома - год, MP3, xx kbps
Для удобства, желательно указывать год альбома в названиях спойлера.
info [Профиль]  [ЛС] 

SMIt

Стаж: 6 лет 8 месяцев

Сообщений: 24

Россия
Рейтинг

post 22-Сен-2011 00:02 (спустя 2 часа) [-]0[+]

[Цитировать] 

2001 - Th1rt3en... Опечатка.
Спасибо за раздачу ))
info [Профиль]  [ЛС] 

Reznov

Пол: Пол:Муж

Стаж: 7 лет 8 месяцев

Сообщений: 2138

Россия
Рейтинг

post 22-Сен-2011 07:03 (спустя 7 часов) [-]0[+]

[Цитировать] 

Прикоснитесь к музыке этого гения.
info [Профиль]  [ЛС] 

Raa

Пол: Пол:Муж

Стаж: 6 лет 8 месяцев

Сообщений: 1099

Рейтинг

post 24-Дек-2011 18:24 (спустя 3 месяца 2 дня) [-]0[+]

[Цитировать] 

Reznov
В названии укажите количество релизов
info [Профиль]  [ЛС] 

Reznov

Пол: Пол:Муж

Стаж: 7 лет 8 месяцев

Сообщений: 2138

Россия
Рейтинг

post 24-Дек-2011 19:41 (спустя 1 час 16 минут) [-]0[+]

[Цитировать] 

Raa
сделал.
info [Профиль]  [ЛС] 

Reznov

Пол: Пол:Муж

Стаж: 7 лет 8 месяцев

Сообщений: 2138

Россия
Рейтинг

post 01-Май-2012 10:43 (спустя 4 месяца 6 дней) [-]0[+]

[Цитировать] 

Перезалил.
info [Профиль]  [ЛС] 

Kolyabus

Пол: Пол:Муж

Стаж: 7 лет 2 месяца

Сообщений: 93

Россия
Рейтинг

post 03-Май-2012 10:40 (спустя 1 день 23 часа) [-]0[+]

[Цитировать] 

Спасибо!
info [Профиль]  [ЛС] 
Показать сообщения:    
Ответить на тему

Текущее время: 04-Дек 05:59

Часовой пояс: GMT + 4



Вы не можете начинать темы
Вы не можете отвечать на сообщения
Вы не можете редактировать свои сообщения
Вы не можете удалять свои сообщения
Вы не можете голосовать в опросах
Вы не можете прикреплять файлы к сообщениям
Вы не можете скачивать файлы