Ошибка

(Rap) Slim (CENTR, ex-Дымовая Завеса) - Отличай Людей - 2011, FLAC (tracks+.cue) lossless

Ответить на тему
 
Автор Сообщение

Raa

Пол: Пол:Муж

Стаж: 7 лет 11 месяцев

Сообщений: 1099

Рейтинг

post 01-Июл-2011 00:02 0[+]

[Цитировать] 

Slim - Отличай Людей
Жанр: Rap
Год издания диска: 2011
Страна-производитель диска: Россия
Страна: Россия
Издатель (лейбл): Nikitin
Номер по каталогу: ФГН-CD 016/11
Тип релиза: tracks+.cue
Аудио кодек: FLAC
Битрейт аудио: lossless
Продолжительность: 01:18:36

Трэклист:
01. Начало (2:17)
02. Поле Чудес (feat. Быба) (3:43)
03. Безопасный джойнт (4:19)
04. На облаках (feat. Артём Татищевский) (3:18)
05. Шум (3:45)
06. Застрахуй машину (5:00)
07. Тайное становится явным (feat. Стриж) (3:44)
08. Имени Ленина (feat. Скин, Mesr) (4:35)
09. Птаха интересуется (скит) (2:50)
10. Свадьба 2 (feat. Тати) (4:00)
11. Высота (feat. Loc-Dog) (3:41)
12. New Era (конец Света) (3:57)
13. Те дни (версия 2010) (feat. Птаха) (4:30)
14. Romance (feat. Rkp-Uno) (4:04)
15. Шаги (feat. VBT Вектор Beat) (5:15)
16. Дымовые Замесы (6:09)
17. Демоны (feat. Константа) (5:22)
18. Пазл (feat. F.Y.P.M.) (4:17)
19. Будь осторожен (rmx) (3:50)

Код:

Exact Audio Copy V0.99 prebeta 5 from 4. May 2009
Отчёт EAC об извлечении, выполненном 26. февраля 2011, 18:42
Slim / Отличай Людей
Дисковод: LITE-ON DVDRW SHM-165P6S   Adapter: 5  ID: 0
Режим чтения                 : Достоверность
Использование точного потока : Да
Отключение кэша аудио        : Да
Использование указателей C2  : Нет
Коррекция смещения при чтении                     : 6
Способность читать области Lead-in и Lead-out     : Нет
Заполнение пропущенных сэмплов тишиной            : Да
Удаление блоков с тишиной в начале и конце        : Нет
При вычислениях CRC использовались нулевые сэмплы : Да
Интерфейс                                         : Установленный внешний ASPI-интерфейс
Обработка зазоров                                 : Добавлено к предыдущему треку
Выходной формат          : Пользовательский кодировщик
Выбранный битрейт        : 1024 kBit/s
Качество                 : Высокий
Добавление ID3-тэга      : Нет
Утилита сжатия           : D:\Soft\Exact Audio Copy\Flac\flac.exe
Дополнительные параметры : -8 -V -T "ARTIST=%a" -T "TITLE=%t" -T "ALBUM=%g" -T "DATE=%y" -T "TRACKNUMBER=%n" -T "GENRE=%m" -T "COMMENT=EAC FLAC -8" %s
TOC извлечённого CD
     Трек |   Старт  | Длительность | Начальный сектор | Конечный сектор
    ---------------------------------------------------------------------
       1  |  0:00.00 |    2:17.21   |           0      |      10295
       2  |  2:17.21 |    3:43.16   |       10296      |      27036
       3  |  6:00.37 |    4:18.41   |       27037      |      46427
       4  | 10:19.03 |    3:18.25   |       46428      |      61302
       5  | 13:37.28 |    3:44.48   |       61303      |      78150
       6  | 17:22.01 |    5:00.10   |       78151      |     100660
       7  | 22:22.11 |    3:43.70   |      100661      |     117455
       8  | 26:06.06 |    4:34.48   |      117456      |     138053
       9  | 30:40.54 |    2:50.28   |      138054      |     150831
      10  | 33:31.07 |    3:59.69   |      150832      |     168825
      11  | 37:31.01 |    3:40.50   |      168826      |     185375
      12  | 41:11.51 |    3:57.31   |      185376      |     203181
      13  | 45:09.07 |    4:30.02   |      203182      |     223433
      14  | 49:39.09 |    4:04.09   |      223434      |     241742
      15  | 53:43.18 |    5:14.58   |      241743      |     265350
      16  | 58:58.01 |    6:08.74   |      265351      |     293024
      17  | 65:07.00 |    5:22.10   |      293025      |     317184
      18  | 70:29.10 |    4:17.34   |      317185      |     336493
      19  | 74:46.44 |    3:49.43   |      336494      |     353711
Трек  1
     Имя файла D:\Music\Lossless\CENTR - Дискография (FLAC)\Slim - Отличай Людей 2011\01 Начало.wav
     Длина предзазора  0:00:02.00
     Пиковый уровень 100.0 %
     Качество трека 100.0 %
     CRC теста 1AB2456D
     CRC копии 1AB2456D
     Копирование... OK
Трек  2
     Имя файла D:\Music\Lossless\CENTR - Дискография (FLAC)\Slim - Отличай Людей 2011\02 Поле Чудес (feat. Быба).wav
     Длина предзазора  0:00:01.00
     Пиковый уровень 100.0 %
     Качество трека 100.0 %
     CRC теста 881A12BC
     CRC копии 881A12BC
     Копирование... OK
Трек  3
     Имя файла D:\Music\Lossless\CENTR - Дискография (FLAC)\Slim - Отличай Людей 2011\03 Безопасный джойнт.wav
     Длина предзазора  0:00:01.00
     Пиковый уровень 100.0 %
     Качество трека 100.0 %
     CRC теста 9CAE1F07
     CRC копии 9CAE1F07
     Копирование... OK
Трек  4
     Имя файла D:\Music\Lossless\CENTR - Дискография (FLAC)\Slim - Отличай Людей 2011\04 На облаках (feat. Артём Татищевский).wav
     Длина предзазора  0:00:01.00
     Пиковый уровень 100.0 %
     Качество трека 100.0 %
     CRC теста D6EB7EA6
     CRC копии D6EB7EA6
     Копирование... OK
Трек  5
     Имя файла D:\Music\Lossless\CENTR - Дискография (FLAC)\Slim - Отличай Людей 2011\05 Шум.wav
     Длина предзазора  0:00:01.00
     Пиковый уровень 100.0 %
     Качество трека 100.0 %
     CRC теста C2289A01
     CRC копии C2289A01
     Копирование... OK
Трек  6
     Имя файла D:\Music\Lossless\CENTR - Дискография (FLAC)\Slim - Отличай Людей 2011\06 Застрахуй машину.wav
     Длина предзазора  0:00:01.00
     Пиковый уровень 100.0 %
     Качество трека 100.0 %
     CRC теста 67C9D86A
     CRC копии 67C9D86A
     Копирование... OK
Трек  7
     Имя файла D:\Music\Lossless\CENTR - Дискография (FLAC)\Slim - Отличай Людей 2011\07 Тайное становится явным (feat. Стриж).wav
     Длина предзазора  0:00:01.00
     Пиковый уровень 100.0 %
     Качество трека 100.0 %
     CRC теста 935623DF
     CRC копии 935623DF
     Копирование... OK
Трек  8
     Имя файла D:\Music\Lossless\CENTR - Дискография (FLAC)\Slim - Отличай Людей 2011\08 Имени Ленина (feat. Скин, Mesr).wav
     Длина предзазора  0:00:01.00
     Пиковый уровень 100.0 %
     Качество трека 100.0 %
     CRC теста 0150635E
     CRC копии 0150635E
     Копирование... OK
Трек  9
     Имя файла D:\Music\Lossless\CENTR - Дискография (FLAC)\Slim - Отличай Людей 2011\09 Птаха интересуется (скит).wav
     Длина предзазора  0:00:01.00
     Пиковый уровень 100.0 %
     Качество трека 100.0 %
     CRC теста DF17B011
     CRC копии DF17B011
     Копирование... OK
Трек 10
     Имя файла D:\Music\Lossless\CENTR - Дискография (FLAC)\Slim - Отличай Людей 2011\10 Свадьба 2 (feat. Тати).wav
     Длина предзазора  0:00:01.00
     Пиковый уровень 100.0 %
     Качество трека 100.0 %
     CRC теста 5125DDF5
     CRC копии 5125DDF5
     Копирование... OK
Трек 11
     Имя файла D:\Music\Lossless\CENTR - Дискография (FLAC)\Slim - Отличай Людей 2011\11 Высота (feat. Loc-Dog).wav
     Длина предзазора  0:00:01.00
     Пиковый уровень 100.0 %
     Качество трека 100.0 %
     CRC теста F8157A1B
     CRC копии F8157A1B
     Копирование... OK
Трек 12
     Имя файла D:\Music\Lossless\CENTR - Дискография (FLAC)\Slim - Отличай Людей 2011\12 New Era (конец Света).wav
     Длина предзазора  0:00:01.00
     Пиковый уровень 100.0 %
     Качество трека 99.9 %
     CRC теста 6484EB7B
     CRC копии 6484EB7B
     Копирование... OK
Трек 13
     Имя файла D:\Music\Lossless\CENTR - Дискография (FLAC)\Slim - Отличай Людей 2011\13 Те дни (версия 2010) (feat. Птаха).wav
     Длина предзазора  0:00:01.00
     Пиковый уровень 100.0 %
     Качество трека 100.0 %
     CRC теста F17AB691
     CRC копии F17AB691
     Копирование... OK
Трек 14
     Имя файла D:\Music\Lossless\CENTR - Дискография (FLAC)\Slim - Отличай Людей 2011\14 Romance (feat. Rkp-Uno).wav
     Длина предзазора  0:00:01.00
     Пиковый уровень 100.0 %
     Качество трека 100.0 %
     CRC теста FC202754
     CRC копии FC202754
     Копирование... OK
Трек 15
     Имя файла D:\Music\Lossless\CENTR - Дискография (FLAC)\Slim - Отличай Людей 2011\15 Шаги (feat. VBT Вектор Beat).wav
     Длина предзазора  0:00:01.00
     Пиковый уровень 100.0 %
     Качество трека 99.9 %
     CRC теста 0574CC0A
     CRC копии 0574CC0A
     Копирование... OK
Трек 16
     Имя файла D:\Music\Lossless\CENTR - Дискография (FLAC)\Slim - Отличай Людей 2011\16 Дымовые Замесы.wav
     Длина предзазора  0:00:01.00
     Пиковый уровень 100.0 %
     Качество трека 100.0 %
     CRC теста FF24F3D3
     CRC копии FF24F3D3
     Копирование... OK
Трек 17
     Имя файла D:\Music\Lossless\CENTR - Дискография (FLAC)\Slim - Отличай Людей 2011\17 Демоны (feat. Константа).wav
     Длина предзазора  0:00:01.00
     Пиковый уровень 100.0 %
     Качество трека 100.0 %
     CRC теста E874FB9B
     CRC копии E874FB9B
     Копирование... OK
Трек 18
     Имя файла D:\Music\Lossless\CENTR - Дискография (FLAC)\Slim - Отличай Людей 2011\18 Пазл (feat. F.Y.P.M.).wav
     Длина предзазора  0:00:01.00
     Пиковый уровень 100.0 %
     Качество трека 100.0 %
     CRC теста B058B012
     CRC копии B058B012
     Копирование... OK
Трек 19
     Имя файла D:\Music\Lossless\CENTR - Дискография (FLAC)\Slim - Отличай Людей 2011\19 Будь осторожен (rmx).wav
     Длина предзазора  0:00:01.00
     Пиковый уровень 100.0 %
     Качество трека 100.0 %
     CRC теста B599195A
     CRC копии B599195A
     Копирование... OK
Ошибок не произошло
Конец отчёта

Код:

REM GENRE Rap
REM DATE 2011
REM DISCID FD126C13
REM COMMENT "ExactAudioCopy v0.99pb5"
PERFORMER "Slim"
TITLE "Отличай Людей"
FILE "01 Начало.wav" WAVE
  TRACK 01 AUDIO
    TITLE "Начало"
    PERFORMER "Slim"
    INDEX 01 00:00:00
  TRACK 02 AUDIO
    TITLE "Поле Чудес (feat. Быба)"
    PERFORMER "Slim"
    INDEX 00 02:16:21
FILE "02 Поле Чудес (feat. Быба).wav" WAVE
    INDEX 01 00:00:00
  TRACK 03 AUDIO
    TITLE "Безопасный джойнт"
    PERFORMER "Slim"
    INDEX 00 03:42:16
FILE "03 Безопасный джойнт.wav" WAVE
    INDEX 01 00:00:00
  TRACK 04 AUDIO
    TITLE "На облаках (feat. Артём Татищевский)"
    PERFORMER "Slim"
    INDEX 00 04:17:41
FILE "04 На облаках (feat. Артём Татищевский).wav" WAVE
    INDEX 01 00:00:00
  TRACK 05 AUDIO
    TITLE "Шум"
    PERFORMER "Slim"
    INDEX 00 03:17:25
FILE "05 Шум.wav" WAVE
    INDEX 01 00:00:00
  TRACK 06 AUDIO
    TITLE "Застрахуй машину"
    PERFORMER "Slim"
    INDEX 00 03:43:48
FILE "06 Застрахуй машину.wav" WAVE
    INDEX 01 00:00:00
  TRACK 07 AUDIO
    TITLE "Тайное становится явным (feat. Стриж)"
    PERFORMER "Slim"
    INDEX 00 04:59:10
FILE "07 Тайное становится явным (feat. Стриж).wav" WAVE
    INDEX 01 00:00:00
  TRACK 08 AUDIO
    TITLE "Имени Ленина (feat. Скин, Mesr)"
    PERFORMER "Slim"
    INDEX 00 03:42:70
FILE "08 Имени Ленина (feat. Скин, Mesr).wav" WAVE
    INDEX 01 00:00:00
  TRACK 09 AUDIO
    TITLE "Птаха интересуется (скит)"
    PERFORMER "Slim"
    INDEX 00 04:33:48
FILE "09 Птаха интересуется (скит).wav" WAVE
    INDEX 01 00:00:00
  TRACK 10 AUDIO
    TITLE "Свадьба 2 (feat. Тати)"
    PERFORMER "Slim"
    INDEX 00 02:49:28
FILE "10 Свадьба 2 (feat. Тати).wav" WAVE
    INDEX 01 00:00:00
  TRACK 11 AUDIO
    TITLE "Высота (feat. Loc-Dog)"
    PERFORMER "Slim"
    INDEX 00 03:58:69
FILE "11 Высота (feat. Loc-Dog).wav" WAVE
    INDEX 01 00:00:00
  TRACK 12 AUDIO
    TITLE "New Era (конец Света)"
    PERFORMER "Slim"
    INDEX 00 03:39:50
FILE "12 New Era (конец Света).wav" WAVE
    INDEX 01 00:00:00
  TRACK 13 AUDIO
    TITLE "Те дни (версия 2010) (feat. Птаха)"
    PERFORMER "Slim"
    INDEX 00 03:56:31
FILE "13 Те дни (версия 2010) (feat. Птаха).wav" WAVE
    INDEX 01 00:00:00
  TRACK 14 AUDIO
    TITLE "Romance (feat. Rkp-Uno)"
    PERFORMER "Slim"
    INDEX 00 04:29:02
FILE "14 Romance (feat. Rkp-Uno).wav" WAVE
    INDEX 01 00:00:00
  TRACK 15 AUDIO
    TITLE "Шаги (feat. VBT Вектор Beat)"
    PERFORMER "Slim"
    INDEX 00 04:03:09
FILE "15 Шаги (feat. VBT Вектор Beat).wav" WAVE
    INDEX 01 00:00:00
  TRACK 16 AUDIO
    TITLE "Дымовые Замесы"
    PERFORMER "Slim"
    INDEX 00 05:13:58
FILE "16 Дымовые Замесы.wav" WAVE
    INDEX 01 00:00:00
  TRACK 17 AUDIO
    TITLE "Демоны (feat. Константа)"
    PERFORMER "Slim"
    INDEX 00 06:07:74
FILE "17 Демоны (feat. Константа).wav" WAVE
    INDEX 01 00:00:00
  TRACK 18 AUDIO
    TITLE "Пазл (feat. F.Y.P.M.)"
    PERFORMER "Slim"
    INDEX 00 05:21:10
FILE "18 Пазл (feat. F.Y.P.M.).wav" WAVE
    INDEX 01 00:00:00
  TRACK 19 AUDIO
    TITLE "Будь осторожен (rmx)"
    PERFORMER "Slim"
    INDEX 00 04:16:34
FILE "19 Будь осторожен (rmx).wav" WAVE
    INDEX 01 00:00:00
info [Профиль]  [ЛС] 

PlusOne

Пол: Пол:Муж

Стаж: 8 лет 4 месяца

Сообщений: 175

Ямайка
Рейтинг

post 18-Июл-2011 04:10 (спустя 17 дней) [-]1[+]

[Цитировать] 

Отличный альбом. Слим лучший из Центра.

_________________
Мои Раздачи | "Плавание – это не спорт. Плавание – это способ не утонуть." - G. Carlin
info [Профиль]  [ЛС] 

BIGIISTaN

Пол: Пол:Муж

Стаж: 7 лет 10 месяцев

Сообщений: 2

Россия
Рейтинг

post 26-Сен-2011 00:56 (спустя 2 месяца 7 дней) [-]0[+]

[Цитировать] 

Респект за раздачу, Slim красава
info [Профиль]  [ЛС] 
Показать сообщения:    
Ответить на тему

Текущее время: 20-Фев 13:31

Часовой пояс: GMT + 4



Вы не можете начинать темы
Вы не можете отвечать на сообщения
Вы не можете редактировать свои сообщения
Вы не можете удалять свои сообщения
Вы не можете голосовать в опросах
Вы не можете прикреплять файлы к сообщениям
Вы не можете скачивать файлы