Ошибка

[iPhone/iPod Touch] Начало / Inception (Кристофер Нолан) [2010 г., фантастика, боевик, триллер, драма, детектив, BDRip 480x200]

Ответить на тему
 
Автор Сообщение

Just777

Пол: Пол:Муж

Стаж: 6 лет 8 месяцев

Сообщений: 67

Россия
Рейтинг

post 28-Ноя-2010 21:30 0[+]

[Цитировать] 

Начало / Inception

pic="http://s001.youpic.su/pictures/1289844000/740088e82d750a19d190affbf3deb85d.jpg"
Год выпуска: 2010
Страна:
Жанр: фантастика, боевик, триллер, драма, детектив
Продолжительность: 02:28:06
Перевод: Профессиональный (двухголосый, закадровый) [Кубик в кубе]
Режиссер: Кристофер Нолан
В ролях:Леонардо ДиКаприо, Джозеф Гордон-Левитт, Эллен Пейдж, Том Харди, Кен Ватанабе, Дилип Рао, Киллиан Мёрфи, Том Беренджер, Марион Котийяр, Пит Постлетуэйт
Описание:
Кобб — талантливый вор, лучший из лучших в опасном искусстве извлечения: он крадет ценные секреты из глубин подсознания во время сна, когда человеческий разум наиболее уязвим. Редкие способности Кобба сделали его ценным игроком в привычном к предательству мире промышленного шпионажа, но они же превратили его в извечного беглеца и лишили всего, что он когда-либо любил.

И вот у Кобба появляется шанс исправить ошибки. Его последнее дело может вернуть все назад, но для этого ему нужно совершить невозможное — инициацию. Вместо идеальной кражи Кобб и его команда спецов должны будут провернуть обратное. Теперь их задача — не украсть идею, а внедрить ее. Если у них получится, это и станет идеальным преступлением.

Но никакое планирование или мастерство не могут подготовить команду к встрече с опасным противником, который, кажется, предугадывает каждый их ход. Врагом, увидеть которого мог бы лишь Кобб.
Качество: BDRip
Источник: Witcher
Формат: MPEG-4
Видео:Video: MPEG4 Video (H264) 480x200 23.98fps
Аудио:AAC 48000Hz stereo 1536kbps
General
Complete name : C:\Users\!\Videos\Inception.kubik_v_kubike(rus)1.mp4
Format : MPEG-4
Format profile : Base Media
Codec ID : isom
File size : 515 MiB
Duration : 2h 28mn
Overall bit rate : 486 Kbps
Encoded date : UTC 2010-11-27 16:14:18
Tagged date : UTC 2010-11-27 16:14:18

Video
ID : 1
Format : AVC
Format/Info : Advanced Video Codec
Format profile : Baseline@L3.0
Format settings, CABAC : No
Format settings, ReFrames : 6 frames
Codec ID : avc1
Codec ID/Info : Advanced Video Coding
Duration : 2h 28mn
Bit rate mode : Variable
Bit rate : 356 Kbps
Maximum bit rate : 3 346 Kbps
Width : 480 pixels
Height : 200 pixels
Display aspect ratio : 2.40:1
Frame rate mode : Constant
Frame rate : 23.976 fps
Resolution : 8 bits
Colorimetry : 4:2:0
Scan type : Progressive
Bits/(Pixel*Frame) : 0.155
Stream size : 377 MiB (73%)
Title : Imported with GPAC 0.4.6-DEV (build 1)
Writing library : x264 core 92 r1510 33d382a
Encoding settings : cabac=0 / ref=6 / deblock=1:0:0 / analyse=0x1:0x111 / me=umh / subme=7 / psy=1 / psy_rd=1.00:0.00 / mixed_ref=1 / me_range=16 / chroma_me=1 / trellis=0 / 8x8dct=0 / cqm=0 / deadzone=21,11 / fast_pskip=1 / chroma_qp_offset=-2 / threads=6 / sliced_threads=0 / nr=0 / decimate=1 / interlaced=0 / constrained_intra=0 / bframes=0 / wpredp=0 / keyint=250 / keyint_min=25 / scenecut=40 / intra_refresh=0 / rc_lookahead=60 / rc=crf / mbtree=1 / crf=21.0 / qcomp=0.60 / qpmin=10 / qpmax=51 / qpstep=4 / ip_ratio=1.40 / aq=1:1.00
Encoded date : UTC 2010-11-27 16:14:18
Tagged date : UTC 2010-11-27 16:15:17

Audio
ID : 2
Format : AAC
Format/Info : Advanced Audio Codec
Format version : Version 4
Format profile : LC
Format settings, SBR : No
Codec ID : 40
Duration : 2h 28mn
Bit rate mode : Variable
Bit rate : 128 Kbps
Maximum bit rate : 182 Kbps
Channel(s) : 2 channels
Channel positions : Front: L R
Sampling rate : 48.0 KHz
Stream size : 135 MiB (26%)
Encoded date : UTC 2010-11-27 16:15:12
Tagged date : UTC 2010-11-27 16:15:17
Сэмпл: тут
info [Профиль]  [ЛС] 

Delsin

Пол: Пол:Муж

Стаж: 7 лет 8 месяцев

Сообщений: 4786

Россия
Рейтинг

post 28-Ноя-2010 22:03 (спустя 33 минуты) [-]0[+]

[Цитировать] 

 !  ArShAvIn:
Сделайте скриншоты нормального разрешения
info [Профиль]  [ЛС] 

post 28-Ноя-2010 22:33 (спустя 30 минут) [-]0[+]

Топик был перенесен из форума Анонсы в форум Видео (iPhone/iPod Touch/iPad)

ArShAvIn
 

shnyapko

Пол: Пол:Муж

Стаж: 6 лет 8 месяцев

Сообщений: 64

СССР
Рейтинг

post 29-Ноя-2010 13:09 (спустя 15 часов) [-]0[+]

[Цитировать] 

чот перевод не доставляет
info [Профиль]  [ЛС] 

Just777

Пол: Пол:Муж

Стаж: 6 лет 8 месяцев

Сообщений: 67

Россия
Рейтинг

post 29-Ноя-2010 21:08 (спустя 7 часов) [-]0[+]

[Цитировать] 

2ого декабря появится дубляж, добавлю
info [Профиль]  [ЛС] 

TyT

Пол: Пол:Муж

Стаж: 5 лет 5 месяцев

Сообщений: 185

Россия
Рейтинг

post 04-Фев-2013 01:24 (спустя 2 года 2 месяца) [-]0[+]

[Цитировать] 

ну как, добавил ? ага, конеШно.

_________________
Еще чу-чуть и достигну абсолютного нуля по Цельсию. Типо -273.....
info [Профиль]  [ЛС] 
Показать сообщения:    
Ответить на тему

Текущее время: 04-Дек 20:24

Часовой пояс: GMT + 4



Вы не можете начинать темы
Вы не можете отвечать на сообщения
Вы не можете редактировать свои сообщения
Вы не можете удалять свои сообщения
Вы не можете голосовать в опросах
Вы не можете прикреплять файлы к сообщениям
Вы не можете скачивать файлы