Ошибка

(Hardcore / J-Rock / Experimental / Funk) Maximum the Hormone - Дискография - 2001-2008, FLAC (tracks+.cue), lossless

Ответить на тему
 
Автор Сообщение

taizer004

Пол: Пол:Муж

Стаж: 6 лет 7 месяцев

Сообщений: 5

Россия
Рейтинг

post 10-Ноя-2010 22:23 0[+]

[Цитировать] 

Maximum the Hormone - Дискография

pic="http://s001.youpic.su/pictures/1289325600/530644e8dda07b691f2f1bda643dcfbc.jpg"
Жанр: Hardcore / J-Rock / Experimental / Funk
Год издания диска: 2001-2008
Страна-производитель диска: Japan
Тип релиза: tracks+.cue
Аудио кодек: FLAC
Битрейт аудио: lossless
Продолжительность: 2:50:08

01. Force
02. Maximum the Hormone Theme -Men Cutter Kotteri-
03. Maximum the 21-Seiki
04. B.B.
05. Imin no Buta (Kari)
06. W.H.U
07. Machine-Gun Kuso Boogie

Код:

Exact Audio Copy V0.99 prebeta 4 from 23. January 2008

EAC extraction logfile from 2. May 2010, 15:59

MAXIMUM THE HORMONE / Hou

Used drive  : Optiarc DVD RW AD-7173A   Adapter: 1  ID: 0

Read mode               : Secure
Utilize accurate stream : Yes
Defeat audio cache      : Yes
Make use of C2 pointers : No

Read offset correction                      : 48
Overread into Lead-In and Lead-Out          : No
Fill up missing offset samples with silence : Yes
Delete leading and trailing silent blocks   : No
Null samples used in CRC calculations       : Yes
Used interface                              : Native Win32 interface for Win NT & 2000
Gap handling                                : Appended to previous track

Used output format : Internal WAV Routines
Sample format      : 44.100 Hz; 16 Bit; Stereo

TOC of the extracted CD

     Track |   Start  |  Length  | Start sector | End sector
    ---------------------------------------------------------
        1  |  0:00.00 |  4:30.22 |         0    |    20271   
        2  |  4:30.22 |  3:21.25 |     20272    |    35371   
        3  |  7:51.47 |  3:17.38 |     35372    |    50184   
        4  | 11:09.10 |  3:55.50 |     50185    |    67859   
        5  | 15:04.60 |  3:45.10 |     67860    |    84744   
        6  | 18:49.70 |  3:06.67 |     84745    |    98761   
        7  | 21:56.62 |  1:53.48 |     98762    |   107284   

Track  1

     Filename C:\Hou\01 - FORCE.wav

     Pre-gap length  0:00:02.00

     Peak level 99.9 %
     Track quality 100.0 %
     Test CRC 4FBABA92
     Copy CRC 4FBABA92
     Accurately ripped (confidence 1)  [009B504C]
     Copy OK

Track  2

     Filename C:\Hou\02 - Maximum the Hormone Theme -Men Cutter Kotteri-.wav

     Peak level 99.9 %
     Track quality 100.0 %
     Test CRC 4911EFA9
     Copy CRC 4911EFA9
     Accurately ripped (confidence 1)  [B323BDBA]
     Copy OK

Track  3

     Filename C:\Hou\03 - Maximum the 21-Seiki.wav

     Peak level 99.9 %
     Track quality 100.0 %
     Test CRC E30AE64F
     Copy CRC E30AE64F
     Accurately ripped (confidence 1)  [3FD42BD0]
     Copy OK

Track  4

     Filename C:\Hou\04 - B.B.wav

     Peak level 99.9 %
     Track quality 100.0 %
     Test CRC 689F867E
     Copy CRC 689F867E
     Accurately ripped (confidence 1)  [650D8065]
     Copy OK

Track  5

     Filename C:\Hou\05 - Imin no Buta (Kari).wav

     Peak level 99.9 %
     Track quality 100.0 %
     Test CRC 2D7E9AB5
     Copy CRC 2D7E9AB5
     Accurately ripped (confidence 1)  [5A4C20EC]
     Copy OK

Track  6

     Filename C:\Hou\06 - W.H.U.wav

     Peak level 99.9 %
     Track quality 100.0 %
     Test CRC C8903F77
     Copy CRC C8903F77
     Accurately ripped (confidence 1)  [A791BF41]
     Copy OK

Track  7

     Filename C:\Hou\07 - Machine-Gun Kuso Boogie.wav

     Pre-gap length  0:00:02.66

     Peak level 99.9 %
     Track quality 100.0 %
     Test CRC 3A712092
     Copy CRC 3A712092
     Accurately ripped (confidence 1)  [EFA12753]
     Copy OK

All tracks accurately ripped

No errors occurred

End of status report

Код:

REM ACCURATERIPID 00071661-0029e1d1-4b059607
REM DISCID 4B059607
REM COMMENT "ExactAudioCopy v0.99pb4"
REM DATE 2001
REM GENRE "J-rock"
PERFORMER "MAXIMUM THE HORMONE"
TITLE "Hou"
FILE "01 - FORCE.flac" WAVE
  TRACK 01 AUDIO
    TITLE "FORCE"
    PERFORMER "MAXIMUM THE HORMONE"
    INDEX 01 00:00:00
FILE "02 - Maximum the Hormone Theme -Men Cutter Kotteri-.flac" WAVE
  TRACK 02 AUDIO
    TITLE "Maximum the Hormone Theme -Men Cutter Kotteri-"
    PERFORMER "MAXIMUM THE HORMONE"
    INDEX 01 00:00:00
FILE "03 - Maximum the 21-Seiki.flac" WAVE
  TRACK 03 AUDIO
    TITLE "Maximum the 21-Seiki"
    PERFORMER "MAXIMUM THE HORMONE"
    INDEX 01 00:00:00
FILE "04 - B.B.flac" WAVE
  TRACK 04 AUDIO
    TITLE "B.B"
    PERFORMER "MAXIMUM THE HORMONE"
    INDEX 01 00:00:00
FILE "05 - Imin no Buta (Kari).flac" WAVE
  TRACK 05 AUDIO
    TITLE "Imin no Buta (Kari)"
    PERFORMER "MAXIMUM THE HORMONE"
    INDEX 01 00:00:00
FILE "06 - W.H.U.flac" WAVE
  TRACK 06 AUDIO
    TITLE "W.H.U"
    PERFORMER "MAXIMUM THE HORMONE"
    INDEX 01 00:00:00
  TRACK 07 AUDIO
    TITLE "Machine-Gun Kuso Boogie"
    PERFORMER "MAXIMUM THE HORMONE"
    INDEX 00 03:04:17
FILE "07 - Machine-Gun Kuso Boogie.flac" WAVE
    INDEX 01 00:00:00
01 - Nigire!!
02 - Johnny Tetsu Pipe
03 - Abara Bob
04 - Johnny Mamamiya California ~Johnny Tetsu Pipe II~
05 - Sanhin ~Sanpin~
06 - Usugimi Billy
07 - Nobody's
08 - Ningen Enpi
09 - Patokaa Moya Su
10 - Porisumanfakku

Код:

Exact Audio Copy V0.99 prebeta 4 from 23. January 2008

EAC extraction logfile from 28. June 2008, 14:06

Maximum the Hormone / Mimi Kajiru

Used drive : TSSTcorpCDDVDW SH-S203N Adapter: 4 ID: 0

Read mode : Secure
Utilize accurate stream : Yes
Defeat audio cache : No
Make use of C2 pointers : No

Read offset correction : 6
Overread into Lead-In and Lead-Out : No
Fill up missing offset samples with silence : Yes
Delete leading and trailing silent blocks : No
Null samples used in CRC calculations : Yes
Used interface : Native Win32 interface for Win NT & 2000
Gap handling : Appended to previous track

Used output format : User Defined Encoder
Selected bitrate : 128 kBit/s
Quality : High
Add ID3 tag : No
Command line compressor : C:\Program Files\Exact Audio Copy\Flac\flac.exe
Additional command line options : -V -8 -T "artist=%a" -T "title=%t" -T "album=%g" -T "date=%y" -T "tracknumber=%n" -T "genre=%m" %s

TOC of the extracted CD

Track | Start | Length | Start sector | End sector
---------------------------------------------------------
1 | 0:00.00 | 3:41.27 | 0 | 16601
2 | 3:41.27 | 1:51.65 | 16602 | 24991
3 | 5:33.17 | 2:28.20 | 24992 | 36111
4 | 8:01.37 | 1:03.40 | 36112 | 40876
5 | 9:05.02 | 1:36.45 | 40877 | 48121
6 | 10:41.47 | 3:26.45 | 48122 | 63616
7 | 14:08.17 | 1:08.60 | 63617 | 68776
8 | 15:17.02 | 4:00.08 | 68777 | 86784
9 | 19:17.10 | 0:40.72 | 86785 | 89856
10 | 19:58.07 | 1:14.38 | 89857 | 95444

Track 1

Filename C:\EACrips\01 - Nigire!!.wav

Pre-gap length 0:00:02.00

Peak level 98.8 %
Track quality 99.8 %
Test CRC 5D994017
Copy CRC 5D994017
Accurately ripped (confidence 1) [A86401DE]
Copy OK

Track 2

Filename C:\EACrips\02 - Johnny Tetsu Pipe.wav

Peak level 98.8 %
Track quality 100.0 %
Test CRC 5BDE6C37
Copy CRC 5BDE6C37
Accurately ripped (confidence 1) [268168E6]
Copy OK

Track 3

Filename C:\EACrips\03 - Abara Bob.wav

Peak level 96.5 %
Track quality 100.0 %
Test CRC A9569440
Copy CRC A9569440
Accurately ripped (confidence 1) [95EF00A0]
Copy OK

Track 4

Filename C:\EACrips\04 - Johnny Mamamiya California -Johnny Tetsu Pipe II-.wav

Peak level 98.8 %
Track quality 100.0 %
Test CRC 732B6EA6
Copy CRC 732B6EA6
Accurately ripped (confidence 1) [447529B1]
Copy OK

Track 5

Filename C:\EACrips\05 - Mishina -Sanpin-.wav

Peak level 98.8 %
Track quality 100.0 %
Test CRC 5FB9626F
Copy CRC 5FB9626F
Accurately ripped (confidence 1) [52B3B881]
Copy OK

Track 6

Filename C:\EACrips\06 - Usugimi Billy.wav

Peak level 98.8 %
Track quality 99.5 %
Test CRC F85598BE
Copy CRC F85598BE
Accurately ripped (confidence 1) [EA878244]
Copy OK

Track 7

Filename C:\EACrips\07 - Nobodys (Cover).wav

Peak level 96.5 %
Track quality 99.8 %
Test CRC CB701CD3
Copy CRC CB701CD3
Accurately ripped (confidence 1) [A1E170A8]
Copy OK

Track 8

Filename C:\EACrips\08 - Ningen Enpi.wav

Pre-gap length 0:00:01.46

Peak level 96.5 %
Track quality 100.0 %
Test CRC 12FB1E89
Copy CRC 12FB1E89
Accurately ripped (confidence 1) [8EB1DC1B]
Copy OK

Track 9

Filename C:\EACrips\09 - Patokaa Moyasu.wav

Pre-gap length 0:00:05.57

Peak level 96.5 %
Track quality 100.0 %
Test CRC F904FA04
Copy CRC F904FA04
Accurately ripped (confidence 1) [2E4A80ED]
Copy OK

Track 10

Filename C:\EACrips\10 - Policeman Fuck.wav

Peak level 98.8 %
Track quality 99.7 %
Test CRC 9CD68BF6
Copy CRC 9CD68BF6
Accurately ripped (confidence 1) [85B321A0]
Copy OK

All tracks accurately ripped

No errors occurred

End of status report

Код:

REM GENRE Rock
REM DATE 2002
REM DISCID 7304F80A
REM COMMENT "ExactAudioCopy v0.99pb4"
PERFORMER "Maximum the Hormone"
TITLE "Mimi Kajiru"
FILE "01 - Nigire!!.wav" WAVE
  TRACK 01 AUDIO
    TITLE "Nigire!!"
    PERFORMER "Maximum the Hormone"
    INDEX 01 00:00:00
FILE "02 - Johnny Tetsu Pipe.wav" WAVE
  TRACK 02 AUDIO
    TITLE "Johnny Tetsu Pipe"
    PERFORMER "Maximum the Hormone"
    INDEX 01 00:00:00
FILE "03 - Abara Bob.wav" WAVE
  TRACK 03 AUDIO
    TITLE "Abara Bob"
    PERFORMER "Maximum the Hormone"
    INDEX 01 00:00:00
FILE "04 - Johnny Mamamiya California -Johnny Tetsu Pipe II-.wav" WAVE
  TRACK 04 AUDIO
    TITLE "Johnny Mamamiya California -Johnny Tetsu Pipe II-"
    PERFORMER "Maximum the Hormone"
    INDEX 01 00:00:00
FILE "05 - Mishina -Sanpin-.wav" WAVE
  TRACK 05 AUDIO
    TITLE "Mishina -Sanpin-"
    PERFORMER "Maximum the Hormone"
    INDEX 01 00:00:00
FILE "06 - Usugimi Billy.wav" WAVE
  TRACK 06 AUDIO
    TITLE "Usugimi Billy"
    PERFORMER "Maximum the Hormone"
    INDEX 01 00:00:00
FILE "07 - Nobodys (Cover).wav" WAVE
  TRACK 07 AUDIO
    TITLE "Nobodys (Cover)"
    PERFORMER "Maximum the Hormone"
    INDEX 01 00:00:00
  TRACK 08 AUDIO
    TITLE "Ningen Enpi"
    PERFORMER "Maximum the Hormone"
    INDEX 00 01:07:25
FILE "08 - Ningen Enpi.wav" WAVE
    INDEX 01 00:00:00
  TRACK 09 AUDIO
    TITLE "Patokaa Moyasu"
    PERFORMER "Maximum the Hormone"
    INDEX 00 03:54:40
FILE "09 - Patokaa Moyasu.wav" WAVE
    INDEX 01 00:00:00
FILE "10 - Policeman Fuck.wav" WAVE
  TRACK 10 AUDIO
    TITLE "Policeman Fuck"
    PERFORMER "Maximum the Hormone"
    INDEX 01 00:00:00
01- Koi no Sweet Kuso Meriken
02- Seiri Tsuu ha Kannaduki wo Koora Su Kion.
03 - Healthy Bob
04 - Cefiro Radio Come Back
05 - Mr. Boogie Tambourine Man
06 - Heisei Strawberry Vibe
07 - Bouriki
08 - Tatarikun

Код:

Exact Audio Copy V0.99 prebeta 4 from 23. January 2008

EAC extraction logfile from 26. September 2008, 10:07

Maximum the Hormone / Kusoban

Used drive  : TSSTcorpCDDVDW SH-S203N   Adapter: 4  ID: 0

Read mode               : Secure
Utilize accurate stream : Yes
Defeat audio cache      : No
Make use of C2 pointers : No

Read offset correction                      : 6
Overread into Lead-In and Lead-Out          : No
Fill up missing offset samples with silence : Yes
Delete leading and trailing silent blocks   : No
Null samples used in CRC calculations       : Yes
Used interface                              : Native Win32 interface for Win NT & 2000
Gap handling                                : Appended to previous track

Used output format              : User Defined Encoder
Selected bitrate                : 128 kBit/s
Quality                         : High
Add ID3 tag                     : No
Command line compressor         : C:\Program Files\Exact Audio Copy\Flac\flac.exe
Additional command line options : -V -8 -T "artist=%a" -T "title=%t" -T "album=%g" -T "date=%y" -T "tracknumber=%n" -T "genre=%m" %s

TOC of the extracted CD

     Track |   Start  |  Length  | Start sector | End sector
    ---------------------------------------------------------
        1  |  0:00.00 |  3:43.07 |         0    |    16731   
        2  |  3:43.07 |  2:51.10 |     16732    |    29566   
        3  |  6:34.17 |  2:17.10 |     29567    |    39851   
        4  |  8:51.27 |  2:34.08 |     39852    |    51409   
        5  | 11:25.35 |  3:02.37 |     51410    |    65096   
        6  | 14:27.72 |  3:12.28 |     65097    |    79524   
        7  | 17:40.25 |  1:37.65 |     79525    |    86864   
        8  | 19:18.15 |  0:48.60 |     86865    |    90524   
        9  | 22:39.00 |  6:22.28 |    101925    |   130602   

Track  1

     Filename C:\EACrips\01 - Koi No Sweet Kuso Meriken.wav

     Pre-gap length  0:00:02.00

     Peak level 99.7 %
     Track quality 100.0 %
     Test CRC 66488B4D
     Copy CRC 66488B4D
     Track not present in AccurateRip database
     Copy OK

Track  2

     Filename C:\EACrips\02 - Seiri Tsuu Ha Kannaduki Wo Koorasu Kion.wav

     Peak level 99.6 %
     Track quality 100.0 %
     Test CRC F90443B5
     Copy CRC F90443B5
     Track not present in AccurateRip database
     Copy OK

Track  3

     Filename C:\EACrips\03 - Healthy Bob.wav

     Peak level 99.7 %
     Track quality 99.9 %
     Test CRC 0CAE5C2E
     Copy CRC 0CAE5C2E
     Track not present in AccurateRip database
     Copy OK

Track  4

     Filename C:\EACrips\04 - Cefiro Radio Come Back ~Seishun Saikai~.wav

     Peak level 99.8 %
     Track quality 100.0 %
     Test CRC 14D18E96
     Copy CRC 14D18E96
     Track not present in AccurateRip database
     Copy OK

Track  5

     Filename C:\EACrips\05 - Mr. Boogie Tambourine Man.wav

     Pre-gap length  0:00:01.13

     Peak level 99.7 %
     Track quality 100.0 %
     Test CRC B3D1493F
     Copy CRC B3D1493F
     Track not present in AccurateRip database
     Copy OK

Track  6

     Filename C:\EACrips\06 - Heisei Strawberry Vibe.wav

     Peak level 99.7 %
     Track quality 100.0 %
     Test CRC A5967FEA
     Copy CRC A5967FEA
     Track not present in AccurateRip database
     Copy OK

Track  7

     Filename C:\EACrips\07 - Bouriki.wav

     Peak level 99.7 %
     Track quality 100.0 %
     Test CRC BE394EB5
     Copy CRC BE394EB5
     Track not present in AccurateRip database
     Copy OK

Track  8

     Filename C:\EACrips\08 - Tatari Kimi ~Tatarikun~.wav

     Peak level 99.8 %
     Track quality 100.0 %
     Test CRC 49FF4194
     Copy CRC 49FF4194
     Track not present in AccurateRip database
     Copy OK

None of the tracks are present in the AccurateRip database

No errors occurred

End of status report

Код:

REM GENRE Rock
REM DATE 2004
REM DISCID 7006CD09
REM COMMENT "ExactAudioCopy v0.99pb4"
PERFORMER "Maximum the Hormone"
TITLE "Kusoban"
FILE "01 - Koi No Sweet Kuso Meriken.wav" WAVE
  TRACK 01 AUDIO
    TITLE "Koi No Sweet Kuso Meriken"
    PERFORMER "Maximum the Hormone"
    INDEX 01 00:00:00
FILE "02 - Seiri Tsuu Ha Kannaduki Wo Koorasu Kion.wav" WAVE
  TRACK 02 AUDIO
    TITLE "Seiri Tsuu Ha Kannaduki Wo Koorasu Kion"
    PERFORMER "Maximum the Hormone"
    INDEX 01 00:00:00
FILE "03 - Healthy Bob.wav" WAVE
  TRACK 03 AUDIO
    TITLE "Healthy Bob"
    PERFORMER "Maximum the Hormone"
    INDEX 01 00:00:00
FILE "04 - Cefiro Radio Come Back ~Seishun Saikai~.wav" WAVE
  TRACK 04 AUDIO
    TITLE "Cefiro Radio Come Back ~Seishun Saikai~"
    PERFORMER "Maximum the Hormone"
    INDEX 01 00:00:00
  TRACK 05 AUDIO
    TITLE "Mr. Boogie Tambourine Man"
    PERFORMER "Maximum the Hormone"
    INDEX 00 02:32:73
FILE "05 - Mr. Boogie Tambourine Man.wav" WAVE
    INDEX 01 00:00:00
FILE "06 - Heisei Strawberry Vibe.wav" WAVE
  TRACK 06 AUDIO
    TITLE "Heisei Strawberry Vibe"
    PERFORMER "Maximum the Hormone"
    INDEX 01 00:00:00
FILE "07 - Bouriki.wav" WAVE
  TRACK 07 AUDIO
    TITLE "Bouriki"
    PERFORMER "Maximum the Hormone"
    INDEX 01 00:00:00
FILE "08 - Tatari Kimi ~Tatarikun~.wav" WAVE
  TRACK 08 AUDIO
    TITLE "Tatari Kimi ~Tatarikun~"
    PERFORMER "Maximum the Hormone"
    INDEX 01 00:00:00
  TRACK 09 MODEx/2xxx
    TITLE ""
    PERFORMER "Maximum the Hormone"
    INDEX 00 00:48:60
1. "What's up, people?!" 4:13
2. "Akagi" 2:16
3. "Black Powder G Men Spy" 2:27
4. "Minagoroshi no Melody" 1:47
5. "Secret track" 0:54

Код:

Exact Audio Copy V0.99 prebeta 4 from 23. January 2008

EAC extraction logfile from 23. July 2008, 2:16

Maximum the Hormone / Zawa...Zawa...Za..Zawa......Zawa

Used drive  : TSSTcorpCDDVDW SH-S203N   Adapter: 4  ID: 0

Read mode               : Secure
Utilize accurate stream : Yes
Defeat audio cache      : No
Make use of C2 pointers : No

Read offset correction                      : 6
Overread into Lead-In and Lead-Out          : No
Fill up missing offset samples with silence : Yes
Delete leading and trailing silent blocks   : No
Null samples used in CRC calculations       : Yes
Used interface                              : Native Win32 interface for Win NT & 2000
Gap handling                                : Appended to previous track

Used output format              : User Defined Encoder
Selected bitrate                : 128 kBit/s
Quality                         : High
Add ID3 tag                     : No
Command line compressor         : C:\Program Files\Exact Audio Copy\Flac\flac.exe
Additional command line options : -V -8 -T "artist=%a" -T "title=%t" -T "album=%g" -T "date=%y" -T "tracknumber=%n" -T "genre=%m" %s

TOC of the extracted CD

     Track |   Start  |  Length  | Start sector | End sector
    ---------------------------------------------------------
        1  |  0:00.00 |  4:13.10 |         0    |    18984   
        2  |  4:13.10 |  2:16.47 |     18985    |    29231   
        3  |  6:29.57 |  2:27.20 |     29232    |    40276   
        4  |  8:57.02 |  1:47.23 |     40277    |    48324   
        5  | 10:44.25 |  0:54.27 |     48325    |    52401   

Track  1

     Filename C:\EACrips\01 - What's Up, People !.wav

     Pre-gap length  0:00:02.00

     Peak level 98.2 %
     Track quality 100.0 %
     Test CRC 1A3FA287
     Copy CRC 1A3FA287
     Track not present in AccurateRip database
     Copy OK

Track  2

     Filename C:\EACrips\02 - Akagi.wav

     Pre-gap length  0:00:01.97

     Peak level 98.2 %
     Track quality 100.0 %
     Test CRC 57B00BA4
     Copy CRC 57B00BA4
     Track not present in AccurateRip database
     Copy OK

Track  3

     Filename C:\EACrips\03 - Black Ґ Power G Menspy.wav

     Peak level 98.2 %
     Track quality 100.0 %
     Test CRC 3D983863
     Copy CRC 3D983863
     Track not present in AccurateRip database
     Copy OK

Track  4

     Filename C:\EACrips\04 - Minagoroshi no Melody.wav

     Peak level 98.2 %
     Track quality 100.0 %
     Test CRC 2F58EEEF
     Copy CRC 2F58EEEF
     Track not present in AccurateRip database
     Copy OK

Track  5

     Filename C:\EACrips\05 - Secret track.wav

     Pre-gap length  0:00:00.97

     Peak level 98.1 %
     Track quality 100.0 %
     Test CRC 528ED9C1
     Copy CRC 528ED9C1
     Track not present in AccurateRip database
     Copy OK

None of the tracks are present in the AccurateRip database

No errors occurred

End of status report

Код:

REM GENRE Rock
REM DATE 2005
REM DISCID 3C02BA05
REM COMMENT "ExactAudioCopy v0.99pb4"
PERFORMER "Maximum the Hormone"
TITLE "Zawa...Zawa...Za..Zawa......Zawa"
FILE "01 - What's Up, People !.wav" WAVE
  TRACK 01 AUDIO
    TITLE "What's Up, People?!"
    PERFORMER "Maximum the Hormone"
    INDEX 01 00:00:00
  TRACK 02 AUDIO
    TITLE "Akagi"
    PERFORMER "Maximum the Hormone"
    INDEX 00 04:11:12
FILE "02 - Akagi.wav" WAVE
    INDEX 01 00:00:00
FILE "03 - Black Ґ Power G Menspy.wav" WAVE
  TRACK 03 AUDIO
    TITLE "Black Ґ Power G Menspy"
    PERFORMER "Maximum the Hormone"
    INDEX 01 00:00:00
FILE "04 - Minagoroshi no Melody.wav" WAVE
  TRACK 04 AUDIO
    TITLE "Minagoroshi no Melody"
    PERFORMER "Maximum the Hormone"
    INDEX 01 00:00:00
  TRACK 05 AUDIO
    TITLE "Secret track"
    PERFORMER "Maximum the Hormone"
    INDEX 00 01:46:25
FILE "05 - Secret track.wav" WAVE
    INDEX 01 00:00:00
1. "Rokkinpo Goroshi" 4:02
2. "Houchou Hasami Cutter Knife Dosu Kiri" 2:25
3. "Nitro BB Sensou" 2:04
4. "Falling Jimmy" 2:09
5. "Kawakita Saruin" 1:52
6. "Anal Whiskey Ponce (Re-rec.)" 2:14
7. "Rock Bankuruwase" 2:18
8. "Haiyani Spain" 3:27
9. "Uehara~Futoshi~" 2:36
10. "Rei Rei Rei Rei Rei Rei Rei Rei Ma Ma Ma Ma Ma Ma Ma Ma" 3:01
11. "Rolling1000toon" 2:46
12. "Rock'N'Roll Chainsaw" 3:28
13. "Koi no Kinako Watashi ni Kudasai"

Код:

Exact Audio Copy V0.99 prebeta 4 from 23. January 2008

EAC extraction logfile from 24. June 2008, 2:58

Maximum the Hormone / Rokkinpo Goroshi

Used drive  : TSSTcorpCDDVDW SH-S203N   Adapter: 4  ID: 0

Read mode               : Secure
Utilize accurate stream : Yes
Defeat audio cache      : No
Make use of C2 pointers : No

Read offset correction                      : 6
Overread into Lead-In and Lead-Out          : No
Fill up missing offset samples with silence : Yes
Delete leading and trailing silent blocks   : No
Null samples used in CRC calculations       : Yes
Used interface                              : Native Win32 interface for Win NT & 2000
Gap handling                                : Appended to previous track

Used output format              : User Defined Encoder
Selected bitrate                : 128 kBit/s
Quality                         : High
Add ID3 tag                     : No
Command line compressor         : C:\Program Files\Exact Audio Copy\Flac\flac.exe
Additional command line options : -V -8 -T "artist=%a" -T "title=%t" -T "album=%g" -T "date=%y" -T "tracknumber=%n" -T "genre=%m" %s

TOC of the extracted CD

     Track |   Start  |  Length  | Start sector | End sector
    ---------------------------------------------------------
        1  |  0:00.00 |  4:02.31 |         0    |    18180   
        2  |  4:02.31 |  2:25.26 |     18181    |    29081   
        3  |  6:27.57 |  2:04.12 |     29082    |    38393   
        4  |  8:31.69 |  2:08.72 |     38394    |    48065   
        5  | 10:40.66 |  1:52.00 |     48066    |    56465   
        6  | 12:32.66 |  2:14.61 |     56466    |    66576   
        7  | 14:47.52 |  2:18.49 |     66577    |    76975   
        8  | 17:06.26 |  3:27.60 |     76976    |    92560   
        9  | 20:34.11 |  2:36.28 |     92561    |   104288   
       10  | 23:10.39 |  3:01.43 |    104289    |   117906   
       11  | 26:12.07 |  2:48.48 |    117907    |   130554   
       12  | 29:00.55 |  3:28.27 |    130555    |   146181   
       13  | 32:29.07 |  1:07.00 |    146182    |   151206   

Track  1

     Filename C:\EACrips\Rokkinpo Goroshi.wav

     Pre-gap length  0:00:02.00

     Peak level 99.3 %
     Track quality 99.9 %
     Test CRC E416FEB2
     Copy CRC E416FEB2
     Accurately ripped (confidence 1)  [67ACC08E]
     Copy OK

Track  2

     Filename C:\EACrips\Houchou Hasami Cutter Knife Dosu Kiri.wav

     Peak level 99.2 %
     Track quality 100.0 %
     Test CRC 7BA5567D
     Copy CRC 7BA5567D
     Accurately ripped (confidence 1)  [48CFF7F3]
     Copy OK

Track  3

     Filename C:\EACrips\Nitro BB Sensou.wav

     Pre-gap length  0:00:01.10

     Peak level 99.3 %
     Track quality 100.0 %
     Test CRC CDD612B8
     Copy CRC CDD612B8
     Accurately ripped (confidence 1)  [85AA670F]
     Copy OK

Track  4

     Filename C:\EACrips\Falling Jimmy.wav

     Pre-gap length  0:00:01.60

     Peak level 99.2 %
     Track quality 100.0 %
     Test CRC DA122F09
     Copy CRC DA122F09
     Accurately ripped (confidence 1)  [07818AC4]
     Copy OK

Track  5

     Filename C:\EACrips\Kawakita Saruin.wav

     Pre-gap length  0:00:01.60

     Peak level 99.1 %
     Track quality 100.0 %
     Test CRC 8BB2A6A1
     Copy CRC 8BB2A6A1
     Accurately ripped (confidence 1)  [9B7A824D]
     Copy OK

Track  6

     Filename C:\EACrips\Anal Whiskey Ponce (Re-rec.).wav

     Pre-gap length  0:00:01.60

     Peak level 99.1 %
     Track quality 99.9 %
     Test CRC 1BC60D07
     Copy CRC 1BC60D07
     Accurately ripped (confidence 1)  [CD46B1E7]
     Copy OK

Track  7

     Filename C:\EACrips\Rock Bankuruwase.wav

     Peak level 99.2 %
     Track quality 100.0 %
     Test CRC 2D4FF932
     Copy CRC 2D4FF932
     Accurately ripped (confidence 1)  [9FDB57CE]
     Copy OK

Track  8

     Filename C:\EACrips\Haiyani Spain.wav

     Pre-gap length  0:00:01.60

     Peak level 99.3 %
     Track quality 100.0 %
     Test CRC C2614D03
     Copy CRC C2614D03
     Accurately ripped (confidence 1)  [B3DB4CFB]
     Copy OK

Track  9

     Filename C:\EACrips\Uehara~Futoshi~.wav

     Peak level 100.0 %
     Track quality 99.9 %
     Test CRC 9547F982
     Copy CRC 9547F982
     Accurately ripped (confidence 1)  [18623BB7]
     Copy OK

Track 10

     Filename C:\EACrips\Rei Rei Rei Rei Rei Rei Rei Rei Ma Ma Ma Ma Ma Ma Ma Ma.wav

     Pre-gap length  0:00:01.09

     Peak level 99.1 %
     Track quality 100.0 %
     Test CRC 56C57FE7
     Copy CRC 56C57FE7
     Accurately ripped (confidence 1)  [BFD0B137]
     Copy OK

Track 11

     Filename C:\EACrips\Rolling1000toon.wav

     Pre-gap length  0:00:01.10

     Peak level 99.2 %
     Track quality 100.0 %
     Test CRC 8A05F3C9
     Copy CRC 8A05F3C9
     Accurately ripped (confidence 1)  [6AE637A2]
     Copy OK

Track 12

     Filename C:\EACrips\Rock'N'Roll Chainsaw.wav

     Peak level 99.2 %
     Track quality 100.0 %
     Test CRC B6839E59
     Copy CRC B6839E59
     Accurately ripped (confidence 1)  [138403A0]
     Copy OK

Track 13

     Filename C:\EACrips\Koi no Kinako Watashi ni Kudasai.wav

     Pre-gap length  0:00:04.60

     Peak level 100.0 %
     Track quality 100.0 %
     Test CRC 68984225
     Copy CRC 68984225
     Accurately ripped (confidence 1)  [313D65C3]
     Copy OK

All tracks accurately ripped

No errors occurred

End of status report

Код:

REM GENRE Rock
REM DATE 2005
REM DISCID B307E00D
REM COMMENT "ExactAudioCopy v0.99pb4"
PERFORMER "Maximum the Hormone"
TITLE "Rokkinpo Goroshi"
FILE "Rokkinpo Goroshi.wav" WAVE
  TRACK 01 AUDIO
    TITLE "Rokkinpo Goroshi"
    PERFORMER "Maximum the Hormone"
    INDEX 01 00:00:00
FILE "Houchou Hasami Cutter Knife Dosu Kiri.wav" WAVE
  TRACK 02 AUDIO
    TITLE "Houchou Hasami Cutter Knife Dosu Kiri"
    PERFORMER "Maximum the Hormone"
    INDEX 01 00:00:00
  TRACK 03 AUDIO
    TITLE "Nitro BB Sensou"
    PERFORMER "Maximum the Hormone"
    INDEX 00 02:24:18
FILE "Nitro BB Sensou.wav" WAVE
    INDEX 01 00:00:00
  TRACK 04 AUDIO
    TITLE "Falling Jimmy"
    PERFORMER "Maximum the Hormone"
    INDEX 00 02:02:42
FILE "Falling Jimmy.wav" WAVE
    INDEX 01 00:00:00
  TRACK 05 AUDIO
    TITLE "Kawakita Saruin"
    PERFORMER "Maximum the Hormone"
    INDEX 00 02:07:27
FILE "Kawakita Saruin.wav" WAVE
    INDEX 01 00:00:00
  TRACK 06 AUDIO
    TITLE "Anal Whiskey Ponce (Re-rec.)"
    PERFORMER "Maximum the Hormone"
    INDEX 00 01:50:30
FILE "Anal Whiskey Ponce (Re-rec.).wav" WAVE
    INDEX 01 00:00:00
FILE "Rock Bankuruwase.wav" WAVE
  TRACK 07 AUDIO
    TITLE "Rock Bankuruwase"
    PERFORMER "Maximum the Hormone"
    INDEX 01 00:00:00
  TRACK 08 AUDIO
    TITLE "Haiyani Spain"
    PERFORMER "Maximum the Hormone"
    INDEX 00 02:17:04
FILE "Haiyani Spain.wav" WAVE
    INDEX 01 00:00:00
FILE "Uehara~Futoshi~.wav" WAVE
  TRACK 09 AUDIO
    TITLE "Uehara~Futoshi~"
    PERFORMER "Maximum the Hormone"
    INDEX 01 00:00:00
  TRACK 10 AUDIO
    TITLE "Rei Rei Rei Rei Rei Rei Rei Rei Ma Ma Ma Ma Ma Ma Ma Ma"
    PERFORMER "Maximum the Hormone"
    INDEX 00 02:35:21
FILE "Rei Rei Rei Rei Rei Rei Rei Rei Ma Ma Ma Ma Ma Ma Ma Ma.wav" WAVE
    INDEX 01 00:00:00
  TRACK 11 AUDIO
    TITLE "Rolling1000toon"
    PERFORMER "Maximum the Hormone"
    INDEX 00 03:00:35
FILE "Rolling1000toon.wav" WAVE
    INDEX 01 00:00:00
FILE "Rock'N'Roll Chainsaw.wav" WAVE
  TRACK 12 AUDIO
    TITLE "Rock'N'Roll Chainsaw"
    PERFORMER "Maximum the Hormone"
    INDEX 01 00:00:00
  TRACK 13 AUDIO
    TITLE "Koi no Kinako Watashi ni Kudasai"
    PERFORMER "Maximum the Hormone"
    INDEX 00 03:23:57
FILE "Koi no Kinako Watashi ni Kudasai.wav" WAVE
    INDEX 01 00:00:00

01 - Buikikaesu!!
02 - Zetsubo Billy
03 - Kuso Breakin No Breakin Lilly
04 - Louisiana Bob
05 - Policeman Benz
06 - Black Power G Men Spy
07 - Akagi
08 - Kyokatsu
09 - Bikini. Sports. Ponchin
10 - What's up, people!!
11 - Chu Chu Lovely Muni Muni Mura Mura Purin Purin Boron Nururu Rero Rero
12 - Shimi
13 - Koi No Mega Lover
14 - Bonus Track

Код:

Exact Audio Copy V0.99 prebeta 4 from 23. January 2008

EAC extraction logfile from 17. July 2009, 2:08

Maximum the Hormone / Buiikikaeasu

Used drive  : Optiarc DVD RW AD-5540A   Adapter: 0  ID: 0

Read mode               : Secure
Utilize accurate stream : Yes
Defeat audio cache      : Yes
Make use of C2 pointers : No

Read offset correction                      : 48
Overread into Lead-In and Lead-Out          : No
Fill up missing offset samples with silence : Yes
Delete leading and trailing silent blocks   : No
Null samples used in CRC calculations       : Yes
Used interface                              : Native Win32 interface for Win NT & 2000
Gap handling                                : Appended to previous track

Used output format              : User Defined Encoder
Selected bitrate                : 192 kBit/s
Quality                         : High
Add ID3 tag                     : No
Command line compressor         : C:\Program Files\Exact Audio Copy\flac.exe
Additional command line options : -8 -A tukey(0.25) -A gauss(0.1875) -b 4096 -V -T "artist=%a" -T "title=%t" -T "album=%g" -T "date=%y" -T "tracknumber=%n" -T "genre=%m" %s --sector-align

TOC of the extracted CD

     Track |   Start  |  Length  | Start sector | End sector
    ---------------------------------------------------------
        1  |  0:00.00 |  3:54.63 |         0    |    17612   
        2  |  3:54.63 |  3:44.09 |     17613    |    34421   
        3  |  7:38.72 |  4:15.73 |     34422    |    53619   
        4  | 11:54.70 |  3:40.45 |     53620    |    70164   
        5  | 15:35.40 |  4:09.40 |     70165    |    88879   
        6  | 19:45.05 |  2:27.39 |     88880    |    99943   
        7  | 22:12.44 |  2:16.38 |     99944    |   110181   
        8  | 24:29.07 |  3:36.40 |    110182    |   126421   
        9  | 28:05.47 |  3:56.69 |    126422    |   144190   
       10  | 32:02.41 |  4:10.17 |    144191    |   162957   
       11  | 36:12.58 |  3:06.22 |    162958    |   176929   
       12  | 39:19.05 |  4:17.32 |    176930    |   196236   
       13  | 43:36.37 |  5:27.69 |    196237    |   220830   
       14  | 49:04.31 |  0:23.15 |    220831    |   222570   

Track  1

     Filename C:\What.cd Uploads\flac\Maximum the Hormone - Buiikikaesu\01 - Buiikikaesu!!.wav

     Pre-gap length  0:00:02.00

     Peak level 99.9 %
     Track quality 100.0 %
     Test CRC AE5D0ED7
     Copy CRC AE5D0ED7
     Accurately ripped (confidence 8)  [D0B461BA]
     Copy OK

Track  2

     Filename C:\What.cd Uploads\flac\Maximum the Hormone - Buiikikaesu\02 - Zetsubou biri-.wav

     Peak level 99.9 %
     Track quality 99.9 %
     Test CRC 5509F010
     Copy CRC 5509F010
     Accurately ripped (confidence 8)  [95BE82ED]
     Copy OK

Track  3

     Filename C:\What.cd Uploads\flac\Maximum the Hormone - Buiikikaesu\03 - Kuso bureikin nou bureikin riri-.wav

     Pre-gap length  0:00:01.18

     Peak level 99.9 %
     Track quality 100.0 %
     Test CRC EE07B59A
     Copy CRC EE07B59A
     Accurately ripped (confidence 8)  [B10CB016]
     Copy OK

Track  4

     Filename C:\What.cd Uploads\flac\Maximum the Hormone - Buiikikaesu\04 - Ruiijiana bobu.wav

     Peak level 99.9 %
     Track quality 100.0 %
     Test CRC 02AF1A2E
     Copy CRC 02AF1A2E
     Accurately ripped (confidence 8)  [69F201F2]
     Copy OK

Track  5

     Filename C:\What.cd Uploads\flac\Maximum the Hormone - Buiikikaesu\05 - Porisuman bentsu.wav

     Peak level 99.9 %
     Track quality 100.0 %
     Test CRC 8BD1F73B
     Copy CRC 8BD1F73B
     Accurately ripped (confidence 8)  [3E028063]
     Copy OK

Track  6

     Filename C:\What.cd Uploads\flac\Maximum the Hormone - Buiikikaesu\06 - Burakku Pawa- Gmen supai.wav

     Peak level 99.9 %
     Track quality 100.0 %
     Test CRC 542471B8
     Copy CRC 542471B8
     Accurately ripped (confidence 8)  [64134A5F]
     Copy OK

Track  7

     Filename C:\What.cd Uploads\flac\Maximum the Hormone - Buiikikaesu\07 - Akagi.wav

     Peak level 99.9 %
     Track quality 100.0 %
     Test CRC 32C8166D
     Copy CRC 32C8166D
     Accurately ripped (confidence 8)  [0A74C3EE]
     Copy OK

Track  8

     Filename C:\What.cd Uploads\flac\Maximum the Hormone - Buiikikaesu\08 - Kyoukatsu ~kyoukatsu~.wav

     Peak level 99.9 %
     Track quality 99.9 %
     Test CRC 630CB295
     Copy CRC 630CB295
     Accurately ripped (confidence 8)  [E928708F]
     Copy OK

Track  9

     Filename C:\What.cd Uploads\flac\Maximum the Hormone - Buiikikaesu\09 - Bikini Supo-tsu Ponchin.wav

     Peak level 99.9 %
     Track quality 100.0 %
     Test CRC 56307C17
     Copy CRC 56307C17
     Accurately ripped (confidence 8)  [7763C37C]
     Copy OK

Track 10

     Filename C:\What.cd Uploads\flac\Maximum the Hormone - Buiikikaesu\10 - What's up, people !.wav

     Peak level 99.9 %
     Track quality 100.0 %
     Test CRC 786D0EA7
     Copy CRC 786D0EA7
     Accurately ripped (confidence 8)  [39DB2B01]
     Copy OK

Track 11

     Filename C:\What.cd Uploads\flac\Maximum the Hormone - Buiikikaesu\11 - Chu-chu- Raburi- Munimuni Muramura Purinpurin Boronnururu Rerorero.wav

     Peak level 99.9 %
     Track quality 99.9 %
     Test CRC 8B0E50BA
     Copy CRC 8B0E50BA
     Accurately ripped (confidence 8)  [3372CD46]
     Copy OK

Track 12

     Filename C:\What.cd Uploads\flac\Maximum the Hormone - Buiikikaesu\12 - Shimi.wav

     Peak level 99.9 %
     Track quality 100.0 %
     Test CRC 58268C2D
     Copy CRC 58268C2D
     Accurately ripped (confidence 8)  [71D0F943]
     Copy OK

Track 13

     Filename C:\What.cd Uploads\flac\Maximum the Hormone - Buiikikaesu\13 - Koi no Megaraba.wav

     Peak level 99.9 %
     Track quality 100.0 %
     Test CRC C93C9EB4
     Copy CRC C93C9EB4
     Accurately ripped (confidence 8)  [857174FB]
     Copy OK

Track 14

     Filename C:\What.cd Uploads\flac\Maximum the Hormone - Buiikikaesu\14 - (Bonus Track).wav

     Peak level 99.9 %
     Track quality 100.0 %
     Test CRC BF8EB74F
     Copy CRC BF8EB74F
     Track not present in AccurateRip database
     Copy OK

13 track(s) accurately ripped
 1 track(s) not present in the AccurateRip database

Some tracks could not be verified as accurate

No errors occurred

End of status report

Код:

REM GENRE "Mixture Rock"
REM DATE 2007
REM DISCID C70B970E
REM COMMENT "ExactAudioCopy v0.99pb4"
PERFORMER "Maximum the Hormone"
TITLE "Buiikikaeasu"
FILE "01 - Buiikikaesu!!.wav" WAVE
  TRACK 01 AUDIO
    TITLE "Buiikikaesu!!"
    PERFORMER "Maximum the Hormone"
    INDEX 01 00:00:00
FILE "02 - Zetsubou biri-.wav" WAVE
  TRACK 02 AUDIO
    TITLE "Zetsubou biri-"
    PERFORMER "Maximum the Hormone"
    INDEX 01 00:00:00
  TRACK 03 AUDIO
    TITLE "Kuso bureikin nou bureikin riri-"
    PERFORMER "Maximum the Hormone"
    INDEX 00 03:42:70
FILE "03 - Kuso bureikin nou bureikin riri-.wav" WAVE
    INDEX 01 00:00:00
FILE "04 - Ruiijiana bobu.wav" WAVE
  TRACK 04 AUDIO
    TITLE "Ruiijiana bobu"
    PERFORMER "Maximum the Hormone"
    INDEX 01 00:00:00
FILE "05 - Porisuman bentsu.wav" WAVE
  TRACK 05 AUDIO
    TITLE "Porisuman bentsu"
    PERFORMER "Maximum the Hormone"
    INDEX 01 00:00:00
FILE "06 - Burakku Pawa- Gmen supai.wav" WAVE
  TRACK 06 AUDIO
    TITLE "Burakku Pawa- Gmen supai"
    PERFORMER "Maximum the Hormone"
    INDEX 01 00:00:00
FILE "07 - Akagi.wav" WAVE
  TRACK 07 AUDIO
    TITLE "Akagi"
    PERFORMER "Maximum the Hormone"
    INDEX 01 00:00:00
FILE "08 - Kyoukatsu ~kyoukatsu~.wav" WAVE
  TRACK 08 AUDIO
    TITLE "Kyoukatsu ~kyoukatsu~"
    PERFORMER "Maximum the Hormone"
    INDEX 01 00:00:00
FILE "09 - Bikini Supo-tsu Ponchin.wav" WAVE
  TRACK 09 AUDIO
    TITLE "Bikini Supo-tsu Ponchin"
    PERFORMER "Maximum the Hormone"
    INDEX 01 00:00:00
FILE "10 - What's up, people !.wav" WAVE
  TRACK 10 AUDIO
    TITLE "What's up, people?!"
    PERFORMER "Maximum the Hormone"
    INDEX 01 00:00:00
FILE "11 - Chu-chu- Raburi- Munimuni Muramura Purinpurin Boronnururu Rerorero.wav" WAVE
  TRACK 11 AUDIO
    TITLE "Chu-chu- Raburi- Munimuni Muramura Purinpurin Boronnururu Rerorero"
    PERFORMER "Maximum the Hormone"
    INDEX 01 00:00:00
FILE "12 - Shimi.wav" WAVE
  TRACK 12 AUDIO
    TITLE "Shimi"
    PERFORMER "Maximum the Hormone"
    INDEX 01 00:00:00
FILE "13 - Koi no Megaraba.wav" WAVE
  TRACK 13 AUDIO
    TITLE "Koi no Megaraba"
    PERFORMER "Maximum the Hormone"
    INDEX 01 00:00:00
FILE "14 - (Bonus Track).wav" WAVE
  TRACK 14 AUDIO
    TITLE "(Bonus Track)"
    PERFORMER "Maximum the Hormone"
    INDEX 01 00:00:00
1. "Tsume Tsume Tsume" 4:16
2. "[F]" 4:12
3. "Kill all the 394" 1:47

Код:

Exact Audio Copy V0.99 prebeta 4 from 23. January 2008

EAC extraction logfile from 26. July 2008, 3:46

Maximum the Hormone / Tsume Tsume Tsume/'F

Used drive  : TSSTcorpCDDVDW SH-S203N   Adapter: 4  ID: 0

Read mode               : Secure
Utilize accurate stream : Yes
Defeat audio cache      : No
Make use of C2 pointers : No

Read offset correction                      : 6
Overread into Lead-In and Lead-Out          : No
Fill up missing offset samples with silence : Yes
Delete leading and trailing silent blocks   : No
Null samples used in CRC calculations       : Yes
Used interface                              : Native Win32 interface for Win NT & 2000
Gap handling                                : Appended to previous track

Used output format              : User Defined Encoder
Selected bitrate                : 128 kBit/s
Quality                         : High
Add ID3 tag                     : No
Command line compressor         : C:\Program Files\Exact Audio Copy\Flac\flac.exe
Additional command line options : -V -8 -T "artist=%a" -T "title=%t" -T "album=%g" -T "date=%y" -T "tracknumber=%n" -T "genre=%m" %s

TOC of the extracted CD

     Track |   Start  |  Length  | Start sector | End sector
    ---------------------------------------------------------
        1  |  0:00.00 |  4:16.32 |         0    |    19231   
        2  |  4:16.32 |  4:12.09 |     19232    |    38140   
        3  |  8:28.41 |  1:47.12 |     38141    |    46177   

Track  1

     Filename C:\EACrips\01 - Tsume Tsume Tsume.wav

     Pre-gap length  0:00:02.00

     Peak level 100.0 %
     Track quality 100.0 %
     Test CRC BB675B26
     Copy CRC BB675B26
     Track not present in AccurateRip database
     Copy OK

Track  2

     Filename C:\EACrips\02 - [F].wav

     Pre-gap length  0:00:00.60

     Peak level 99.9 %
     Track quality 100.0 %
     Test CRC 5CCC9B70
     Copy CRC 5CCC9B70
     Track not present in AccurateRip database
     Copy OK

Track  3

     Filename C:\EACrips\03 - Kill all the 394.wav

     Pre-gap length  0:00:01.60

     Peak level 99.8 %
     Track quality 100.0 %
     Test CRC C7B0E91C
     Copy CRC C7B0E91C
     Track not present in AccurateRip database
     Copy OK

None of the tracks are present in the AccurateRip database

No errors occurred

End of status report

Код:

REM GENRE Rock
REM DATE 2008
REM DISCID 17026703
REM COMMENT "ExactAudioCopy v0.99pb4"
PERFORMER "Maximum the Hormone"
TITLE "Tsume Tsume Tsume/'F"
FILE "01 - Tsume Tsume Tsume.wav" WAVE
  TRACK 01 AUDIO
    TITLE "Tsume Tsume Tsume"
    PERFORMER "Maximum the Hormone"
    INDEX 01 00:00:00
  TRACK 02 AUDIO
    TITLE "[F]"
    PERFORMER "Maximum the Hormone"
    INDEX 00 04:15:62
FILE "02 - [F].wav" WAVE
    INDEX 01 00:00:00
  TRACK 03 AUDIO
    TITLE "Kill all the 394"
    PERFORMER "Maximum the Hormone"
    INDEX 00 04:10:39
FILE "03 - Kill all the 394.wav" WAVE
    INDEX 01 00:00:00
info [Профиль]  [ЛС] 

post 11-Ноя-2010 18:50 (спустя 20 часов) [-]0[+]

Топик был перенесен из форума Анонсы в форум Rосk (losslеss)

TheMrMafiozi
 
Показать сообщения:    
Ответить на тему

Текущее время: 09-Дек 04:06

Часовой пояс: GMT + 4



Вы не можете начинать темы
Вы не можете отвечать на сообщения
Вы не можете редактировать свои сообщения
Вы не можете удалять свои сообщения
Вы не можете голосовать в опросах
Вы не можете прикреплять файлы к сообщениям
Вы не можете скачивать файлы