Ошибка

(Alternative Metal/Nu Metal) Stone Sour - Дискография - 2002 - 2010, FLAC (tracks+.cue), lossless

Ответить на тему
 
Автор Сообщение

Resistance

Пол: Пол:Муж

Стаж: 7 лет 2 месяца

Сообщений: 3639

Россия
Рейтинг

post 09-Окт-2010 21:37 1[+]

[Цитировать] 

pic="http://s40.radikal.ru/i090/1010/ce/05d0ac6f6b7f.jpg"
Stone Sour - Дискография
Жанр: Alternative Metal/Nu Metal || Происхождение исполнителя: USA || Год: 2002-2010
Аудио кодек: FLAC || Тип релиза: tracks+.cue || Битрейт аудио: lossless || Продолжительность: 5:13:23

Цитата:

Stone Sour — музыкальная группа из США, играющая в стиле «альтернативный металл». Её основатели — Кори Тейлор, ставший знаменитым как вокалист группы Slipknot, Джеймс Рут — гитарист Slipknot, а также её бывший барабанщик Джоел Экман.
Во-первых, Stone Sour - это алкогольный коктейль, состоящий из виски, апельсинового сока и sour mix’а (по-русски «Отвертка»). Видимо, во время распития нескольких порций в Де-Мойнском баре в 1992 году Кори Тейлор и Джоел Экман (впоследствии ушедший из группы) и решили создать группу....
Лейбл:Roadrunner Records
Кат. номер:RR 8425-2
01. Get Inside (3:14)
02. Orchids (4:24)
03. Cold Reader (3:41)
04. Blotter (4:02)
05. Choose (4:17)
06. Monolith (3:46)
07. Inhale (4:25)
08. Bother (4:00)
09. Blue Study (4:38)
10. Take A Number (3:43)
11. Idle Hands (3:57)
12. Tumult (4:04)
13. Omega (2:53)

Код:

Exact Audio Copy V0.99 prebeta 4 from 23. January 2008

EAC extraction logfile from 6. May 2009, 13:15

Stone Sour / Stone Sour

Used drive  : PIONEER DVD-RW  DVR-216D   Adapter: 2  ID: 0

Read mode               : Secure
Utilize accurate stream : Yes
Defeat audio cache      : Yes
Make use of C2 pointers : No

Read offset correction                      : 96
Overread into Lead-In and Lead-Out          : No
Fill up missing offset samples with silence : Yes
Delete leading and trailing silent blocks   : No
Null samples used in CRC calculations       : Yes
Used interface                              : Native Win32 interface for Win NT & 2000
Gap handling                                : Appended to previous track

Used output format              : User Defined Encoder
Selected bitrate                : 1024 kBit/s
Quality                         : High
Add ID3 tag                     : No
Command line compressor         : C:\Program Files (x86)\Exact Audio Copy\FLAC\FLAC.EXE
Additional command line options : -6 -V -T "ARTIST=%a" -T "TITLE=%t" -T "ALBUM=%g" -T "DATE=%y" -T "TRACKNUMBER=%n" -T "GENRE=%m" -T "COMMENT=%e" %s -o %d

TOC of the extracted CD

     Track |   Start  |  Length  | Start sector | End sector
    ---------------------------------------------------------
        1  |  0:00.00 |  3:13.52 |         0    |    14526   
        2  |  3:13.52 |  4:24.13 |     14527    |    34339   
        3  |  7:37.65 |  3:41.05 |     34340    |    50919   
        4  | 11:18.70 |  4:02.00 |     50920    |    69069   
        5  | 15:20.70 |  4:17.02 |     69070    |    88346   
        6  | 19:37.72 |  3:45.65 |     88347    |   105286   
        7  | 23:23.62 |  4:25.35 |    105287    |   125196   
        8  | 27:49.22 |  4:00.30 |    125197    |   143226   
        9  | 31:49.52 |  4:37.45 |    143227    |   164046   
       10  | 36:27.22 |  3:42.63 |    164047    |   180759   
       11  | 40:10.10 |  3:56.70 |    180760    |   198529   
       12  | 44:07.05 |  4:03.40 |    198530    |   216794   
       13  | 48:10.45 |  2:52.67 |    216795    |   229761   
       14  | 53:35.37 |  3:36.27 |    241162    |   257388   

Track  1

     Filename E:\[DOWNLOADS]\Music\Stone Sour - Stone Sour (2002)\01 - Get Inside.wav

     Pre-gap length  0:00:02.00

     Peak level 99.8 %
     Track quality 100.0 %
     Test CRC 05497F18
     Copy CRC 05497F18
     Copy OK

Track  2

     Filename E:\[DOWNLOADS]\Music\Stone Sour - Stone Sour (2002)\02 - Orchids.wav

     Peak level 98.7 %
     Track quality 100.0 %
     Test CRC A28D91AE
     Copy CRC A28D91AE
     Copy OK

Track  3

     Filename E:\[DOWNLOADS]\Music\Stone Sour - Stone Sour (2002)\03 - Cold Reader.wav

     Pre-gap length  0:00:01.00

     Peak level 99.5 %
     Track quality 100.0 %
     Test CRC BBBF6DEF
     Copy CRC BBBF6DEF
     Copy OK

Track  4

     Filename E:\[DOWNLOADS]\Music\Stone Sour - Stone Sour (2002)\04 - Blotter.wav

     Pre-gap length  0:00:02.37

     Peak level 98.0 %
     Track quality 100.0 %
     Test CRC E52817A0
     Copy CRC E52817A0
     Copy OK

Track  5

     Filename E:\[DOWNLOADS]\Music\Stone Sour - Stone Sour (2002)\05 - Choose.wav

     Pre-gap length  0:00:02.00

     Peak level 94.2 %
     Track quality 99.9 %
     Test CRC 893E5E94
     Copy CRC 893E5E94
     Copy OK

Track  6

     Filename E:\[DOWNLOADS]\Music\Stone Sour - Stone Sour (2002)\06 - Monolith.wav

     Pre-gap length  0:00:01.36

     Peak level 98.8 %
     Track quality 100.0 %
     Test CRC F750D2F6
     Copy CRC F750D2F6
     Copy OK

Track  7

     Filename E:\[DOWNLOADS]\Music\Stone Sour - Stone Sour (2002)\07 - Inhale.wav

     Pre-gap length  0:00:01.65

     Peak level 97.9 %
     Track quality 100.0 %
     Test CRC ACB09223
     Copy CRC ACB09223
     Copy OK

Track  8

     Filename E:\[DOWNLOADS]\Music\Stone Sour - Stone Sour (2002)\08 - Bother.wav

     Pre-gap length  0:00:01.46

     Peak level 99.8 %
     Track quality 99.9 %
     Test CRC 6381100F
     Copy CRC 6381100F
     Copy OK

Track  9

     Filename E:\[DOWNLOADS]\Music\Stone Sour - Stone Sour (2002)\09 - Blue Study.wav

     Pre-gap length  0:00:01.69

     Peak level 98.8 %
     Track quality 99.9 %
     Test CRC 3CEFB34C
     Copy CRC 3CEFB34C
     Copy OK

Track 10

     Filename E:\[DOWNLOADS]\Music\Stone Sour - Stone Sour (2002)\10 - Take A Number.wav

     Peak level 99.8 %
     Track quality 99.9 %
     Test CRC 8D53C75D
     Copy CRC 8D53C75D
     Copy OK

Track 11

     Filename E:\[DOWNLOADS]\Music\Stone Sour - Stone Sour (2002)\11 - Idle Hands.wav

     Pre-gap length  0:00:01.93

     Peak level 97.9 %
     Track quality 100.0 %
     Test CRC F8ACA582
     Copy CRC F8ACA582
     Copy OK

Track 12

     Filename E:\[DOWNLOADS]\Music\Stone Sour - Stone Sour (2002)\12 - Tumult.wav

     Peak level 99.1 %
     Track quality 100.0 %
     Test CRC AAA7F355
     Copy CRC AAA7F355
     Copy OK

Track 13

     Filename E:\[DOWNLOADS]\Music\Stone Sour - Stone Sour (2002)\13 - Omega.wav

     Pre-gap length  0:00:01.24

     Peak level 77.8 %
     Track quality 100.0 %
     Test CRC 969A93EB
     Copy CRC 969A93EB
     Copy OK

No errors occurred

End of status report

Код:

REM GENRE Rock
REM DATE 2002
REM DISCID C90D670E
REM COMMENT "ExactAudioCopy v0.99pb4"
PERFORMER "Stone Sour"
TITLE "Stone Sour"
FILE "01 - Get Inside.wav" WAVE
  TRACK 01 AUDIO
    TITLE "Get Inside"
    PERFORMER "Stone Sour"
    INDEX 01 00:00:00
FILE "02 - Orchids.wav" WAVE
  TRACK 02 AUDIO
    TITLE "Orchids"
    PERFORMER "Stone Sour"
    INDEX 01 00:00:00
  TRACK 03 AUDIO
    TITLE "Cold Reader"
    PERFORMER "Stone Sour"
    INDEX 00 04:23:13
FILE "03 - Cold Reader.wav" WAVE
    INDEX 01 00:00:00
  TRACK 04 AUDIO
    TITLE "Blotter"
    PERFORMER "Stone Sour"
    INDEX 00 03:38:52
FILE "04 - Blotter.wav" WAVE
    INDEX 01 00:00:00
  TRACK 05 AUDIO
    TITLE "Choose"
    PERFORMER "Stone Sour"
    INDEX 00 04:00:00
FILE "05 - Choose.wav" WAVE
    INDEX 01 00:00:00
  TRACK 06 AUDIO
    TITLE "Monolith"
    PERFORMER "Stone Sour"
    INDEX 00 04:15:50
FILE "06 - Monolith.wav" WAVE
    INDEX 01 00:00:00
  TRACK 07 AUDIO
    TITLE "Inhale"
    PERFORMER "Stone Sour"
    INDEX 00 03:44:16
FILE "07 - Inhale.wav" WAVE
    INDEX 01 00:00:00
  TRACK 08 AUDIO
    TITLE "Bother"
    PERFORMER "Stone Sour"
    INDEX 00 04:24:00
FILE "08 - Bother.wav" WAVE
    INDEX 01 00:00:00
  TRACK 09 AUDIO
    TITLE "Blue Study"
    PERFORMER "Stone Sour"
    INDEX 00 03:58:53
FILE "09 - Blue Study.wav" WAVE
    INDEX 01 00:00:00
FILE "10 - Take A Number.wav" WAVE
  TRACK 10 AUDIO
    TITLE "Take A Number"
    PERFORMER "Stone Sour"
    INDEX 01 00:00:00
  TRACK 11 AUDIO
    TITLE "Idle Hands"
    PERFORMER "Stone Sour"
    INDEX 00 03:40:68
FILE "11 - Idle Hands.wav" WAVE
    INDEX 01 00:00:00
FILE "12 - Tumult.wav" WAVE
  TRACK 12 AUDIO
    TITLE "Tumult"
    PERFORMER "Stone Sour"
    INDEX 01 00:00:00
  TRACK 13 AUDIO
    TITLE "Omega"
    PERFORMER "Stone Sour"
    INDEX 00 04:02:22
FILE "13 - Omega.wav" WAVE
    INDEX 01 00:00:00
  TRACK 14 MODEx/2xxx
    TITLE "Data Track"
    PERFORMER "Stone Sour"
    INDEX 00 02:52:67
Лейбл:Roadrunner Records
Кат. номер:RR 8425-0168 618 350-2
01. Get Inside (3:14)
02. Orchids (4:24)
03. Cold Reader (3:41)
04. Blotter (4:02)
05. Choose (4:17)
06. Monolith (3:46)
07. Inhale (4:25)
08. Bother (4:00)
09. Blue Study (4:38)
10. Take A Number (3:43)
11. Idle Hands (3:57)
12. Tumult (4:04)
13. Omega (2:56)
14. Rules Of Evidence (3:44)
15. The Wicked (4:55)
16. Inside The Cynic (3:24)
17. Kill Everybody (3:27)
18. Road Hogs (3:54)

Код:

Exact Audio Copy V0.99 prebeta 5 from 4. May 2009

EAC extraction logfile from 9. October 2009, 10:14

Stone Sour / Stone Sour (Special Edition)

Used drive  :         48X12X50 CD-RW   Adapter: 1  ID: 0

Read mode               : Secure
Utilize accurate stream : Yes
Defeat audio cache      : Yes
Make use of C2 pointers : No

Read offset correction                      : 97
Overread into Lead-In and Lead-Out          : No
Fill up missing offset samples with silence : Yes
Delete leading and trailing silent blocks   : No
Null samples used in CRC calculations       : Yes
Used interface                              : Native Win32 interface for Win NT & 2000
Gap handling                                : Appended to previous track

Used output format              : User Defined Encoder
Selected bitrate                : 320 kBit/s
Quality                         : High
Add ID3 tag                     : No
Command line compressor         : C:\Program Files\Exact Audio Copy\Flac\flac.exe
Additional command line options : -V -8 -T "artist=%a" -T "title=%t" -T "album=%g" -T "date=%y" -T "tracknumber=%n" -T "genre=%m" %s

TOC of the extracted CD

     Track |   Start  |  Length  | Start sector | End sector
    ---------------------------------------------------------
        1  |  0:00.00 |  3:13.52 |         0    |    14526   
        2  |  3:13.52 |  4:24.13 |     14527    |    34339   
        3  |  7:37.65 |  3:41.05 |     34340    |    50919   
        4  | 11:18.70 |  4:02.00 |     50920    |    69069   
        5  | 15:20.70 |  4:17.02 |     69070    |    88346   
        6  | 19:37.72 |  3:45.65 |     88347    |   105286   
        7  | 23:23.62 |  4:25.35 |    105287    |   125196   
        8  | 27:49.22 |  4:00.30 |    125197    |   143226   
        9  | 31:49.52 |  4:37.45 |    143227    |   164046   
       10  | 36:27.22 |  3:42.63 |    164047    |   180759   
       11  | 40:10.10 |  3:56.70 |    180760    |   198529   
       12  | 44:07.05 |  4:03.40 |    198530    |   216794   
       13  | 48:10.45 |  2:56.12 |    216795    |   230006   
       14  | 51:06.57 |  3:44.18 |    230007    |   246824   
       15  | 54:51.00 |  4:55.00 |    246825    |   268949   
       16  | 59:46.00 |  3:24.10 |    268950    |   284259   
       17  | 63:10.10 |  3:26.67 |    284260    |   299776   
       18  | 66:37.02 |  3:53.65 |    299777    |   317316   

Track  1

     Filename F:\EAC Rips\Stone Sour - Stone Sour (Special Edition)\01 - Get Inside.wav

     Pre-gap length  0:00:02.00

     Peak level 99.8 %
     Track quality 100.0 %
     Test CRC FF43BE31
     Copy CRC FF43BE31
     Cannot be verified as accurate (confidence 9)  [20D79F5B], AccurateRip returned [3E7EB5D2]
     Copy OK

Track  2

     Filename F:\EAC Rips\Stone Sour - Stone Sour (Special Edition)\02 - Orchids.wav

     Peak level 98.7 %
     Track quality 100.0 %
     Test CRC 49D695A7
     Copy CRC 49D695A7
     Cannot be verified as accurate (confidence 9)  [09B63EC8], AccurateRip returned [1D3DE715]
     Copy OK

Track  3

     Filename F:\EAC Rips\Stone Sour - Stone Sour (Special Edition)\03 - Cold Reader.wav

     Pre-gap length  0:00:00.55

     Peak level 99.5 %
     Track quality 100.0 %
     Test CRC 144CCFBF
     Copy CRC 144CCFBF
     Cannot be verified as accurate (confidence 9)  [790A5FE1], AccurateRip returned [1E53E011]
     Copy OK

Track  4

     Filename F:\EAC Rips\Stone Sour - Stone Sour (Special Edition)\04 - Blotter.wav

     Pre-gap length  0:00:02.06

     Peak level 98.0 %
     Track quality 100.0 %
     Test CRC 91995255
     Copy CRC 91995255
     Cannot be verified as accurate (confidence 9)  [F45C315B], AccurateRip returned [130650DB]
     Copy OK

Track  5

     Filename F:\EAC Rips\Stone Sour - Stone Sour (Special Edition)\05 - Choose.wav

     Pre-gap length  0:00:01.68

     Peak level 94.3 %
     Track quality 99.9 %
     Test CRC E0136E96
     Copy CRC E0136E96
     Cannot be verified as accurate (confidence 9)  [38510A76], AccurateRip returned [9D70A58E]
     Copy OK

Track  6

     Filename F:\EAC Rips\Stone Sour - Stone Sour (Special Edition)\06 - Monolith.wav

     Pre-gap length  0:00:01.02

     Peak level 98.8 %
     Track quality 100.0 %
     Test CRC 9FB6C3FF
     Copy CRC 9FB6C3FF
     Cannot be verified as accurate (confidence 9)  [08192314], AccurateRip returned [D2FBCB74]
     Copy OK

Track  7

     Filename F:\EAC Rips\Stone Sour - Stone Sour (Special Edition)\07 - Inhale.wav

     Pre-gap length  0:00:01.24

     Peak level 97.9 %
     Track quality 100.0 %
     Test CRC 19BDBAA8
     Copy CRC 19BDBAA8
     Cannot be verified as accurate (confidence 9)  [0F9F9E07], AccurateRip returned [CC683BCF]
     Copy OK

Track  8

     Filename F:\EAC Rips\Stone Sour - Stone Sour (Special Edition)\08 - Bother.wav

     Pre-gap length  0:00:01.09

     Peak level 99.8 %
     Track quality 99.8 %
     Test CRC 43BD7738
     Copy CRC 43BD7738
     Cannot be verified as accurate (confidence 10)  [C039EDEB], AccurateRip returned [58D5917B]
     Copy OK

Track  9

     Filename F:\EAC Rips\Stone Sour - Stone Sour (Special Edition)\09 - Blue Study.wav

     Pre-gap length  0:00:01.30

     Peak level 98.8 %
     Track quality 99.9 %
     Test CRC 168CFB49
     Copy CRC 168CFB49
     Cannot be verified as accurate (confidence 9)  [FA2F4D2B], AccurateRip returned [4B96399B]
     Copy OK

Track 10

     Filename F:\EAC Rips\Stone Sour - Stone Sour (Special Edition)\10 - Take A Number.wav

     Peak level 99.8 %
     Track quality 99.9 %
     Test CRC B84F6377
     Copy CRC B84F6377
     Cannot be verified as accurate (confidence 9)  [5B5ABE1A], AccurateRip returned [44859632]
     Copy OK

Track 11

     Filename F:\EAC Rips\Stone Sour - Stone Sour (Special Edition)\11 - Idle Hands.wav

     Pre-gap length  0:00:01.43

     Peak level 97.9 %
     Track quality 100.0 %
     Test CRC 71614227
     Copy CRC 71614227
     Cannot be verified as accurate (confidence 9)  [823EC910], AccurateRip returned [69813488]
     Copy OK

Track 12

     Filename F:\EAC Rips\Stone Sour - Stone Sour (Special Edition)\12 - Tumult.wav

     Peak level 99.1 %
     Track quality 99.8 %
     Test CRC 98EF8A63
     Copy CRC 98EF8A63
     Cannot be verified as accurate (confidence 9)  [E6CAB146], AccurateRip returned [7618D0BE]
     Copy OK

Track 13

     Filename F:\EAC Rips\Stone Sour - Stone Sour (Special Edition)\13 - Omega.wav

     Pre-gap length  0:00:00.56

     Peak level 77.8 %
     Track quality 100.0 %
     Test CRC F87F6938
     Copy CRC F87F6938
     Cannot be verified as accurate (confidence 9)  [B40CD789], AccurateRip returned [BC987129]
     Copy OK

Track 14

     Filename F:\EAC Rips\Stone Sour - Stone Sour (Special Edition)\14 - Rules Of Evidence.wav

     Pre-gap length  0:00:03.00

     Peak level 99.7 %
     Track quality 100.0 %
     Test CRC 7A74BFCF
     Copy CRC 7A74BFCF
     Cannot be verified as accurate (confidence 9)  [32F82B46], AccurateRip returned [FE4C5211]
     Copy OK

Track 15

     Filename F:\EAC Rips\Stone Sour - Stone Sour (Special Edition)\15 - The Wicked.wav

     Peak level 98.5 %
     Track quality 100.0 %
     Test CRC A17A4D71
     Copy CRC A17A4D71
     Cannot be verified as accurate (confidence 9)  [0E7F42F7], AccurateRip returned [FE1BFC4C]
     Copy OK

Track 16

     Filename F:\EAC Rips\Stone Sour - Stone Sour (Special Edition)\16 - Inside The Cynic.wav

     Peak level 99.2 %
     Track quality 100.0 %
     Test CRC 230F9A9D
     Copy CRC 230F9A9D
     Cannot be verified as accurate (confidence 9)  [8C46DD52], AccurateRip returned [09C135AA]
     Copy OK

Track 17

     Filename F:\EAC Rips\Stone Sour - Stone Sour (Special Edition)\17 - Kill Everybody.wav

     Peak level 96.5 %
     Track quality 99.9 %
     Test CRC E920F2D9
     Copy CRC E920F2D9
     Cannot be verified as accurate (confidence 9)  [EC83D671], AccurateRip returned [E0939B21]
     Copy OK

Track 18

     Filename F:\EAC Rips\Stone Sour - Stone Sour (Special Edition)\18 - Road Hogs.wav

     Peak level 96.6 %
     Track quality 100.0 %
     Test CRC 74C04A7B
     Copy CRC 74C04A7B
     Cannot be verified as accurate (confidence 9)  [292F11C5], AccurateRip returned [B38AB715]
     Copy OK

No tracks could be verified as accurate
You may have a different pressing from the one(s) in the database

No errors occurred

End of status report

Код:

REM GENRE "Hard Rock"
REM DATE 2002
REM DISCID 2A108612
REM COMMENT "ExactAudioCopy v0.99pb5"
PERFORMER "Stone Sour"
TITLE "Stone Sour (Special Edition)"
FILE "01 - Get Inside.wav" WAVE
  TRACK 01 AUDIO
    TITLE "Get Inside"
    PERFORMER "Stone Sour"
    INDEX 01 00:00:00
FILE "02 - Orchids.wav" WAVE
  TRACK 02 AUDIO
    TITLE "Orchids"
    PERFORMER "Stone Sour"
    INDEX 01 00:00:00
  TRACK 03 AUDIO
    TITLE "Cold Reader"
    PERFORMER "Stone Sour"
    INDEX 00 04:23:33
FILE "03 - Cold Reader.wav" WAVE
    INDEX 01 00:00:00
  TRACK 04 AUDIO
    TITLE "Blotter"
    PERFORMER "Stone Sour"
    INDEX 00 03:38:74
FILE "04 - Blotter.wav" WAVE
    INDEX 01 00:00:00
  TRACK 05 AUDIO
    TITLE "Choose"
    PERFORMER "Stone Sour"
    INDEX 00 04:00:07
FILE "05 - Choose.wav" WAVE
    INDEX 01 00:00:00
  TRACK 06 AUDIO
    TITLE "Monolith"
    PERFORMER "Stone Sour"
    INDEX 00 04:16:00
FILE "06 - Monolith.wav" WAVE
    INDEX 01 00:00:00
  TRACK 07 AUDIO
    TITLE "Inhale"
    PERFORMER "Stone Sour"
    INDEX 00 03:44:41
FILE "07 - Inhale.wav" WAVE
    INDEX 01 00:00:00
  TRACK 08 AUDIO
    TITLE "Bother"
    PERFORMER "Stone Sour"
    INDEX 00 04:24:26
FILE "08 - Bother.wav" WAVE
    INDEX 01 00:00:00
  TRACK 09 AUDIO
    TITLE "Blue Study"
    PERFORMER "Stone Sour"
    INDEX 00 03:59:00
FILE "09 - Blue Study.wav" WAVE
    INDEX 01 00:00:00
FILE "10 - Take A Number.wav" WAVE
  TRACK 10 AUDIO
    TITLE "Take A Number"
    PERFORMER "Stone Sour"
    INDEX 01 00:00:00
  TRACK 11 AUDIO
    TITLE "Idle Hands"
    PERFORMER "Stone Sour"
    INDEX 00 03:41:20
FILE "11 - Idle Hands.wav" WAVE
    INDEX 01 00:00:00
FILE "12 - Tumult.wav" WAVE
  TRACK 12 AUDIO
    TITLE "Tumult"
    PERFORMER "Stone Sour"
    INDEX 01 00:00:00
  TRACK 13 AUDIO
    TITLE "Omega"
    PERFORMER "Stone Sour"
    INDEX 00 04:02:59
FILE "13 - Omega.wav" WAVE
    INDEX 01 00:00:00
  TRACK 14 AUDIO
    TITLE "Rules Of Evidence"
    PERFORMER "Stone Sour"
    INDEX 00 02:53:12
FILE "14 - Rules Of Evidence.wav" WAVE
    INDEX 01 00:00:00
FILE "15 - The Wicked.wav" WAVE
  TRACK 15 AUDIO
    TITLE "The Wicked"
    PERFORMER "Stone Sour"
    INDEX 01 00:00:00
FILE "16 - Inside The Cynic.wav" WAVE
  TRACK 16 AUDIO
    TITLE "Inside The Cynic"
    PERFORMER "Stone Sour"
    INDEX 01 00:00:00
FILE "17 - Kill Everybody.wav" WAVE
  TRACK 17 AUDIO
    TITLE "Kill Everybody"
    PERFORMER "Stone Sour"
    INDEX 01 00:00:00
FILE "18 - Road Hogs.wav" WAVE
  TRACK 18 AUDIO
    TITLE "Road Hogs"
    PERFORMER "Stone Sour"
    INDEX 01 00:00:00
Лейбл:Roadrunner Records
Кат. номер:168 618 073-2
01. 30/30-150 (4:18)
02. Come What(Ever) May (3:40)
03. Hell & Consequences (3:31)
04. Sillyworld (4:09)
05. Made Of Scars (3:24)
06. Reborn (3:13)
07. Your God (4:43)
08. Through Glass (4:43)
09. Socio (3:20)
10. 1st Person (4:02)
11. Cardiff (4:42)
12. Zzyzx Rd. (5:16)

Код:

EAC extraction logfile from 2. August 2006, 21:10 for CD
Stone Sour / Come What(Ever) May

Used drive  : PIONEER DVD-RW  DVR-107D   Adapter: 1  ID: 0
Read mode   : Secure with NO C2, accurate stream, disable cache
Read offset correction : 48
Overread into Lead-In and Lead-Out : No

Used output format : C:\Program Files\FLAC\flac.exe   (User Defined Encoder)
                     128 kBit/s
                     Additional command line options : V -8 -T "artist=%a" -T "title=%t" -T "album=%g" -T "date=%y" -T "tracknumber=%n" -T "genre=%m" %s

Other options      :
    Fill up missing offset samples with silence : Yes
    Delete leading and trailing silent blocks : No
    Installed external ASPI interface

Track  1
     Filename I:\-MP3-\-=2006=-\Stone Sour - Come What(ever) May (2006-FLAC)\01 - 30,30-150.wav

     Pre-gap length  0:00:02.00

     Peak level 96.6 %
     Track quality 100.0 %
     Test CRC 2692A9A8
     Copy CRC 2692A9A8
     Copy OK

Track  2
     Filename I:\-MP3-\-=2006=-\Stone Sour - Come What(ever) May (2006-FLAC)\02 - Come What(Ever) May.wav

     Peak level 96.6 %
     Track quality 100.0 %
     Test CRC 2E08AA0A
     Copy CRC 2E08AA0A
     Copy OK

Track  3
     Filename I:\-MP3-\-=2006=-\Stone Sour - Come What(ever) May (2006-FLAC)\03 - Hell & Consequences.wav

     Peak level 96.6 %
     Track quality 100.0 %
     Test CRC C4AF8D79
     Copy CRC C4AF8D79
     Copy OK

Track  4
     Filename I:\-MP3-\-=2006=-\Stone Sour - Come What(ever) May (2006-FLAC)\04 - Sillyworld.wav

     Peak level 96.6 %
     Track quality 100.0 %
     Test CRC 784F8F70
     Copy CRC 784F8F70
     Copy OK

Track  5
     Filename I:\-MP3-\-=2006=-\Stone Sour - Come What(ever) May (2006-FLAC)\05 - Made Of Scars.wav

     Peak level 96.6 %
     Track quality 100.0 %
     Test CRC 7C351E31
     Copy CRC 7C351E31
     Copy OK

Track  6
     Filename I:\-MP3-\-=2006=-\Stone Sour - Come What(ever) May (2006-FLAC)\06 - Reborn.wav

     Peak level 96.6 %
     Track quality 100.0 %
     Test CRC 54BA06A6
     Copy CRC 54BA06A6
     Copy OK

Track  7
     Filename I:\-MP3-\-=2006=-\Stone Sour - Come What(ever) May (2006-FLAC)\07 - Your God.wav

     Peak level 96.6 %
     Track quality 100.0 %
     Test CRC 4A3DA9D6
     Copy CRC 4A3DA9D6
     Copy OK

Track  8
     Filename I:\-MP3-\-=2006=-\Stone Sour - Come What(ever) May (2006-FLAC)\08 - Through Glass.wav

     Pre-gap length  0:00:01.01

     Peak level 96.6 %
     Track quality 100.0 %
     Test CRC 76D8EB86
     Copy CRC 76D8EB86
     Copy OK

Track  9
     Filename I:\-MP3-\-=2006=-\Stone Sour - Come What(ever) May (2006-FLAC)\09 - Socio.wav

     Peak level 96.6 %
     Track quality 99.9 %
     Test CRC 1B94FFEF
     Copy CRC 1B94FFEF
     Copy OK

Track 10
     Filename I:\-MP3-\-=2006=-\Stone Sour - Come What(ever) May (2006-FLAC)\10 - 1st Person.wav

     Peak level 96.6 %
     Track quality 100.0 %
     Test CRC 666C8DA9
     Copy CRC 666C8DA9
     Copy OK

Track 11
     Filename I:\-MP3-\-=2006=-\Stone Sour - Come What(ever) May (2006-FLAC)\11 - Cardiff.wav

     Peak level 96.6 %
     Track quality 100.0 %
     Test CRC A1360AB9
     Copy CRC A1360AB9
     Copy OK

Track 12
     Filename I:\-MP3-\-=2006=-\Stone Sour - Come What(ever) May (2006-FLAC)\12 - Zzyzx Rd..wav

     Pre-gap length  0:00:02.00

     Peak level 96.6 %
     Track quality 100.0 %
     Test CRC AF55F87D
     Copy CRC AF55F87D
     Copy OK

No errors occured

End of status report

Код:

REM DISCID 900B7C0C
REM COMMENT "ExactAudioCopy v0.95b4"
PERFORMER "Stone Sour"
TITLE "Come What(Ever) May"
FILE "01 - 30,30-150.wav" WAVE
  TRACK 01 AUDIO
    TITLE "30/30-150"
    PERFORMER "Stone Sour"
    INDEX 01 00:00:00
FILE "02 - Come What(Ever) May.wav" WAVE
  TRACK 02 AUDIO
    TITLE "Come What(Ever) May"
    PERFORMER "Stone Sour"
    INDEX 01 00:00:00
FILE "03 - Hell & Consequences.wav" WAVE
  TRACK 03 AUDIO
    TITLE "Hell & Consequences"
    PERFORMER "Stone Sour"
    INDEX 01 00:00:00
FILE "04 - Sillyworld.wav" WAVE
  TRACK 04 AUDIO
    TITLE "Sillyworld"
    PERFORMER "Stone Sour"
    INDEX 01 00:00:00
FILE "05 - Made Of Scars.wav" WAVE
  TRACK 05 AUDIO
    TITLE "Made Of Scars"
    PERFORMER "Stone Sour"
    INDEX 01 00:00:00
FILE "06 - Reborn.wav" WAVE
  TRACK 06 AUDIO
    TITLE "Reborn"
    PERFORMER "Stone Sour"
    INDEX 01 00:00:00
FILE "07 - Your God.wav" WAVE
  TRACK 07 AUDIO
    TITLE "Your God"
    PERFORMER "Stone Sour"
    INDEX 01 00:00:00
  TRACK 08 AUDIO
    TITLE "Through Glass"
    PERFORMER "Stone Sour"
    INDEX 00 04:42:20
FILE "08 - Through Glass.wav" WAVE
    INDEX 01 00:00:00
FILE "09 - Socio.wav" WAVE
  TRACK 09 AUDIO
    TITLE "Socio"
    PERFORMER "Stone Sour"
    INDEX 01 00:00:00
FILE "10 - 1st Person.wav" WAVE
  TRACK 10 AUDIO
    TITLE "1st Person"
    PERFORMER "Stone Sour"
    INDEX 01 00:00:00
FILE "11 - Cardiff.wav" WAVE
  TRACK 11 AUDIO
    TITLE "Cardiff"
    PERFORMER "Stone Sour"
    INDEX 01 00:00:00
  TRACK 12 AUDIO
    TITLE "Zzyzx Rd."
    PERFORMER "Stone Sour"
    INDEX 00 04:40:09
FILE "12 - Zzyzx Rd..wav" WAVE
    INDEX 01 00:00:00
Лейбл:Roadrunner Records
Кат. номер:1686-179942
01. 30/30-150 (4:18)
02. Come What(ever) May (3:40)
03. Hell & Consequences (3:31)
04. Sillyworld (4:09)
05. Made Of Scars (3:24)
06. Reborn (3:13)
07. Your God (4:43)
08. Trough Glass (4:43)
09. Socio (3:20)
10. 1st Person (4:02)
11. Cardiff (4:42)
12. Zzyzx Rd. (4:02)
13. Suffer (3:42)
14. Fruitcake (4:00)
15. The Day I Let Go (5:05)
16. Freeze Dry Seal (2:44)
17. Wicked Game (4:27)
18. The Frozen (3:04)

Код:

Exact Audio Copy V0.99 prebeta 4 from 23. January 2008

EAC extraction logfile from 23. March 2008, 20:49

Stone Sour / Come What(ever) May (Special Edition)

Used drive  : TSSTcorpCD/DVDW SH-S182M   Adapter: 1  ID: 0

Read mode               : Secure
Utilize accurate stream : Yes
Defeat audio cache      : Yes
Make use of C2 pointers : No

Read offset correction                      : 6
Overread into Lead-In and Lead-Out          : No
Fill up missing offset samples with silence : Yes
Delete leading and trailing silent blocks   : No
Null samples used in CRC calculations       : Yes
Used interface                              : Installed external ASPI interface
Gap handling                                : Appended to previous track

Used output format              : User Defined Encoder
Selected bitrate                : 224 kBit/s
Quality                         : High
Add ID3 tag                     : No
Command line compressor         : C:\Program Files\Exact Audio Copy\Flac\flac.exe
Additional command line options : -8 -A tukey(0.25) -A gauss(0.1875) -b 4096 -V -T "artist=%a" -T "title=%t" -T "album=%g" -T "date=%y" -T "tracknumber=%n" -T "genre=%m" %s --sector-align

TOC of the extracted CD

     Track |   Start  |  Length  | Start sector | End sector
    ---------------------------------------------------------
        1  |  0:00.00 |  4:18.07 |         0    |    19356   
        2  |  4:18.07 |  3:39.57 |     19357    |    35838   
        3  |  7:57.64 |  3:31.22 |     35839    |    51685   
        4  | 11:29.11 |  4:08.67 |     51686    |    70352   
        5  | 15:38.03 |  3:23.42 |     70353    |    85619   
        6  | 19:01.45 |  3:12.72 |     85620    |   100091   
        7  | 22:14.42 |  4:43.21 |    100092    |   121337   
        8  | 26:57.63 |  4:42.70 |    121338    |   142557   
        9  | 31:40.58 |  3:20.15 |    142558    |   157572   
       10  | 35:00.73 |  4:01.49 |    157573    |   175696   
       11  | 39:02.47 |  4:42.09 |    175697    |   196855   
       12  | 43:44.56 |  4:01.42 |    196856    |   214972   
       13  | 47:46.23 |  3:42.05 |    214973    |   231627   
       14  | 51:28.28 |  4:00.22 |    231628    |   249649   
       15  | 55:28.50 |  5:05.19 |    249650    |   272543   
       16  | 60:33.69 |  2:43.65 |    272544    |   284833   
       17  | 63:17.59 |  4:27.19 |    284834    |   304877   
       18  | 67:45.03 |  3:04.30 |    304878    |   318707   

Track  1

     Filename C:\Documents and Settings\Chris\Desktop\Stone Sour - Come What(ever) May (Special Edition) (FLAC)\01 - Stone Sour - 30,30-150.wav

     Pre-gap length  0:00:02.00

     Peak level 96.6 %
     Track quality 100.0 %
     Test CRC 02764375
     Copy CRC 02764375
     Copy OK

Track  2

     Filename C:\Documents and Settings\Chris\Desktop\Stone Sour - Come What(ever) May (Special Edition) (FLAC)\02 - Stone Sour - Come What(ever) May.wav

     Peak level 96.6 %
     Track quality 100.0 %
     Test CRC F74826AB
     Copy CRC F74826AB
     Copy OK

Track  3

     Filename C:\Documents and Settings\Chris\Desktop\Stone Sour - Come What(ever) May (Special Edition) (FLAC)\03 - Stone Sour - Hell & Consequences.wav

     Peak level 96.6 %
     Track quality 100.0 %
     Test CRC D8DDC34F
     Copy CRC D8DDC34F
     Copy OK

Track  4

     Filename C:\Documents and Settings\Chris\Desktop\Stone Sour - Come What(ever) May (Special Edition) (FLAC)\04 - Stone Sour - Sillyworld.wav

     Peak level 96.6 %
     Track quality 100.0 %
     Test CRC AE157838
     Copy CRC AE157838
     Copy OK

Track  5

     Filename C:\Documents and Settings\Chris\Desktop\Stone Sour - Come What(ever) May (Special Edition) (FLAC)\05 - Stone Sour - Made Of Scars.wav

     Peak level 96.6 %
     Track quality 99.9 %
     Test CRC C8AE479C
     Copy CRC C8AE479C
     Copy OK

Track  6

     Filename C:\Documents and Settings\Chris\Desktop\Stone Sour - Come What(ever) May (Special Edition) (FLAC)\06 - Stone Sour - Reborn.wav

     Peak level 96.6 %
     Track quality 100.0 %
     Test CRC 2E313A1B
     Copy CRC 2E313A1B
     Copy OK

Track  7

     Filename C:\Documents and Settings\Chris\Desktop\Stone Sour - Come What(ever) May (Special Edition) (FLAC)\07 - Stone Sour - Your God.wav

     Peak level 96.6 %
     Track quality 100.0 %
     Test CRC 40AFACB0
     Copy CRC 40AFACB0
     Copy OK

Track  8

     Filename C:\Documents and Settings\Chris\Desktop\Stone Sour - Come What(ever) May (Special Edition) (FLAC)\08 - Stone Sour - Trough Glass.wav

     Pre-gap length  0:00:01.01

     Peak level 96.6 %
     Track quality 99.9 %
     Test CRC 420E98D6
     Copy CRC 420E98D6
     Copy OK

Track  9

     Filename C:\Documents and Settings\Chris\Desktop\Stone Sour - Come What(ever) May (Special Edition) (FLAC)\09 - Stone Sour - Socio.wav

     Peak level 96.6 %
     Track quality 100.0 %
     Test CRC 53D417AC
     Copy CRC 53D417AC
     Copy OK

Track 10

     Filename C:\Documents and Settings\Chris\Desktop\Stone Sour - Come What(ever) May (Special Edition) (FLAC)\10 - Stone Sour - 1st Person.wav

     Peak level 96.6 %
     Track quality 100.0 %
     Test CRC 68DDEECA
     Copy CRC 68DDEECA
     Copy OK

Track 11

     Filename C:\Documents and Settings\Chris\Desktop\Stone Sour - Come What(ever) May (Special Edition) (FLAC)\11 - Stone Sour - Cardiff.wav

     Peak level 96.6 %
     Track quality 100.0 %
     Test CRC EE92A49B
     Copy CRC EE92A49B
     Copy OK

Track 12

     Filename C:\Documents and Settings\Chris\Desktop\Stone Sour - Come What(ever) May (Special Edition) (FLAC)\12 - Stone Sour - Zzyzx Rd..wav

     Pre-gap length  0:00:02.00

     Peak level 100.0 %
     Track quality 100.0 %
     Test CRC EF31C368
     Copy CRC EF31C368
     Copy OK

Track 13

     Filename C:\Documents and Settings\Chris\Desktop\Stone Sour - Come What(ever) May (Special Edition) (FLAC)\13 - Stone Sour - Suffer.wav

     Pre-gap length  0:00:01.68

     Peak level 96.6 %
     Track quality 100.0 %
     Test CRC F547D151
     Copy CRC F547D151
     Copy OK

Track 14

     Filename C:\Documents and Settings\Chris\Desktop\Stone Sour - Come What(ever) May (Special Edition) (FLAC)\14 - Stone Sour - Fruitcake.wav

     Peak level 96.6 %
     Track quality 100.0 %
     Test CRC BB4CF5A2
     Copy CRC BB4CF5A2
     Copy OK

Track 15

     Filename C:\Documents and Settings\Chris\Desktop\Stone Sour - Come What(ever) May (Special Edition) (FLAC)\15 - Stone Sour - The Day I Let Go.wav

     Peak level 96.6 %
     Track quality 100.0 %
     Test CRC F2920442
     Copy CRC F2920442
     Copy OK

Track 16

     Filename C:\Documents and Settings\Chris\Desktop\Stone Sour - Come What(ever) May (Special Edition) (FLAC)\16 - Stone Sour - Freeze Dry Seal.wav

     Peak level 96.6 %
     Track quality 100.0 %
     Test CRC C1C7E6F7
     Copy CRC C1C7E6F7
     Copy OK

Track 17

     Filename C:\Documents and Settings\Chris\Desktop\Stone Sour - Come What(ever) May (Special Edition) (FLAC)\17 - Stone Sour - Wicked Game.wav

     Peak level 96.6 %
     Track quality 100.0 %
     Test CRC 95A218C7
     Copy CRC 95A218C7
     Copy OK

Track 18

     Filename C:\Documents and Settings\Chris\Desktop\Stone Sour - Come What(ever) May (Special Edition) (FLAC)\18 - Stone Sour - The Frozen.wav

     Pre-gap length  0:00:02.46

     Peak level 93.2 %
     Track quality 100.0 %
     Test CRC A260BF78
     Copy CRC A260BF78
     Copy OK

No errors occurred

End of status report

Код:

REM GENRE Metal
REM DATE 2006
REM DISCID FB109912
REM COMMENT "ExactAudioCopy v0.99pb4"
PERFORMER "Stone Sour"
TITLE "Come What(ever) May (Special Edition)"
FILE "01 - Stone Sour - 30,30-150.wav" WAVE
  TRACK 01 AUDIO
    TITLE "30/30-150"
    PERFORMER "Stone Sour"
    INDEX 01 00:00:00
FILE "02 - Stone Sour - Come What(ever) May.wav" WAVE
  TRACK 02 AUDIO
    TITLE "Come What(ever) May"
    PERFORMER "Stone Sour"
    INDEX 01 00:00:00
FILE "03 - Stone Sour - Hell & Consequences.wav" WAVE
  TRACK 03 AUDIO
    TITLE "Hell & Consequences"
    PERFORMER "Stone Sour"
    INDEX 01 00:00:00
FILE "04 - Stone Sour - Sillyworld.wav" WAVE
  TRACK 04 AUDIO
    TITLE "Sillyworld"
    PERFORMER "Stone Sour"
    INDEX 01 00:00:00
FILE "05 - Stone Sour - Made Of Scars.wav" WAVE
  TRACK 05 AUDIO
    TITLE "Made Of Scars"
    PERFORMER "Stone Sour"
    INDEX 01 00:00:00
FILE "06 - Stone Sour - Reborn.wav" WAVE
  TRACK 06 AUDIO
    TITLE "Reborn"
    PERFORMER "Stone Sour"
    INDEX 01 00:00:00
FILE "07 - Stone Sour - Your God.wav" WAVE
  TRACK 07 AUDIO
    TITLE "Your God"
    PERFORMER "Stone Sour"
    INDEX 01 00:00:00
  TRACK 08 AUDIO
    TITLE "Trough Glass"
    PERFORMER "Stone Sour"
    INDEX 00 04:42:20
FILE "08 - Stone Sour - Trough Glass.wav" WAVE
    INDEX 01 00:00:00
FILE "09 - Stone Sour - Socio.wav" WAVE
  TRACK 09 AUDIO
    TITLE "Socio"
    PERFORMER "Stone Sour"
    INDEX 01 00:00:00
FILE "10 - Stone Sour - 1st Person.wav" WAVE
  TRACK 10 AUDIO
    TITLE "1st Person"
    PERFORMER "Stone Sour"
    INDEX 01 00:00:00
FILE "11 - Stone Sour - Cardiff.wav" WAVE
  TRACK 11 AUDIO
    TITLE "Cardiff"
    PERFORMER "Stone Sour"
    INDEX 01 00:00:00
  TRACK 12 AUDIO
    TITLE "Zzyzx Rd."
    PERFORMER "Stone Sour"
    INDEX 00 04:40:09
FILE "12 - Stone Sour - Zzyzx Rd..wav" WAVE
    INDEX 01 00:00:00
  TRACK 13 AUDIO
    TITLE "Suffer"
    PERFORMER "Stone Sour"
    INDEX 00 03:59:66
FILE "13 - Stone Sour - Suffer.wav" WAVE
    INDEX 01 00:00:00
FILE "14 - Stone Sour - Fruitcake.wav" WAVE
  TRACK 14 AUDIO
    TITLE "Fruitcake"
    PERFORMER "Stone Sour"
    INDEX 01 00:00:00
FILE "15 - Stone Sour - The Day I Let Go.wav" WAVE
  TRACK 15 AUDIO
    TITLE "The Day I Let Go"
    PERFORMER "Stone Sour"
    INDEX 01 00:00:00
FILE "16 - Stone Sour - Freeze Dry Seal.wav" WAVE
  TRACK 16 AUDIO
    TITLE "Freeze Dry Seal"
    PERFORMER "Stone Sour"
    INDEX 01 00:00:00
FILE "17 - Stone Sour - Wicked Game.wav" WAVE
  TRACK 17 AUDIO
    TITLE "Wicked Game"
    PERFORMER "Stone Sour"
    INDEX 01 00:00:00
  TRACK 18 AUDIO
    TITLE "The Frozen"
    PERFORMER "Stone Sour"
    INDEX 00 04:24:59
FILE "18 - Stone Sour - The Frozen.wav" WAVE
    INDEX 01 00:00:00
Лейбл:Roadrunner Japan Inc.
Кат. номер:527583 010043
01. Audio Secrecy (1:44)
02. Mission Statement (3:50)
03. Digital (Did You Tell) (4:00)
04. Say You'll Haunt Me (4:24)
05. Dying (3:01)
06. Let's Be Honest (3:44)
07. Unfinished (3:10)
08. Hesitate (4:16)
09. Nylon 6/6 (3:38)
10. Miracles (4:07)
11. Pieces (4:31)
12. The Bitter End (3:34)
13. Imperfect (4:22)
14. Threadbare (5:47)
15. Hate Not Gone (3:50)
16. Anna (3:30)
17. Home Again (3:54)

Код:

Exact Audio Copy V0.99 prebeta 5 from 4. May 2009

EAC extraction logfile from 16. September 2010, 21:05

Stone Sour / Audio Secrecy

Used drive  : Optiarc DVD RW AD-7191A   Adapter: 4  ID: 0

Read mode               : Secure
Utilize accurate stream : Yes
Defeat audio cache      : Yes
Make use of C2 pointers : No

Read offset correction                      : 6
Overread into Lead-In and Lead-Out          : No
Fill up missing offset samples with silence : Yes
Delete leading and trailing silent blocks   : No
Null samples used in CRC calculations       : Yes
Used interface                              : Native Win32 interface for Win NT & 2000
Gap handling                                : Appended to previous track

Used output format              : User Defined Encoder
Selected bitrate                : 1024 kBit/s
Quality                         : High
Add ID3 tag                     : No
Command line compressor         : C:\Program Files\Exact Audio Copy\Flac\flac.exe
Additional command line options : -8 -V -T "ARTIST=%a" -T "TITLE=%t" -T "ALBUM=%g" -T "DATE=%y" -T "TRACKNUMBER=%n" -T "GENRE=%m" -T "COMMENT=EAC FLAC ?8" %s

TOC of the extracted CD

     Track |   Start  |  Length  | Start sector | End sector
    ---------------------------------------------------------
        1  |  0:00.00 |  1:43.38 |         0    |     7762   
        2  |  1:43.38 |  3:50.37 |      7763    |    25049   
        3  |  5:34.00 |  4:00.12 |     25050    |    43061   
        4  |  9:34.12 |  4:24.28 |     43062    |    62889   
        5  | 13:58.40 |  3:01.09 |     62890    |    76473   
        6  | 16:59.49 |  3:44.29 |     76474    |    93302   
        7  | 20:44.03 |  3:10.28 |     93303    |   107580   
        8  | 23:54.31 |  4:16.26 |    107581    |   126806   
        9  | 28:10.57 |  3:38.14 |    126807    |   143170   
       10  | 31:48.71 |  4:07.12 |    143171    |   161707   
       11  | 35:56.08 |  4:30.52 |    161708    |   182009   
       12  | 40:26.60 |  3:33.47 |    182010    |   198031   
       13  | 44:00.32 |  4:22.21 |    198032    |   217702   
       14  | 48:22.53 |  5:46.42 |    217703    |   243694   
       15  | 54:09.20 |  3:50.15 |    243695    |   260959   
       16  | 57:59.35 |  3:29.70 |    260960    |   276704   
       17  | 61:29.30 |  3:54.00 |    276705    |   294254   

Track  1

     Filename C:\Documents and Settings\LEXUS\My Documents\My Music\Stone Sour\Audio Secrecy (Japanese Limited Edition)\01 – Audio Secrecy.wav

     Pre-gap length  0:00:02.00

     Peak level 71.8 %
     Track quality 100.0 %
     Test CRC 7D23E2A5
     Copy CRC 7D23E2A5
     Track not present in AccurateRip database
     Copy OK

Track  2

     Filename C:\Documents and Settings\LEXUS\My Documents\My Music\Stone Sour\Audio Secrecy (Japanese Limited Edition)\02 – Mission Statement.wav

     Peak level 100.0 %
     Track quality 100.0 %
     Test CRC 52CCC98F
     Copy CRC 52CCC98F
     Track not present in AccurateRip database
     Copy OK

Track  3

     Filename C:\Documents and Settings\LEXUS\My Documents\My Music\Stone Sour\Audio Secrecy (Japanese Limited Edition)\03 – Digital (Did You Tell).wav

     Peak level 97.7 %
     Track quality 100.0 %
     Test CRC D17DECA0
     Copy CRC D17DECA0
     Track not present in AccurateRip database
     Copy OK

Track  4

     Filename C:\Documents and Settings\LEXUS\My Documents\My Music\Stone Sour\Audio Secrecy (Japanese Limited Edition)\04 – Say You'll Haunt Me.wav

     Peak level 97.7 %
     Track quality 100.0 %
     Test CRC 7FE485CF
     Copy CRC 7FE485CF
     Track not present in AccurateRip database
     Copy OK

Track  5

     Filename C:\Documents and Settings\LEXUS\My Documents\My Music\Stone Sour\Audio Secrecy (Japanese Limited Edition)\05 – Dying.wav

     Peak level 97.7 %
     Track quality 100.0 %
     Test CRC CEB6A0C5
     Copy CRC CEB6A0C5
     Track not present in AccurateRip database
     Copy OK

Track  6

     Filename C:\Documents and Settings\LEXUS\My Documents\My Music\Stone Sour\Audio Secrecy (Japanese Limited Edition)\06 – Let's Be Honest.wav

     Peak level 97.7 %
     Track quality 100.0 %
     Test CRC 9C5DF8CF
     Copy CRC 9C5DF8CF
     Track not present in AccurateRip database
     Copy OK

Track  7

     Filename C:\Documents and Settings\LEXUS\My Documents\My Music\Stone Sour\Audio Secrecy (Japanese Limited Edition)\07 – Unfinished.wav

     Peak level 97.7 %
     Track quality 100.0 %
     Test CRC 6B890273
     Copy CRC 6B890273
     Track not present in AccurateRip database
     Copy OK

Track  8

     Filename C:\Documents and Settings\LEXUS\My Documents\My Music\Stone Sour\Audio Secrecy (Japanese Limited Edition)\08 – Hesitate.wav

     Peak level 100.0 %
     Track quality 99.9 %
     Test CRC 3FB3BF02
     Copy CRC 3FB3BF02
     Track not present in AccurateRip database
     Copy OK

Track  9

     Filename C:\Documents and Settings\LEXUS\My Documents\My Music\Stone Sour\Audio Secrecy (Japanese Limited Edition)\09 – Nylon 6,6.wav

     Peak level 97.7 %
     Track quality 100.0 %
     Test CRC 7E80243F
     Copy CRC 7E80243F
     Track not present in AccurateRip database
     Copy OK

Track 10

     Filename C:\Documents and Settings\LEXUS\My Documents\My Music\Stone Sour\Audio Secrecy (Japanese Limited Edition)\10 – Miracles.wav

     Peak level 97.7 %
     Track quality 100.0 %
     Test CRC DF6E26AA
     Copy CRC DF6E26AA
     Track not present in AccurateRip database
     Copy OK

Track 11

     Filename C:\Documents and Settings\LEXUS\My Documents\My Music\Stone Sour\Audio Secrecy (Japanese Limited Edition)\11 – Pieces.wav

     Peak level 97.7 %
     Track quality 100.0 %
     Test CRC 4DF37C45
     Copy CRC 4DF37C45
     Track not present in AccurateRip database
     Copy OK

Track 12

     Filename C:\Documents and Settings\LEXUS\My Documents\My Music\Stone Sour\Audio Secrecy (Japanese Limited Edition)\12 – The Bitter End.wav

     Peak level 97.7 %
     Track quality 100.0 %
     Test CRC F691ADDD
     Copy CRC F691ADDD
     Track not present in AccurateRip database
     Copy OK

Track 13

     Filename C:\Documents and Settings\LEXUS\My Documents\My Music\Stone Sour\Audio Secrecy (Japanese Limited Edition)\13 – Imperfect.wav

     Peak level 97.7 %
     Track quality 100.0 %
     Test CRC DC31EEF3
     Copy CRC DC31EEF3
     Track not present in AccurateRip database
     Copy OK

Track 14

     Filename C:\Documents and Settings\LEXUS\My Documents\My Music\Stone Sour\Audio Secrecy (Japanese Limited Edition)\14 – Threadbare.wav

     Peak level 97.7 %
     Track quality 100.0 %
     Test CRC 7E926582
     Copy CRC 7E926582
     Track not present in AccurateRip database
     Copy OK

Track 15

     Filename C:\Documents and Settings\LEXUS\My Documents\My Music\Stone Sour\Audio Secrecy (Japanese Limited Edition)\15 – Hate Not Gone.wav

     Peak level 97.7 %
     Track quality 100.0 %
     Test CRC 5EF45CDD
     Copy CRC 5EF45CDD
     Track not present in AccurateRip database
     Copy OK

Track 16

     Filename C:\Documents and Settings\LEXUS\My Documents\My Music\Stone Sour\Audio Secrecy (Japanese Limited Edition)\16 – Anna.wav

     Peak level 97.7 %
     Track quality 100.0 %
     Test CRC 33C379E1
     Copy CRC 33C379E1
     Track not present in AccurateRip database
     Copy OK

Track 17

     Filename C:\Documents and Settings\LEXUS\My Documents\My Music\Stone Sour\Audio Secrecy (Japanese Limited Edition)\17 – Home Again.wav

     Peak level 97.7 %
     Track quality 100.0 %
     Test CRC BE1A8604
     Copy CRC BE1A8604
     Track not present in AccurateRip database
     Copy OK

None of the tracks are present in the AccurateRip database

No errors occurred

End of status report

Код:

REM GENRE "Alt.metal/Hard rock"
REM DATE 2010
REM DISCID D90F5311
REM COMMENT "ExactAudioCopy v0.99pb5"
PERFORMER "Stone Sour"
TITLE "Audio Secrecy"
FILE "01 – Audio Secrecy.wav" WAVE
  TRACK 01 AUDIO
    TITLE "Audio Secrecy"
    PERFORMER "Stone Sour"
    FLAGS DCP
    INDEX 01 00:00:00
FILE "02 – Mission Statement.wav" WAVE
  TRACK 02 AUDIO
    TITLE "Mission Statement"
    PERFORMER "Stone Sour"
    FLAGS DCP
    INDEX 01 00:00:00
FILE "03 – Digital (Did You Tell).wav" WAVE
  TRACK 03 AUDIO
    TITLE "Digital (Did You Tell)"
    PERFORMER "Stone Sour"
    FLAGS DCP
    INDEX 01 00:00:00
FILE "04 – Say You'll Haunt Me.wav" WAVE
  TRACK 04 AUDIO
    TITLE "Say You'll Haunt Me"
    PERFORMER "Stone Sour"
    FLAGS DCP
    INDEX 01 00:00:00
FILE "05 – Dying.wav" WAVE
  TRACK 05 AUDIO
    TITLE "Dying"
    PERFORMER "Stone Sour"
    FLAGS DCP
    INDEX 01 00:00:00
FILE "06 – Let's Be Honest.wav" WAVE
  TRACK 06 AUDIO
    TITLE "Let's Be Honest"
    PERFORMER "Stone Sour"
    FLAGS DCP
    INDEX 01 00:00:00
FILE "07 – Unfinished.wav" WAVE
  TRACK 07 AUDIO
    TITLE "Unfinished"
    PERFORMER "Stone Sour"
    FLAGS DCP
    INDEX 01 00:00:00
FILE "08 – Hesitate.wav" WAVE
  TRACK 08 AUDIO
    TITLE "Hesitate"
    PERFORMER "Stone Sour"
    FLAGS DCP
    INDEX 01 00:00:00
FILE "09 – Nylon 6,6.wav" WAVE
  TRACK 09 AUDIO
    TITLE "Nylon 6/6"
    PERFORMER "Stone Sour"
    FLAGS DCP
    INDEX 01 00:00:00
FILE "10 – Miracles.wav" WAVE
  TRACK 10 AUDIO
    TITLE "Miracles"
    PERFORMER "Stone Sour"
    FLAGS DCP
    INDEX 01 00:00:00
FILE "11 – Pieces.wav" WAVE
  TRACK 11 AUDIO
    TITLE "Pieces"
    PERFORMER "Stone Sour"
    FLAGS DCP
    INDEX 01 00:00:00
FILE "12 – The Bitter End.wav" WAVE
  TRACK 12 AUDIO
    TITLE "The Bitter End"
    PERFORMER "Stone Sour"
    FLAGS DCP
    INDEX 01 00:00:00
FILE "13 – Imperfect.wav" WAVE
  TRACK 13 AUDIO
    TITLE "Imperfect"
    PERFORMER "Stone Sour"
    FLAGS DCP
    INDEX 01 00:00:00
FILE "14 – Threadbare.wav" WAVE
  TRACK 14 AUDIO
    TITLE "Threadbare"
    PERFORMER "Stone Sour"
    FLAGS DCP
    INDEX 01 00:00:00
FILE "15 – Hate Not Gone.wav" WAVE
  TRACK 15 AUDIO
    TITLE "Hate Not Gone"
    PERFORMER "Stone Sour"
    FLAGS DCP
    INDEX 01 00:00:00
FILE "16 – Anna.wav" WAVE
  TRACK 16 AUDIO
    TITLE "Anna"
    PERFORMER "Stone Sour"
    FLAGS DCP
    INDEX 01 00:00:00
FILE "17 – Home Again.wav" WAVE
  TRACK 17 AUDIO
    TITLE "Home Again"
    PERFORMER "Stone Sour"
    FLAGS DCP
    INDEX 01 00:00:00
Лейбл:Roadrunner Records
Кат. номер:RDRR10193-2
01. Made Of Scars (Radio Edit) (3:12)
02. Made Of Scars (Album Version) (3:24)

Код:

EAC extraction logfile from 16. October 2007, 9:58 for CD
Stone Sour / Made Of Scars (Single)

Used drive  : HL-DT-STDVDRAM GMA-4082N   Adapter: 0  ID: 0
Read mode   : Secure with NO C2, accurate stream, disable cache
Read offset correction : 667
Overread into Lead-In and Lead-Out : No

Used output format : C:\Program Files\Exact Audio Copy\flac-1.1.4-win\bin\flac.exe   (User Defined Encoder)
                     192 kBit/s
                     Additional command line options : -8 -A tukey(0.25) -A gauss(0.1875) -b 4096 -V -T "artist=%a" -T "title=%t" -T "album=%g" -T "date=%y" -T "tracknumber=%n" -T "genre=%m" %s --sector-align

Other options      :
    Fill up missing offset samples with silence : Yes
    Delete leading and trailing silent blocks : No
    Native Win32 interface for Win NT & 2000

Track  1
     Filename C:\Halfpint\My Torrents\Singles\Stone Sour - Made Of Scars\01 - Stone Sour - Made Of Scars (Radio Edit).wav

     Pre-gap length  0:00:02.00

     Peak level 96.6 %
     Track quality 100.0 %
     Test CRC 80B6B372
     Copy CRC 80B6B372
     Copy OK

Track  2
     Filename C:\Halfpint\My Torrents\Singles\Stone Sour - Made Of Scars\02 - Stone Sour - Made Of Scars (Album Version).wav

     Pre-gap length  0:00:02.00

     Peak level 96.6 %
     Track quality 100.0 %
     Test CRC DE0D1489
     Copy CRC DE0D1489
     Copy OK

No errors occured

End of status report

Код:

REM GENRE Rock
REM DATE 2007
REM DISCID 0F018B02
REM COMMENT "ExactAudioCopy v0.95b3"
PERFORMER "Stone Sour"
TITLE "Made Of Scars (Single)"
FILE "01 - Stone Sour - Made Of Scars (Radio Edit).wav" WAVE
  TRACK 01 AUDIO
    TITLE "Made Of Scars (Radio Edit)"
    PERFORMER "Stone Sour"
    INDEX 01 00:00:00
  TRACK 02 AUDIO
    TITLE "Made Of Scars (Album Version)"
    PERFORMER "Stone Sour"
    INDEX 00 03:09:56
FILE "02 - Stone Sour - Made Of Scars (Album Version).wav" WAVE
    INDEX 01 00:00:00
info [Профиль]  [ЛС] 

post 09-Окт-2010 21:38 (спустя 47 секунд) [-]0[+]

Топик был перенесен из форума Оформление раздач в форум Аltеrnаtivе, Рunk, Indереndеnt (lоsslеss)

Oneguns
 

Kenny69

Пол: Пол:Муж

Стаж: 7 лет 4 месяца

Сообщений: 1766

Россия
Рейтинг

post 09-Окт-2010 22:05 (спустя 27 минут) [-]0[+]

[Цитировать] 

Audio Secrecy (Japanese Limited Edition) - Идеальный
Остальные - точные

_________________
info [Профиль]  [ЛС] 

ksinfiniti

Пол: Пол:Муж

Стаж: 6 лет 8 месяцев

Сообщений: 113

Россия
Рейтинг

post 09-Окт-2010 22:35 (спустя 30 минут) [-]0[+]

[Цитировать] 

Спасибо, фанат rammstein стоит слушать?
info [Профиль]  [ЛС] 

Dimebag

Пол: Пол:Муж

Стаж: 7 лет 2 месяца

Сообщений: 43

Россия
Рейтинг

post 09-Окт-2010 22:44 (спустя 8 минут) [-]0[+]

[Цитировать] 

ksinfiniti
че сложно слить 3 альбома и оценить самому, или на ютуб слазить?
info [Профиль]  [ЛС] 

bigbossman

Пол: Пол:Муж

Стаж: 6 лет 7 месяцев

Сообщений: 80

Россия
Рейтинг

post 09-Окт-2010 22:50 (спустя 5 минут) [-]0[+]

[Цитировать] 

круто !!!!!!! kolob_109

_________________
̿ ̿ ̿'̿'\̵͇̿̿\з=(•̪●)=ε/̵͇̿̿/'̿'̿ ̿ ̿̿ ̿
info [Профиль]  [ЛС] 

hytos

Пол: Пол:Муж

Стаж: 7 лет 1 месяц

Сообщений: 1241

Рейтинг

post 09-Окт-2010 23:47 (спустя 57 минут) [-]0[+]

[Цитировать] 

Dimebag
не у всех скорость 2мб, поэтому скачка будет медленней, кстати а тебе сложно ответить, а?

ksinfiniti
я слушаю, фанат и тех и тех
info [Профиль]  [ЛС] 

Panky

Пол: Пол:Муж

Стаж: 6 лет 4 месяца

Сообщений: 4957

Россия
Рейтинг

post 10-Окт-2010 07:55 (спустя 8 часов) [-]0[+]

[Цитировать] 

Oneguns
спасибо, искал в лосслесс Да kolob_199 kolob_199

_________________
Водка. Матрешка. Балалайка.
По поводу обновления раздач R.G. Механики, писать сюда - http://tapochek.net/viewtopic.php?t=4883 или сюда - http://tapochek.net/privmsg.php?folder=inbox&u=280844
info [Профиль]  [ЛС] 

Resistance

Пол: Пол:Муж

Стаж: 7 лет 2 месяца

Сообщений: 3639

Россия
Рейтинг

post 10-Окт-2010 15:43 (спустя 7 часов) [-]1[+]

[Цитировать] 

Мдаааа, столько скачавших и качающих и не одного спасибо......не благодарные пошли.....
info [Профиль]  [ЛС] 

Nosferatysh

Пол: Пол:Муж

Стаж: 4 года 1 месяц

Сообщений: 38

Россия
Рейтинг

post 07-Авг-2013 23:46 (спустя 2 года 9 месяцев) [-]0[+]

[Цитировать] 

Resistance писал(а):

Мдаааа, столько скачавших и качающих и не одного спасибо......не благодарные пошли.....
Вот-вот,ну встаньте на раздачу кто-нибудь.
info [Профиль]  [ЛС] 
Показать сообщения:    
Ответить на тему

Текущее время: 07-Дек 01:53

Часовой пояс: GMT + 4



Вы не можете начинать темы
Вы не можете отвечать на сообщения
Вы не можете редактировать свои сообщения
Вы не можете удалять свои сообщения
Вы не можете голосовать в опросах
Вы не можете прикреплять файлы к сообщениям
Вы не можете скачивать файлы