Ошибка

(Acoustic Guitar) Andy McKee - Дискография (5 альбомов), 2004-2010, FLAC, lossless

Ответить на тему
 
Автор Сообщение

vovik0134

Пол: Пол:Муж

Стаж: 7 лет 3 месяца

Сообщений: 102

Россия
Рейтинг

post 21-Сен-2010 17:37 0[+]

[Цитировать] 

2004 Dreamcatcher - возможно неточный рип
2005 Art of Motion - точный рип
2007 The Gates of Gnomeria - точный рип
2008 Don Ross & Andy McKee - The Thing That Came From Somewhere - точный рип
2010 Joyland - точный рип


Andy McKee - Дискография


Жанр: Acoustic Guitar || Год выпуска диска: 2004-2010 || Производитель диска: USA || Аудио Кодек: FLAC || Битрейт аудио: lossless || Продолжительность: 3:34:32


Dreamcatcher '2004

Трэклист:
01. Common Ground (2:58)
02. Building a Memory (4:50)
03. Dreamcatcher (2:51)
04. When She Cries (3:43)
05. Art of Motion (3:27)
06. Into the Ocean (3:55)
07. Heather's Song (3:28)
08. Theme from Schindler's List (2:18)
09. Africa (4:16)
10. The Friend I Never Met (3:13)
11. I Will See You Again (3:40)
Время звучания: 38:40
Формат: Flac Tracks + Cue

Код:

EAC extraction logfile from 17. April 2008, 19:28 for CD
Andy Mckee / Dreamcatcher

Used drive : HL-DT-STDVD-RAM GSA-H22N Adapter: 1 ID: 1
Read mode : Secure with NO C2, accurate stream, NO disable cache
Combined read/write offset correction : 0
Overread into Lead-In and Lead-Out : No

Used output format : C:\Program Files (x86)\Exact Audio Copy\flac-1.1.4-win\bin\flac.exe (User Defined Encoder)
192 kBit/s
Additional command line options : -8 -A tukey(0.25) -A gauss(0.1875) -b 4096 -V -T "artist=%a" -T "title=%t" -T "album=%g" -T "date=%y" -T "tracknumber=%n" -T "genre=%m" %s --sector-align

Other options :
Fill up missing offset samples with silence : Yes
Delete leading and trailing silent blocks : No
Native Win32 interface for Win NT & 2000

Track 1
Filename E:\Audio\Celtic and Relaxation\Andy Mckee\Dreamcatcher (FLAC)\01 - Common Ground.wav

Pre-gap length 0:00:02.00

Peak level 100.0 %
Track quality 100.0 %
Test CRC 96693A1A
Copy CRC 96693A1A
Copy OK

Track 2
Filename E:\Audio\Celtic and Relaxation\Andy Mckee\Dreamcatcher (FLAC)\02 - Building A Memory.wav

Peak level 100.0 %
Track quality 100.0 %
Test CRC 99EB0E0E
Copy CRC 99EB0E0E
Copy OK

Track 3
Filename E:\Audio\Celtic and Relaxation\Andy Mckee\Dreamcatcher (FLAC)\03 - Dreamcatcher.wav

Pre-gap length 0:00:00.01

Peak level 100.0 %
Track quality 100.0 %
Test CRC 127791E5
Copy CRC 127791E5
Copy OK

Track 4
Filename E:\Audio\Celtic and Relaxation\Andy Mckee\Dreamcatcher (FLAC)\04 - When She Cries.wav

Pre-gap length 0:00:00.03

Peak level 100.0 %
Track quality 100.0 %
Test CRC 0A641E00
Copy CRC 0A641E00
Copy OK

Track 5
Filename E:\Audio\Celtic and Relaxation\Andy Mckee\Dreamcatcher (FLAC)\05 - Art Of Motion.wav

Pre-gap length 0:00:00.01

Peak level 100.0 %
Track quality 100.0 %
Test CRC D487F237
Copy CRC D487F237
Copy OK

Track 6
Filename E:\Audio\Celtic and Relaxation\Andy Mckee\Dreamcatcher (FLAC)\06 - Into The Ocean.wav

Peak level 100.0 %
Track quality 100.0 %
Test CRC DEADCD77
Copy CRC DEADCD77
Copy OK

Track 7
Filename E:\Audio\Celtic and Relaxation\Andy Mckee\Dreamcatcher (FLAC)\07 - Heather's Song.wav

Peak level 100.0 %
Track quality 99.9 %
Test CRC 3A06795E
Copy CRC 3A06795E
Copy OK

Track 8
Filename E:\Audio\Celtic and Relaxation\Andy Mckee\Dreamcatcher (FLAC)\08 - Theme From Schindler's List.wav

Peak level 95.0 %
Track quality 100.0 %
Test CRC 3AFCBB92
Copy CRC 3AFCBB92
Copy OK

Track 9
Filename E:\Audio\Celtic and Relaxation\Andy Mckee\Dreamcatcher (FLAC)\09 - Africa.wav

Peak level 100.0 %
Track quality 100.0 %
Test CRC 6F411C10
Copy CRC 6F411C10
Copy OK

Track 10
Filename E:\Audio\Celtic and Relaxation\Andy Mckee\Dreamcatcher (FLAC)\10 - The Friend I Never Met.wav

Pre-gap length 0:00:00.01

Peak level 100.0 %
Track quality 100.0 %
Test CRC 483AEB3D
Copy CRC 483AEB3D
Copy OK

Track 11
Filename E:\Audio\Celtic and Relaxation\Andy Mckee\Dreamcatcher (FLAC)\11 - I Will See You Again.wav

Pre-gap length 0:00:00.01

Peak level 100.0 %
Track quality 99.9 %
Test CRC 95E4298A
Copy CRC 95E4298A
Copy OK

No errors occured

End of status report

Код:

REM GENRE Acoustic
REM DATE 2004
REM DISCID 8309140B
REM COMMENT "ExactAudioCopy v0.95b3"
PERFORMER "Andy Mckee"
TITLE "Dreamcatcher"
FILE "01 - Common Ground.wav" WAVE
  TRACK 01 AUDIO
    TITLE "Common Ground"
    PERFORMER "Andy Mckee"
    FLAGS DCP
    INDEX 01 00:00:00
FILE "02 - Building A Memory.wav" WAVE
  TRACK 02 AUDIO
    TITLE "Building A Memory"
    PERFORMER "Andy Mckee"
    FLAGS DCP
    INDEX 01 00:00:00
  TRACK 03 AUDIO
    TITLE "Dreamcatcher"
    PERFORMER "Andy Mckee"
    FLAGS DCP
    INDEX 00 04:50:24
FILE "03 - Dreamcatcher.wav" WAVE
    INDEX 01 00:00:00
  TRACK 04 AUDIO
    TITLE "When She Cries"
    PERFORMER "Andy Mckee"
    FLAGS DCP
    INDEX 00 02:51:41
FILE "04 - When She Cries.wav" WAVE
    INDEX 01 00:00:00
  TRACK 05 AUDIO
    TITLE "Art Of Motion"
    PERFORMER "Andy Mckee"
    FLAGS DCP
    INDEX 00 03:43:22
FILE "05 - Art Of Motion.wav" WAVE
    INDEX 01 00:00:00
FILE "06 - Into The Ocean.wav" WAVE
  TRACK 06 AUDIO
    TITLE "Into The Ocean"
    PERFORMER "Andy Mckee"
    FLAGS DCP
    INDEX 01 00:00:00
FILE "07 - Heather's Song.wav" WAVE
  TRACK 07 AUDIO
    TITLE "Heather's Song"
    PERFORMER "Andy Mckee"
    FLAGS DCP
    INDEX 01 00:00:00
FILE "08 - Theme From Schindler's List.wav" WAVE
  TRACK 08 AUDIO
    TITLE "Theme From Schindler's List"
    PERFORMER "Andy Mckee"
    FLAGS DCP
    INDEX 01 00:00:00
FILE "09 - Africa.wav" WAVE
  TRACK 09 AUDIO
    TITLE "Africa"
    PERFORMER "Andy Mckee"
    FLAGS DCP
    INDEX 01 00:00:00
  TRACK 10 AUDIO
    TITLE "The Friend I Never Met"
    PERFORMER "Andy Mckee"
    FLAGS DCP
    INDEX 00 04:16:38
FILE "10 - The Friend I Never Met.wav" WAVE
    INDEX 01 00:00:00
  TRACK 11 AUDIO
    TITLE "I Will See You Again"
    PERFORMER "Andy Mckee"
    FLAGS DCP
    INDEX 00 03:13:14
FILE "11 - I Will See You Again.wav" WAVE
    INDEX 01 00:00:00


Art of Motion '2005

Трэклист:
01. Art Of Motion (3:26)
02. When She Cries (3:36)
03. Drifting (3:12)
04. For My Father (3:55)
05. Practice Is Perfect (3:00)
06. Shanghai (4:14)
07. Into The Ocean (3:52)
08. Nocturne (3:13)
09. Heather's Song (3:24)
10. Samus' Stardrive (2:42)
11. Keys To The Hovercar (3:49)
12. Rylynn (5:14)
Время звучания: 43:38
Формат: Flac Image+Cue

Код:

Exact Audio Copy V0.99 prebeta 4 from 23. January 2008

Andy McKee / Art Of Motion

Used drive : PLEXTOR CD-R PREMIUM Adapter: 1 ID: 0

Read mode : Secure

Utilize accurate stream : Yes

Defeat audio cache : Yes

Make use of C2 pointers : No

Read offset correction : 30

Overread into Lead-In and Lead-Out : No

Fill up missing offset samples with silence : Yes

Delete leading and trailing silent blocks : No

Null samples used in CRC calculations : Yes

Used interface : Native Win32 interface for Win NT & 2000

Used output format : Internal WAV Routines

Sample format : 44.100 Hz; 16 Bit; Stereo

TOC of the extracted CD

Track | Start | Length | Start sector | End sector

---------------------------------------------------------

1 | 0:00.00 | 3:25.43 | 0 | 15417

2 | 3:25.43 | 3:35.42 | 15418 | 31584

3 | 7:01.10 | 3:11.70 | 31585 | 45979

4 | 10:13.05 | 3:55.13 | 45980 | 63617

5 | 14:08.18 | 2:59.70 | 63618 | 77112

6 | 17:08.13 | 4:14.08 | 77113 | 96170

7 | 21:22.21 | 3:52.05 | 96171 | 113575

8 | 25:14.26 | 3:13.01 | 113576 | 128051

9 | 28:27.27 | 3:24.23 | 128052 | 143374

10 | 31:51.50 | 2:41.63 | 143375 | 155512

11 | 34:33.38 | 3:48.62 | 155513 | 172674

12 | 38:22.25 | 5:13.52 | 172675 | 196201

Range status and errors

Selected range

Filename C:\MUSIC\CDImage.wav

Peak level 98.8 %

Range quality 100.0 %

Test CRC 5144DD9D

Copy CRC 5144DD9D

Copy OK

No errors occurred

End of status report

Код:

REM GENRE Acoustic
REM DATE 2005
PERFORMER "Andy McKee"
TITLE "Art Of Motion"
FILE "CDImage.flac" WAVE
  TRACK 01 AUDIO
    TITLE "Art Of Motion"
    INDEX 01 00:00:00
  TRACK 02 AUDIO
    TITLE "When She Cries"
    INDEX 00 03:23:43
    INDEX 01 03:25:43
  TRACK 03 AUDIO
    TITLE "Drifting"
    INDEX 00 06:59:10
    INDEX 01 07:01:10
  TRACK 04 AUDIO
    TITLE "For My Father"
    INDEX 00 10:11:05
    INDEX 01 10:13:05
  TRACK 05 AUDIO
    TITLE "Practice Is Perfect"
    INDEX 00 14:06:18
    INDEX 01 14:08:18
  TRACK 06 AUDIO
    TITLE "Shanghai"
    INDEX 00 17:06:13
    INDEX 01 17:08:13
  TRACK 07 AUDIO
    TITLE "Into The Ocean"
    INDEX 00 21:20:21
    INDEX 01 21:22:21
  TRACK 08 AUDIO
    TITLE "Nocturne"
    INDEX 00 25:12:26
    INDEX 01 25:14:26
  TRACK 09 AUDIO
    TITLE "Heather's Song"
    INDEX 00 28:25:27
    INDEX 01 28:27:27
  TRACK 10 AUDIO
    TITLE "Samus' Stardrive"
    INDEX 00 31:49:50
    INDEX 01 31:51:50
  TRACK 11 AUDIO
    TITLE "Keys To The Hovercar"
    INDEX 00 34:31:38
    INDEX 01 34:33:38
  TRACK 12 AUDIO
    TITLE "Rylynn"
    INDEX 00 38:20:25
    INDEX 01 38:22:25


The Gates of Gnomeria '2007

Трэклист:
01. The Gates of Gnomeria (5:39)
02. I'll Be Over You (3:24)
03. 7-14 (3:27)
04. A Sphere (3:22)
05. Ouray (2:21)
06. All Laid Back and Stuff (2:45)
07. Nakagawa-san (4:34)
08. Dependant Arising (4:46)
09. Venus as a Girl (4:28)
10. She (3:01)
11. Ebon Coast (5:06)
Время звучания: 42:59
Формат: Flac Image+Cue

Код:

Exact Audio Copy V0.99 prebeta 4 from 23. January 2008

Andy McKee / The Gates of Gnomeria

Used drive : PLEXTOR CD-R PREMIUM Adapter: 1 ID: 0

Read mode : Secure

Utilize accurate stream : Yes

Defeat audio cache : Yes

Make use of C2 pointers : No

Read offset correction : 30

Overread into Lead-In and Lead-Out : No

Fill up missing offset samples with silence : Yes

Delete leading and trailing silent blocks : No

Null samples used in CRC calculations : Yes

Used interface : Native Win32 interface for Win NT & 2000

Used output format : Internal WAV Routines

Sample format : 44.100 Hz; 16 Bit; Stereo

TOC of the extracted CD

Track | Start | Length | Start sector | End sector

---------------------------------------------------------

1 | 0:00.00 | 5:39.26 | 0 | 25450

2 | 5:39.26 | 3:24.19 | 25451 | 40769

3 | 9:03.45 | 3:26.68 | 40770 | 56287

4 | 12:30.38 | 3:22.11 | 56288 | 71448

5 | 15:52.49 | 2:21.22 | 71449 | 82045

6 | 18:13.71 | 2:45.31 | 82046 | 94451

7 | 20:59.27 | 4:34.25 | 94452 | 115026

8 | 25:33.52 | 4:46.13 | 115027 | 136489

9 | 30:19.65 | 4:28.31 | 136490 | 156620

10 | 34:48.21 | 3:01.17 | 156621 | 170212

11 | 37:49.38 | 5:06.37 | 170213 | 193199

Range status and errors

Selected range

Filename C:\MUSIC\CDImage.wav

Peak level 98.0 %

Range quality 100.0 %

Test CRC 4F664BDB

Copy CRC 4F664BDB

Copy OK

No errors occurred

End of status report

Код:

REM DATE 2007
REM DISCID 820A100B
REM COMMENT ExactAudioCopy v0.99pb4
PERFORMER "Andy McKee"
TITLE "The Gates of Gnomeria"
FILE "CDImage.flac" WAVE
  TRACK 01 AUDIO
    TITLE "The Gates of Gnomeria"
    FLAGS DCP
    INDEX 01 00:00:00
  TRACK 02 AUDIO
    TITLE "I'll Be Over You"
    FLAGS DCP
    INDEX 00 05:37:72
    INDEX 01 05:39:26
  TRACK 03 AUDIO
    TITLE "7-14"
    FLAGS DCP
    INDEX 00 09:02:16
    INDEX 01 09:03:45
  TRACK 04 AUDIO
    TITLE "A Sphere"
    FLAGS DCP
    INDEX 00 12:29:09
    INDEX 01 12:30:38
  TRACK 05 AUDIO
    TITLE "Ouray"
    FLAGS DCP
    INDEX 00 15:51:20
    INDEX 01 15:52:49
  TRACK 06 AUDIO
    TITLE "All Laid Back and Stuff"
    FLAGS DCP
    INDEX 00 18:12:42
    INDEX 01 18:13:71
  TRACK 07 AUDIO
    TITLE "Nakagawa-san"
    FLAGS DCP
    INDEX 00 20:57:73
    INDEX 01 20:59:27
  TRACK 08 AUDIO
    TITLE "Dependant Arising"
    FLAGS DCP
    INDEX 00 25:32:23
    INDEX 01 25:33:52
  TRACK 09 AUDIO
    TITLE "Venus as a Girl"
    FLAGS DCP
    INDEX 00 30:18:36
    INDEX 01 30:19:65
  TRACK 10 AUDIO
    TITLE "She"
    FLAGS DCP
    INDEX 00 34:46:67
    INDEX 01 34:48:21
  TRACK 11 AUDIO
    TITLE "Ebon Coast"
    FLAGS DCP
    INDEX 00 37:48:09
    INDEX 01 37:49:38


Don Ross & Andy McKee - The Thing That Came From Somewhere '2008

Трэклист:
1. Spirit of the West (3:56)
2. Rylynn (5:54)
3. The Thing... (5:28)
4. Dolphins (4:20)
5. Ouray (2:36)
6. Tight Trite Night (4:36)
7. Hoover the Musical Dog (3:24)
8. Ebon Coast (5:52)
9. Dreamcatcher (2:52)
10. With You In Mind (5:44)
11. Klimbim (4:18)
Время звучания: 49:05
Формат: Flac Image+Cue

Код:

Exact Audio Copy V0.99 prebeta 4 from 23. January 2008

EAC extraction logfile from 8. August 2008, 1:00

Don Ross & Andy McKee / The Thing That Came From Somewhere

Used drive : PLEXTOR CD-R PREMIUM Adapter: 1 ID: 0

Read mode : Secure
Utilize accurate stream : Yes
Defeat audio cache : Yes
Make use of C2 pointers : No

Read offset correction : 30
Overread into Lead-In and Lead-Out : No
Fill up missing offset samples with silence : Yes
Delete leading and trailing silent blocks : No
Null samples used in CRC calculations : Yes
Used interface : Native Win32 interface for Win NT &2000

Used output format : Internal WAV Routines
Sample format : 44.100 Hz; 16 Bit; Stereo

TOC of the extracted CD

Track | Start | Length | Start sector | End sector
---------------------------------------------------------
1 | 0:00.00 | 3:56.58 | 0 | 17757
2 | 3:56.58 | 5:54.18 | 17758 | 44325
3 | 9:51.01 | 5:28.50 | 44326 | 68975
4 | 15:19.51 | 4:20.01 | 68976 | 88476
5 | 19:39.52 | 2:36.49 | 88477 | 100225
6 | 22:16.26 | 4:36.36 | 100226 | 120961
7 | 26:52.62 | 3:24.51 | 120962 | 136312
8 | 30:17.38 | 5:52.19 | 136313 | 162731
9 | 36:09.57 | 2:52.23 | 162732 | 175654
10 | 39:02.05 | 5:44.65 | 175655 | 201519
11 | 44:46.70 | 4:18.19 | 201520 | 220888

Range status and errors

Selected range

Filename G:\Don Ross & Andy McKee - The Thing That Came From Somewhere.wav

Peak level 98.8 %
Range quality 100.0 %
Copy CRC B2BF5592
Copy OK

No errors occurred

End of status report

Код:

REM GENRE Folk
REM DATE 2008
REM DISCID 950B810B
REM COMMENT "ExactAudioCopy v0.99pb4"
PERFORMER "Don Ross & Andy McKee"
TITLE "The Thing That Came From Somewhere"
FILE "Don Ross & Andy McKee - The Thing That Came From Somewhere.flac" WAVE
  TRACK 01 AUDIO
    TITLE "Spirit of the West"
    PERFORMER "Don Ross & Andy McKee"
    INDEX 01 00:00:00
  TRACK 02 AUDIO
    TITLE "Rylynn"
    PERFORMER "Don Ross & Andy McKee"
    INDEX 01 03:56:58
  TRACK 03 AUDIO
    TITLE "The Thing That Came From Somewhere"
    PERFORMER "Don Ross & Andy McKee"
    INDEX 01 09:51:01
  TRACK 04 AUDIO
    TITLE "Dolphins"
    PERFORMER "Don Ross & Andy McKee"
    INDEX 00 15:19:49
    INDEX 01 15:19:51
  TRACK 05 AUDIO
    TITLE "Ouray"
    PERFORMER "Don Ross & Andy McKee"
    INDEX 01 19:39:52
  TRACK 06 AUDIO
    TITLE "Tight Trite Night"
    PERFORMER "Don Ross & Andy McKee"
    INDEX 00 22:16:24
    INDEX 01 22:16:26
  TRACK 07 AUDIO
    TITLE "Hoover the Musical Dog"
    PERFORMER "Don Ross & Andy McKee"
    INDEX 01 26:52:62
  TRACK 08 AUDIO
    TITLE "Ebon Coast"
    PERFORMER "Don Ross & Andy McKee"
    INDEX 01 30:17:38
  TRACK 09 AUDIO
    TITLE "Dreamcatcher"
    PERFORMER "Don Ross & Andy McKee"
    INDEX 01 36:09:57
  TRACK 10 AUDIO
    TITLE "With You In Mind"
    PERFORMER "Don Ross & Andy McKee"
    INDEX 00 39:02:04
    INDEX 01 39:02:05
  TRACK 11 AUDIO
    TITLE "Klimbim"
    PERFORMER "Don Ross & Andy McKee"
    INDEX 01 44:46:70


Joyland '2010

Трэклист:
1. Joyland (4:33)
2. Blue Liquid (5:26)
3. Away (4:08)
4. Everybody Wants to Rule the World (3:55)
5. Never Grow Old (3:53)
6. Upward Mobility (3:35)
7. Hunter's Moon (4:19)
8. My Life As A CPA (Parallel Universe #43) (4:15)
9. Layover (2:41)
10. For Now (3:12)
Время звучания: 40:00
Формат: Flac Tracks

Код:

EAC extraction logfile from 22. February 2010, 23:32 for CD
Andy McKee / Joyland

Used drive : Optiarc DVD RW AD-7240S Adapter: 1 ID: 0
Read mode : Secure with NO C2, accurate stream, disable cache
Read offset correction : 48
Overread into Lead-In and Lead-Out : No

Used output format : C:\Program Files (x86)\Exact Audio Copy\flac.exe (User Defined Encoder)
192 kBit/s
Additional command line options : -V -5 -T "artist=%a" -T "title=%t" -T "album=%g" -T "date=%y" -T "tracknumber=%n" -T "genre=%m" %s

Other options :
Fill up missing offset samples with silence : Yes
Delete leading and trailing silent blocks : No
Native Win32 interface for Win NT & 2000

Track 1
Filename X:\Music Collection\Andy McKee\Andy McKee - Joyland (FLAC)\01 Joyland.wav

Pre-gap length 0:00:02.00

Peak level 97.7 %
Track quality 100.0 %
Test CRC 65859890
Copy CRC 65859890
Copy OK

Track 2
Filename X:\Music Collection\Andy McKee\Andy McKee - Joyland (FLAC)\02 Blue Liquid.wav

Pre-gap length 0:00:02.00

Peak level 97.8 %
Track quality 99.9 %
Test CRC 52D55651
Copy CRC 52D55651
Copy OK

Track 3
Filename X:\Music Collection\Andy McKee\Andy McKee - Joyland (FLAC)\03 Away.wav

Peak level 97.7 %
Track quality 100.0 %
Test CRC 6F8A3D82
Copy CRC 6F8A3D82
Copy OK

Track 4
Filename X:\Music Collection\Andy McKee\Andy McKee - Joyland (FLAC)\04 Everybody Wants to Rule the World.wav

Pre-gap length 0:00:01.00

Peak level 97.7 %
Track quality 100.0 %
Test CRC 84046A96
Copy CRC 84046A96
Copy OK

Track 5
Filename X:\Music Collection\Andy McKee\Andy McKee - Joyland (FLAC)\05 Never Grow Old.wav

Pre-gap length 0:00:02.00

Peak level 97.7 %
Track quality 100.0 %
Test CRC 66B6B08B
Copy CRC 66B6B08B
Copy OK

Track 6
Filename X:\Music Collection\Andy McKee\Andy McKee - Joyland (FLAC)\06 Upward Mobility.wav

Peak level 88.1 %
Track quality 100.0 %
Test CRC 4D1B22D8
Copy CRC 4D1B22D8
Copy OK

Track 7
Filename X:\Music Collection\Andy McKee\Andy McKee - Joyland (FLAC)\07 Hunter's Moon.wav

Pre-gap length 0:00:02.00

Peak level 97.7 %
Track quality 100.0 %
Test CRC B79ACAC5
Copy CRC B79ACAC5
Copy OK

Track 8
Filename X:\Music Collection\Andy McKee\Andy McKee - Joyland (FLAC)\08 My Life As a CPA (Parallel Universe #43).wav

Pre-gap length 0:00:00.46

Peak level 97.7 %
Track quality 100.0 %
Test CRC 2CBDD52B
Copy CRC 2CBDD52B
Copy OK

Track 9
Filename X:\Music Collection\Andy McKee\Andy McKee - Joyland (FLAC)\09 Layover.wav

Pre-gap length 0:00:02.00

Peak level 97.7 %
Track quality 100.0 %
Test CRC 0E1C521B
Copy CRC 0E1C521B
Copy OK

Track 10
Filename X:\Music Collection\Andy McKee\Andy McKee - Joyland (FLAC)\10 For Now.wav

Pre-gap length 0:00:02.00

Peak level 98.8 %
Track quality 99.9 %
Test CRC 16934EF3
Copy CRC 16934EF3
Copy OK

No errors occured

End of status report



Убедительная просьба - скачал сам, помоги скачать другим, не уходи с раздачи
info [Профиль]  [ЛС] 

post 21-Сен-2010 17:38 (спустя 1 минута) [-]0[+]

Топик был перенесен из форума Оформление раздач (Музыка и Музыкальное видео) в форум Flamenco, Акустическая гитара (lossless)

vovik0134
 
Показать сообщения:    
Ответить на тему

Текущее время: 08-Дек 08:06

Часовой пояс: GMT + 4



Вы не можете начинать темы
Вы не можете отвечать на сообщения
Вы не можете редактировать свои сообщения
Вы не можете удалять свои сообщения
Вы не можете голосовать в опросах
Вы не можете прикреплять файлы к сообщениям
Вы не можете скачивать файлы