Ошибка

[iPhone/iPod Touch] Темный рыцарь / The Dark Knight (Кристофер Нолан) [2008 г., Боевик, драма, приключения, криминал, детектив, BDRip] [480 x 192]

Ответить на тему
 
Автор Сообщение

GooDAnDReaDY

Пол: Пол:Муж

Стаж: 13 лет

Сообщений: 793

Россия
Рейтинг

post 14-Сен-2010 20:14 0[+]

[Цитировать] 


Темный рыцарь / The Dark Knight
«Добро пожаловать в мир Хаоса!»

Релиз подготовлен R.G. Mobile Revue.

pic="http://s001.youpic.su/pictures/1284397200/8533d8afe1c986cb5b2e3e3b55147110.png"
Год выпуска: 2008
Страна: США
Жанр: Боевик, драма, приключения, криминал, детектив
Продолжительность: 02:32:13
Перевод : Профессиональный (полное дублирование)
Режиссёр: Кристофер Нолан
В ролях: Кристиан Бэйл, Хит Леджер, Аарон Экхарт, Майкл Кейн, Мэгги Джилленхол, Гари Олдман, Морган Фриман, Моника Карнен, Рон Дин, Киллиан Мерфи
Описание: Бэтмен поднимает ставки в войне с криминалом. С помощью лейтенанта Джима Гордона и прокурора Харви Дента он намерен очистить улицы от преступности, отравляющей город. Сотрудничество оказывается эффективным, но скоро они обнаружат себя посреди хаоса, развязанного восходящим криминальным гением, известным испуганным горожанам под именем Джокер...
Качество исходника: BDRip
Формат: M4V
Видео кодек: H.264
Аудио кодек: AAC
Видео: 640 Kbit/s, 480x192@720x400 (1.80:1), 23.976 fps, 0.290 bit/pix
Аудио: 128 Kbit/s, 48 kHz, 2 ch
Вшитая обложка: Есть
Тэги: Прописаны
| |


Код:

General
Complete name                    : G:\Видео\Тёмный Рыцарь\Temniy.Rytsar .2008.m4v
Format                           : MPEG-4
Format profile                   : Base Media / Version 2
Codec ID                         : mp42
File size                        : 840 MiB
Duration                         : 2h 32mn
Overall bit rate                 : 772 Kbps
Movie name                       : Темный рыцарь / The Dark Knight
Performer                        : Кристофер Нолан
Genre                            : Action, Crime, Drama, Thriller
Encoded date                     : 2008-07-14T00:00:00
Tagged date                      : UTC 2010-09-14 15:48:37
Writing application              : HandBrake 0.9.4 2009112300
Cover                            : Yes
iTunEXTC                         : mpaa|PG-13|300|
iTunMOVI                         : <?xml version="1.0" encoding="UTF-8"?> / <!DOCTYPE plist PUBLIC "-//Apple//DTD PLIST 1.0//EN" "http://www.apple.com/DTDs/PropertyList-1.0.dtd"> / <plist version="1.0"> / <dict> /   <key>cast</key> /   <array> /     <dict> /       <key>name</key> /       <string>Кристиан Бэйл</string> /     </dict> /     <dict> /       <key>name</key> /       <string>Гэри Олдман</string> /     </dict> /     <dict> /       <key>name</key> /       <string>Аарон Экхарт</string> /     </dict> /     <dict> /       <key>name</key> /       <string>Майкл Кейн</string> /     </dict> /     <dict> /       <key>name</key> /       <string>Хит Леджер</string> /     </dict> /     <dict> /       <key>name</key> /       <string>Мэгги Джилленхаал</string> /     </dict> /     <dict> /       <key>name</key> /       <string>Морган Фримэн</string> /     </dict> /     <dict> /       <key>name</key> /       <string>Киллиан Мерфи</string> /     </dict> /   </array> /   <key>directors</key> /   <array> /     <dict> /       <key>name</key> /       <string>Кристофер Нолан</string> /     </dict> /   </array> /   <key>producers</key> /   <array> /     <dict> /       <key>name</key> /       <string>Кевин Де Ла Ной</string> /     </dict> /     <dict> /       <key>name</key> /       <string>Джордан Голдберг</string> /     </dict> /     <dict> /       <key>name</key> /       <string>Филип Ли</string> /     </dict> /   </array> /   <key>screenwriters</key> /   <array> /     <dict> /       <key>name</key> /       <string>Джонатан Нолан</string> /     </dict> /     <dict> /       <key>name</key> /       <string>Кристофер Нолан</string> /     </dict> /     <dict> /       <key>name</key> /       <string>Дэвид С. Гойер</string> /     </dict> /   </array> / </dict> / </plist>
desc                             : «Добро пожаловать в мир Хаоса!»
ldes                             : Бэтмен поднимает ставки в войне с криминалом. С помощью лейтенанта Джима Гордона и прокурора Харви Дента он намерен очистить улицы от преступности, отравляющей город. Сотрудничество оказывается эффективным, но скоро они обнаружат себя посреди хаоса, развязанного восходящим криминальным гением, известным испуганным горожанам под именем Джокер.
stik                             : 9

Video
ID                               : 1
Format                           : AVC
Format/Info                      : Advanced Video Codec
Format profile                   : Baseline@L2.0
Format settings, CABAC           : No
Format settings, ReFrames        : 2 frames
Codec ID                         : avc1
Codec ID/Info                    : Advanced Video Coding
Duration                         : 2h 32mn
Bit rate mode                    : Variable
Bit rate                         : 640 Kbps
Width                            : 480 pixels
Height                           : 192 pixels
Display aspect ratio             : 2.500
Frame rate mode                  : Variable
Frame rate                       : 23.976 fps
Minimum frame rate               : 11.987 fps
Maximum frame rate               : 23.981 fps
Color space                      : YUV
Chroma subsampling               : 4:2:0
Bit depth                        : 8 bits
Scan type                        : Progressive
Bits/(Pixel*Frame)               : 0.290
Stream size                      : 697 MiB (83%)
Writing library                  : x264 core 79
Encoding settings                : cabac=0 / ref=2 / deblock=1:0:0 / analyse=0x1:0x111 / me=umh / subme=6 / psy=1 / psy_rd=1.0:0.0 / mixed_ref=1 / me_range=16 / chroma_me=1 / trellis=0 / 8x8dct=0 / cqm=0 / deadzone=21,11 / chroma_qp_offset=-2 / threads=6 / nr=0 / decimate=1 / mbaff=0 / constrained_intra=0 / bframes=0 / wpredp=0 / keyint=240 / keyint_min=24 / scenecut=40 / rc_lookahead=40 / rc=2pass / mbtree=1 / bitrate=640 / ratetol=1.0 / qcomp=0.60 / qpmin=10 / qpmax=51 / qpstep=4 / cplxblur=20.0 / qblur=0.5 / ip_ratio=1.40 / aq=1:1.00
Encoded date                     : UTC 2010-09-13 12:22:01
Tagged date                      : UTC 2010-09-13 12:38:07
Color primaries                  : BT.601-6 525, BT.1358 525, BT.1700 NTSC, SMPTE 170M
Transfer characteristics         : BT.709-5, BT.1361
Matrix coefficients              : BT.601-6 525, BT.1358 525, BT.1700 NTSC, SMPTE 170M

Audio
ID                               : 2
Format                           : AAC
Format/Info                      : Advanced Audio Codec
Format version                   : Version 4
Format profile                   : LC
Format settings, SBR             : No
Codec ID                         : 40
Duration                         : 2h 32mn
Bit rate mode                    : Variable
Bit rate                         : 128 Kbps
Maximum bit rate                 : 211 Kbps
Channel(s)                       : 2 channels
Channel positions                : Front: L R
Sampling rate                    : 48.0 KHz
Stream size                      : 139 MiB (17%)
Encoded date                     : UTC 2010-09-13 12:22:01
Tagged date                      : UTC 2010-09-13 12:38:07

info [Профиль]  [ЛС] 

AnGold

Пол: Пол:Муж

Стаж: 12 лет

Сообщений: 155

Люксембург
Рейтинг

post 17-Сен-2010 16:22 (спустя 2 дня 20 часов) [-]0[+]

[Цитировать] 

Раздавай давай! Мне нужен фильм. У меня 10М а качает со скорость 1/4 мегабита...ужас!
info [Профиль]  [ЛС] 

GooDAnDReaDY

Пол: Пол:Муж

Стаж: 13 лет

Сообщений: 793

Россия
Рейтинг

post 17-Сен-2010 16:34 (спустя 11 минут) [-]0[+]

[Цитировать] 

AnGold писал(а):

Раздавай давай! Мне нужен фильм. У меня 10М а качает со скорость 1/4 мегабита...ужас!
Посмотри на мою скорость отдачи в профиле - она на самом деле такая Подмигиваю
А поддерживаю я не только эту раздачу Улыбаюсь

_________________
Case: NZXT H710i | MB: ROG STRIX Z490-E GAMING | CPU: Intel Core i7-10700K | RAM: 32Gb(2x16Gb) 3466MHz Kingston HyperX Fury | GPU: EVGA GeForce RTX 3080 FTW3 ULTRA GAMING 10G | Power: be quiet! Straight Power 11 750W | Cooler: NZXT Kraken X63 RL-KRX63-01 280mm | NVME SSD: Samsung 970 EVO Plus 500 GB | SSD: Samsung 860 EVO 1000 | SSD: SMARTBUY Ignition 4 480 Гб | NAS: AS6404T 40 Tb | D\U: 1 Gbit/s
info [Профиль]  [ЛС] 

AnGold

Пол: Пол:Муж

Стаж: 12 лет

Сообщений: 155

Люксембург
Рейтинг

post 17-Сен-2010 16:57 (спустя 23 минуты) [-]0[+]

[Цитировать] 

GooDAnDReaDY писал(а):

AnGold писал(а):

Раздавай давай! Мне нужен фильм. У меня 10М а качает со скорость 1/4 мегабита...ужас!
Посмотри на мою скорость отдачи в профиле - она на самом деле такая Подмигиваю
А поддерживаю я не только эту раздачу Улыбаюсь
Жаль. 4 часа ждать... kolob_124
info [Профиль]  [ЛС] 

post 14-Май-2013 06:53 (спустя 2 года 7 месяцев) [-]0[+]

Топик был перенесен из форума Видео (iPhone/iPod Touch/iPad) в форум Архив (Apple Mobile Device Software)

timewritter
 
Показать сообщения:    
Ответить на тему

Текущее время: 13-Авг 22:22

Часовой пояс: GMT + 4



Вы не можете начинать темы
Вы не можете отвечать на сообщения
Вы не можете редактировать свои сообщения
Вы не можете удалять свои сообщения
Вы не можете голосовать в опросах
Вы не можете прикреплять файлы к сообщениям
Вы не можете скачивать файлы