Ошибка

(Drum and bass, Electronic rock, Electronica) Pendulum - Дискография - 2005 - 2010, FLAC (tracks+.cue), lossless

Ответить на тему
 
Автор Сообщение

Resistance

Пол: Пол:Муж

Стаж: 7 лет 2 месяца

Сообщений: 3639

Россия
Рейтинг

post 11-Сен-2010 19:27 0[+]

[Цитировать] 

pic="http://i066.radikal.ru/1009/e1/a8d4c58c6ae7.jpg"
Жанр: Alternative rock, Drum and bass, Electronic rock, Electronica || Происхождение исполнителя: Australia || Год: 2005-2010
Аудио кодек: FLAC || Тип релиза: tracks+.cue || Битрейт аудио: lossless || Продолжительность: 9:21:40

Цитата:

Pendulum (русск. Маятник(Пэ'ндулум) — австралийский музыкальный коллектив, сформированный в середине 2002 года. Считается одной из наиболее прогрессивных drum’n’bass-команд, отличается своим особым звучанием. Сингл Pendulum «Vault» стал одним из самых громких релизов 2003 года, получив премию журнала «Knowledge Magazine» — «Best Single of 2003». C этого момента продвижением и продюсированием Pendulum занялись одни из наиболее влиятельных людей в drum’n’bass-индустрии — Adam F и Fresh (Bad Company). Новое звучание Pendulum настолько привлекло их внимание, что коллективу было предложено присоединиться к только открывшемуся на тот момент, а ныне очень влиятельному лейблу — Breakbeat Kaos. Итогом этого союза стало появление суперсингла — Another Planet, а также альбома «Voyager». Летом 2005 года Pendulum выпускают альбом «Hold Your Colour», трэки из которого сразу же оказываются на первых местах чартов. Появляется видеоклип на композицию «Slam». Сразу же после выхода этого альбома Pendulum выпускают сингл на XL Recordings с ремиксом на песню Prodigy — «Voodoo People». Итогом этого становятся съемки совместного клипа двух коллективов.
01. Prelude (0:52)
02. Slam (5:45)
03. Plasticworld (featuring Fats and TC) (6:22)
04. Fasten Your Seatbelt (featuring The Freestylers) (6:38)
05. Through The Loop (6:14)
06. Sounds Of Life (featuring Jasmine Yee) (5:22)
07. Girl In The Fire (4:54)
08. Tarantula (featuring Fresh, Spyda and Tenor Fly) (5:31)
09. Out Here (6:07)
10. Hold Your Colour (5:28)
11. The Terminal (5:43)
12. Streamline (5:23)
13. Another Planet (7:38)
14. Still Grey (7:52)

Код:

EAC extraction logfile from 19. April 2007, 5:57 for CD
Pendulum / Hold Your Colour

Used drive  : HL-DT-STDVD-ROM GDR8164B   Adapter: 0  ID: 0
Read mode   : Secure with NO C2, accurate stream, disable cache
Read offset correction : 102
Overread into Lead-In and Lead-Out : No

Used output format : C:\Program Files\FLAC\flac.exe   (User Defined Encoder)
                     128 kBit/s
                     Additional command line options : -V -8 -T "artist=%a" -T "title=%t" -T "album=%g" -T "date=%y" -T "tracknumber=%n" -T "genre=%m" %s

Other options      :
    Fill up missing offset samples with silence : Yes
    Delete leading and trailing silent blocks : No
    Native Win32 interface for Win NT & 2000

Track  1
     Filename C:\Documents and Settings\Yo Momma\Desktop\Oink\Pendulum\Hold Your Colour (FLAC)\01 - Pendulum - Prelude.wav

     Pre-gap length  0:00:02.00

     Peak level 99.2 %
     Track quality 99.7 %
     Test CRC FBCAB118
     Copy CRC FBCAB118
     Copy OK

Track  2
     Filename C:\Documents and Settings\Yo Momma\Desktop\Oink\Pendulum\Hold Your Colour (FLAC)\02 - Pendulum - Slam.wav

     Peak level 99.3 %
     Track quality 99.9 %
     Test CRC 93D57607
     Copy CRC 93D57607
     Copy OK

Track  3
     Filename C:\Documents and Settings\Yo Momma\Desktop\Oink\Pendulum\Hold Your Colour (FLAC)\03 - Pendulum - Plasticworld (featuring Fats and TC).wav

     Peak level 99.3 %
     Track quality 100.0 %
     Test CRC 114F2D17
     Copy CRC 114F2D17
     Copy OK

Track  4
     Filename C:\Documents and Settings\Yo Momma\Desktop\Oink\Pendulum\Hold Your Colour (FLAC)\04 - Pendulum - Fasten Your Seatbelt (featuring The Freestylers).wav

     Peak level 99.3 %
     Track quality 100.0 %
     Test CRC 6AC5237B
     Copy CRC 6AC5237B
     Copy OK

Track  5
     Filename C:\Documents and Settings\Yo Momma\Desktop\Oink\Pendulum\Hold Your Colour (FLAC)\05 - Pendulum - Through The Loop.wav

     Peak level 99.3 %
     Track quality 100.0 %
     Test CRC 615B0802
     Copy CRC 615B0802
     Copy OK

Track  6
     Filename C:\Documents and Settings\Yo Momma\Desktop\Oink\Pendulum\Hold Your Colour (FLAC)\06 - Pendulum - Sounds Of Life (featuring Jasmine Yee).wav

     Peak level 99.3 %
     Track quality 100.0 %
     Test CRC DF421020
     Copy CRC DF421020
     Copy OK

Track  7
     Filename C:\Documents and Settings\Yo Momma\Desktop\Oink\Pendulum\Hold Your Colour (FLAC)\07 - Pendulum - Girl In The Fire.wav

     Peak level 99.3 %
     Track quality 99.9 %
     Test CRC F3593A42
     Copy CRC F3593A42
     Copy OK

Track  8
     Filename C:\Documents and Settings\Yo Momma\Desktop\Oink\Pendulum\Hold Your Colour (FLAC)\08 - Pendulum - Tarantula (featuring Fresh, Spyda and Tenor Fly).wav

     Peak level 100.0 %
     Track quality 100.0 %
     Test CRC 78F6B347
     Copy CRC 78F6B347
     Copy OK

Track  9
     Filename C:\Documents and Settings\Yo Momma\Desktop\Oink\Pendulum\Hold Your Colour (FLAC)\09 - Pendulum - Out Here.wav

     Peak level 100.0 %
     Track quality 100.0 %
     Test CRC CC6149F5
     Copy CRC CC6149F5
     Copy OK

Track 10
     Filename C:\Documents and Settings\Yo Momma\Desktop\Oink\Pendulum\Hold Your Colour (FLAC)\10 - Pendulum - Hold Your Colour.wav

     Peak level 99.3 %
     Track quality 100.0 %
     Test CRC B59316A1
     Copy CRC B59316A1
     Copy OK

Track 11
     Filename C:\Documents and Settings\Yo Momma\Desktop\Oink\Pendulum\Hold Your Colour (FLAC)\11 - Pendulum - The Terminal.wav

     Peak level 99.3 %
     Track quality 100.0 %
     Test CRC C7356747
     Copy CRC C7356747
     Copy OK

Track 12
     Filename C:\Documents and Settings\Yo Momma\Desktop\Oink\Pendulum\Hold Your Colour (FLAC)\12 - Pendulum - Streamline.wav

     Peak level 98.9 %
     Track quality 100.0 %
     Test CRC 1F6D5BF5
     Copy CRC 1F6D5BF5
     Copy OK

Track 13
     Filename C:\Documents and Settings\Yo Momma\Desktop\Oink\Pendulum\Hold Your Colour (FLAC)\13 - Pendulum - Another Planet.wav

     Peak level 99.3 %
     Track quality 100.0 %
     Test CRC 654E3663
     Copy CRC 654E3663
     Copy OK

Track 14
     Filename C:\Documents and Settings\Yo Momma\Desktop\Oink\Pendulum\Hold Your Colour (FLAC)\14 - Pendulum - Still Grey.wav

     Peak level 99.3 %
     Track quality 100.0 %
     Test CRC 4A71D0BA
     Copy CRC 4A71D0BA
     Copy OK

No errors occured

End of status report

Код:

REM GENRE "Drum & Bass"
REM DATE 2005
REM DISCID EA12B50E
REM COMMENT "ExactAudioCopy v0.95b4"
PERFORMER "Pendulum"
TITLE "Hold Your Colour"
FILE "01 - Pendulum - Prelude.wav" WAVE
  TRACK 01 AUDIO
    TITLE "Prelude"
    PERFORMER "Pendulum"
    INDEX 01 00:00:00
FILE "02 - Pendulum - Slam.wav" WAVE
  TRACK 02 AUDIO
    TITLE "Slam"
    PERFORMER "Pendulum"
    INDEX 01 00:00:00
FILE "03 - Pendulum - Plasticworld (featuring Fats and TC).wav" WAVE
  TRACK 03 AUDIO
    TITLE "Plasticworld (featuring Fats and TC)"
    PERFORMER "Pendulum"
    INDEX 01 00:00:00
FILE "04 - Pendulum - Fasten Your Seatbelt (featuring The Freestylers).wav" WAVE
  TRACK 04 AUDIO
    TITLE "Fasten Your Seatbelt (featuring The Freestylers)"
    PERFORMER "Pendulum"
    INDEX 01 00:00:00
FILE "05 - Pendulum - Through The Loop.wav" WAVE
  TRACK 05 AUDIO
    TITLE "Through The Loop"
    PERFORMER "Pendulum"
    INDEX 01 00:00:00
FILE "06 - Pendulum - Sounds Of Life (featuring Jasmine Yee).wav" WAVE
  TRACK 06 AUDIO
    TITLE "Sounds Of Life (featuring Jasmine Yee)"
    PERFORMER "Pendulum"
    INDEX 01 00:00:00
FILE "07 - Pendulum - Girl In The Fire.wav" WAVE
  TRACK 07 AUDIO
    TITLE "Girl In The Fire"
    PERFORMER "Pendulum"
    INDEX 01 00:00:00
FILE "08 - Pendulum - Tarantula (featuring Fresh, Spyda and Tenor Fly).wav" WAVE
  TRACK 08 AUDIO
    TITLE "Tarantula (featuring Fresh, Spyda and Tenor Fly)"
    PERFORMER "Pendulum"
    INDEX 01 00:00:00
FILE "09 - Pendulum - Out Here.wav" WAVE
  TRACK 09 AUDIO
    TITLE "Out Here"
    PERFORMER "Pendulum"
    INDEX 01 00:00:00
FILE "10 - Pendulum - Hold Your Colour.wav" WAVE
  TRACK 10 AUDIO
    TITLE "Hold Your Colour"
    PERFORMER "Pendulum"
    INDEX 01 00:00:00
FILE "11 - Pendulum - The Terminal.wav" WAVE
  TRACK 11 AUDIO
    TITLE "The Terminal"
    PERFORMER "Pendulum"
    INDEX 01 00:00:00
FILE "12 - Pendulum - Streamline.wav" WAVE
  TRACK 12 AUDIO
    TITLE "Streamline"
    PERFORMER "Pendulum"
    INDEX 01 00:00:00
FILE "13 - Pendulum - Another Planet.wav" WAVE
  TRACK 13 AUDIO
    TITLE "Another Planet"
    PERFORMER "Pendulum"
    INDEX 01 00:00:00
FILE "14 - Pendulum - Still Grey.wav" WAVE
  TRACK 14 AUDIO
    TITLE "Still Grey"
    PERFORMER "Pendulum"
    INDEX 01 00:00:00
01. Prelude (0:54)
02. Slam (5:47)
03. Plastic World (6:24)
04. Fasten Your Seatbelt (6:40)
05. Through The Loop (6:16)
06. Sounds Of Life (5:24)
07. Girl In The Fire (4:56)
08. Tarantula (Pendulum vs Fresh $pyda & Tenor Fly) (5:33)
09. Out Here (6:09)
10. Hold Your Colour (5:30)
11. The Terminal (5:45)
12. Streamline (5:25)
13. Blood Sugar (5:18)
14. Axle Grinder (4:10)

Код:

Exact Audio Copy V0.99 prebeta 4 from 23. January 2008

EAC extraction logfile from 3. April 2009, 17:12

Pendulum / Hold Your Colour

Used drive  : TSSTcorpCDDVDW SH-S202N   Adapter: 4  ID: 0

Read mode               : Secure
Utilize accurate stream : Yes
Defeat audio cache      : Yes
Make use of C2 pointers : No

Read offset correction                      : 6
Overread into Lead-In and Lead-Out          : No
Fill up missing offset samples with silence : Yes
Delete leading and trailing silent blocks   : No
Null samples used in CRC calculations       : Yes
Used interface                              : Native Win32 interface for Win NT & 2000
Gap handling                                : Appended to previous track

Used output format              : User Defined Encoder
Selected bitrate                : 320 kBit/s
Quality                         : High
Add ID3 tag                     : No
Command line compressor         : C:\Program Files (x86)\Exact Audio Copy\Flac\flac.exe
Additional command line options : -V -8 -T "artist=%a" -T "title=%t" -T "album=%g" -T "date=%y" -T "tracknumber=%n" -T "genre=%m" %s

TOC of the extracted CD

     Track |   Start  |  Length  | Start sector | End sector
    ---------------------------------------------------------
        1  |  0:00.00 |  0:54.35 |         0    |     4084   
        2  |  0:54.35 |  5:46.73 |      4085    |    30107   
        3  |  6:41.33 |  6:23.59 |     30108    |    58891   
        4  | 13:05.17 |  6:40.16 |     58892    |    88907   
        5  | 19:45.33 |  6:15.63 |     88908    |   117095   
        6  | 26:01.21 |  5:23.45 |    117096    |   141365   
        7  | 31:24.66 |  4:55.39 |    141366    |   163529   
        8  | 36:20.30 |  5:33.18 |    163530    |   188522   
        9  | 41:53.48 |  6:09.08 |    188523    |   216205   
       10  | 48:02.56 |  5:30.36 |    216206    |   240991   
       11  | 53:33.17 |  5:44.55 |    240992    |   266846   
       12  | 59:17.72 |  5:25.26 |    266847    |   291247   
       13  | 64:43.23 |  5:17.55 |    291248    |   315077   
       14  | 70:01.03 |  4:09.69 |    315078    |   333821   

Track  1

     Filename E:\Encoding\Encodes\EAC\01. Pendulum - Prelude.wav

     Pre-gap length  0:00:02.00

     Peak level 99.2 %
     Track quality 99.8 %
     Test CRC 872EA50D
     Copy CRC 872EA50D
     Accurately ripped (confidence 26)  [AC868E0E]
     Copy OK

Track  2

     Filename E:\Encoding\Encodes\EAC\02. Pendulum - Slam.wav

     Pre-gap length  0:00:02.00

     Peak level 99.3 %
     Track quality 100.0 %
     Test CRC 39A7D235
     Copy CRC 39A7D235
     Accurately ripped (confidence 27)  [01D08978]
     Copy OK

Track  3

     Filename E:\Encoding\Encodes\EAC\03. Pendulum - Plastic World (feat- Fats & TC).wav

     Pre-gap length  0:00:02.00

     Peak level 99.3 %
     Track quality 100.0 %
     Test CRC A533124B
     Copy CRC A533124B
     Accurately ripped (confidence 27)  [A82D6B97]
     Copy OK

Track  4

     Filename E:\Encoding\Encodes\EAC\04. Pendulum - Fasten Your Seatbelt (feat- The Freestylers).wav

     Pre-gap length  0:00:02.00

     Peak level 99.3 %
     Track quality 100.0 %
     Test CRC 42419C04
     Copy CRC 42419C04
     Accurately ripped (confidence 27)  [D1281DF8]
     Copy OK

Track  5

     Filename E:\Encoding\Encodes\EAC\05. Pendulum - Through The Loop.wav

     Pre-gap length  0:00:02.00

     Peak level 99.3 %
     Track quality 100.0 %
     Test CRC D4CEE453
     Copy CRC D4CEE453
     Accurately ripped (confidence 27)  [59D3C199]
     Copy OK

Track  6

     Filename E:\Encoding\Encodes\EAC\06. Pendulum - Sounds Of Life (feat- Jasmine Yee).wav

     Pre-gap length  0:00:02.00

     Peak level 99.3 %
     Track quality 100.0 %
     Test CRC 64B89179
     Copy CRC 64B89179
     Accurately ripped (confidence 27)  [4A4271E5]
     Copy OK

Track  7

     Filename E:\Encoding\Encodes\EAC\07. Pendulum - Girl In The Fire.wav

     Pre-gap length  0:00:02.00

     Peak level 99.3 %
     Track quality 99.9 %
     Test CRC F57193FE
     Copy CRC F57193FE
     Accurately ripped (confidence 26)  [E73044A4]
     Copy OK

Track  8

     Filename E:\Encoding\Encodes\EAC\08. Pendulum - Tarantula (Pendulum vs Fresh feat- $pyda & Tenor Fly).wav

     Pre-gap length  0:00:02.00

     Peak level 100.0 %
     Track quality 100.0 %
     Test CRC 55E93376
     Copy CRC 55E93376
     Accurately ripped (confidence 27)  [C532F01F]
     Copy OK

Track  9

     Filename E:\Encoding\Encodes\EAC\09. Pendulum - Out Here.wav

     Pre-gap length  0:00:02.00

     Peak level 100.0 %
     Track quality 100.0 %
     Test CRC 5DE47864
     Copy CRC 5DE47864
     Accurately ripped (confidence 26)  [9E8CB002]
     Copy OK

Track 10

     Filename E:\Encoding\Encodes\EAC\10. Pendulum - Hold Your Colour.wav

     Pre-gap length  0:00:02.00

     Peak level 99.3 %
     Track quality 100.0 %
     Test CRC 9A6D49E8
     Copy CRC 9A6D49E8
     Accurately ripped (confidence 25)  [1B42CBDC]
     Copy OK

Track 11

     Filename E:\Encoding\Encodes\EAC\11. Pendulum - The Terminal.wav

     Pre-gap length  0:00:02.00

     Peak level 99.3 %
     Track quality 100.0 %
     Test CRC BBFF31A3
     Copy CRC BBFF31A3
     Accurately ripped (confidence 26)  [4EB62BFA]
     Copy OK

Track 12

     Filename E:\Encoding\Encodes\EAC\12. Pendulum - Streamline.wav

     Pre-gap length  0:00:02.00

     Peak level 98.9 %
     Track quality 100.0 %
     Test CRC B5C3AB08
     Copy CRC B5C3AB08
     Accurately ripped (confidence 26)  [610EBF06]
     Copy OK

Track 13

     Filename E:\Encoding\Encodes\EAC\13. Pendulum - Blood Sugar.wav

     Pre-gap length  0:00:02.00

     Peak level 100.0 %
     Track quality 100.0 %
     Test CRC B8F9BEED
     Copy CRC B8F9BEED
     Accurately ripped (confidence 27)  [6627B7C8]
     Copy OK

Track 14

     Filename E:\Encoding\Encodes\EAC\14. Pendulum - Axle Grinder.wav

     Pre-gap length  0:00:02.00

     Peak level 99.9 %
     Track quality 100.0 %
     Test CRC 9DF1E78D
     Copy CRC 9DF1E78D
     Accurately ripped (confidence 27)  [A694DBDE]
     Copy OK

All tracks accurately ripped

No errors occurred

End of status report

Код:

REM GENRE "Drum & Bass"
REM DATE 2007
REM DISCID D311620E
REM COMMENT "ExactAudioCopy v0.99pb4"
FILE "01. Pendulum - Prelude.wav" WAVE
  TRACK 01 AUDIO
    INDEX 01 00:00:00
  TRACK 02 AUDIO
    INDEX 00 00:52:35
FILE "02. Pendulum - Slam.wav" WAVE
    INDEX 01 00:00:00
  TRACK 03 AUDIO
    INDEX 00 05:44:73
FILE "03. Pendulum - Plastic World.wav" WAVE
    INDEX 01 00:00:00
  TRACK 04 AUDIO
    INDEX 00 06:21:59
FILE "04. Pendulum - Fasten Your Seatbelt.wav" WAVE
    INDEX 01 00:00:00
  TRACK 05 AUDIO
    INDEX 00 06:38:16
FILE "05. Pendulum - Through The Loop.wav" WAVE
    INDEX 01 00:00:00
  TRACK 06 AUDIO
    INDEX 00 06:13:63
FILE "06. Pendulum - Sounds Of Life.wav" WAVE
    INDEX 01 00:00:00
  TRACK 07 AUDIO
    INDEX 00 05:21:45
FILE "07. Pendulum - Girl In The Fire.wav" WAVE
    INDEX 01 00:00:00
  TRACK 08 AUDIO
    INDEX 00 04:53:39
FILE "08. Pendulum - Tarantula (Pendulum vs Fresh $pyda & Tenor Fly).wav" WAVE
    INDEX 01 00:00:00
  TRACK 09 AUDIO
    INDEX 00 05:31:18
FILE "09. Pendulum - Out Here.wav" WAVE
    INDEX 01 00:00:00
  TRACK 10 AUDIO
    INDEX 00 06:07:08
FILE "10. Pendulum - Hold Your Colour.wav" WAVE
    INDEX 01 00:00:00
  TRACK 11 AUDIO
    INDEX 00 05:28:36
FILE "11. Pendulum - The Terminal.wav" WAVE
    INDEX 01 00:00:00
  TRACK 12 AUDIO
    INDEX 00 05:42:55
FILE "12. Pendulum - Streamline.wav" WAVE
    INDEX 01 00:00:00
  TRACK 13 AUDIO
    INDEX 00 05:23:26
FILE "13. Pendulum - Blood Sugar.wav" WAVE
    INDEX 01 00:00:00
  TRACK 14 AUDIO
    INDEX 00 05:15:55
FILE "14. Pendulum - Axle Grinder.wav" WAVE
    INDEX 01 00:00:00
01. Showdown (5:28)
02. Different (5:52)
03. Propane Nightmares (5:13)
04. Visions (5:36)
05. Midnight Runner (6:55)
06. The Other Side (5:16)
07. Mutiny (5:10)
08. 9,000 Miles (6:26)
09. Granite (4:42)
10. The Tempest (7:27)

Код:

Exact Audio Copy V0.99 prebeta 4 from 23. January 2008

EAC extraction logfile from 20. August 2008, 20:45

Pendulum / In Silico

Used drive  : HL-DT-STDVDRAM GSA-H10A   Adapter: 0  ID: 0

Read mode               : Secure
Utilize accurate stream : Yes
Defeat audio cache      : Yes
Make use of C2 pointers : No

Read offset correction                      : 667
Overread into Lead-In and Lead-Out          : No
Fill up missing offset samples with silence : Yes
Delete leading and trailing silent blocks   : No
Null samples used in CRC calculations       : Yes
Used interface                              : Native Win32 interface for Win NT & 2000
Gap handling                                : Appended to previous track

Used output format              : User Defined Encoder
Selected bitrate                : 128 kBit/s
Quality                         : High
Add ID3 tag                     : No
Command line compressor         : C:\Program Files (x86)\Exact Audio Copy\Flac\flac.exe
Additional command line options : -V -8 -T "artist=%a" -T "title=%t" -T "album=%g" -T "date=%y" -T "tracknumber=%n" -T "genre=%m" %s

TOC of the extracted CD

     Track |   Start  |  Length  | Start sector | End sector
    ---------------------------------------------------------
        1  |  0:00.00 |  5:27.53 |         0    |    24577   
        2  |  5:27.53 |  5:51.63 |     24578    |    50965   
        3  | 11:19.41 |  5:13.26 |     50966    |    74466   
        4  | 16:32.67 |  5:36.10 |     74467    |    99676   
        5  | 22:09.02 |  6:55.30 |     99677    |   130831   
        6  | 29:04.32 |  5:15.54 |    130832    |   154510   
        7  | 34:20.11 |  5:09.71 |    154511    |   177756   
        8  | 39:30.07 |  6:26.34 |    177757    |   206740   
        9  | 45:56.41 |  4:41.58 |    206741    |   227873   
       10  | 50:38.24 |  7:27.15 |    227874    |   261413   

Track  1

     Filename C:\Users\Simon\Desktop\Pendulum - In Silico [FLAC]\Pendulum - 2008 - In Silico\01 - Showdown.wav

     Pre-gap length  0:00:02.00

     Peak level 99.8 %
     Track quality 100.0 %
     Test CRC 0C2C9F9D
     Copy CRC 0C2C9F9D
     Track not present in AccurateRip database
     Copy OK

Track  2

     Filename C:\Users\Simon\Desktop\Pendulum - In Silico [FLAC]\Pendulum - 2008 - In Silico\02 - Different.wav

     Peak level 99.8 %
     Track quality 100.0 %
     Test CRC D32771DA
     Copy CRC D32771DA
     Track not present in AccurateRip database
     Copy OK

Track  3

     Filename C:\Users\Simon\Desktop\Pendulum - In Silico [FLAC]\Pendulum - 2008 - In Silico\03 - Propane Nightmares.wav

     Peak level 99.8 %
     Track quality 100.0 %
     Test CRC C73CAFDF
     Copy CRC C73CAFDF
     Track not present in AccurateRip database
     Copy OK

Track  4

     Filename C:\Users\Simon\Desktop\Pendulum - In Silico [FLAC]\Pendulum - 2008 - In Silico\04 - Vision.wav

     Peak level 99.8 %
     Track quality 100.0 %
     Test CRC 2DDFDEF8
     Copy CRC 2DDFDEF8
     Track not present in AccurateRip database
     Copy OK

Track  5

     Filename C:\Users\Simon\Desktop\Pendulum - In Silico [FLAC]\Pendulum - 2008 - In Silico\05 - Midnight Runner.wav

     Peak level 99.8 %
     Track quality 99.9 %
     Test CRC 034122A0
     Copy CRC 034122A0
     Track not present in AccurateRip database
     Copy OK

Track  6

     Filename C:\Users\Simon\Desktop\Pendulum - In Silico [FLAC]\Pendulum - 2008 - In Silico\06 - The Other Side.wav

     Peak level 99.8 %
     Track quality 100.0 %
     Test CRC 052F741F
     Copy CRC 052F741F
     Track not present in AccurateRip database
     Copy OK

Track  7

     Filename C:\Users\Simon\Desktop\Pendulum - In Silico [FLAC]\Pendulum - 2008 - In Silico\07 - Mutiny.wav

     Peak level 99.8 %
     Track quality 100.0 %
     Test CRC AD4BFCD6
     Copy CRC AD4BFCD6
     Track not present in AccurateRip database
     Copy OK

Track  8

     Filename C:\Users\Simon\Desktop\Pendulum - In Silico [FLAC]\Pendulum - 2008 - In Silico\08 - 9,000 Miles.wav

     Peak level 99.8 %
     Track quality 100.0 %
     Test CRC E7015E23
     Copy CRC E7015E23
     Track not present in AccurateRip database
     Copy OK

Track  9

     Filename C:\Users\Simon\Desktop\Pendulum - In Silico [FLAC]\Pendulum - 2008 - In Silico\09 - Granite.wav

     Peak level 100.0 %
     Track quality 100.0 %
     Test CRC 37E3489A
     Copy CRC 37E3489A
     Track not present in AccurateRip database
     Copy OK

Track 10

     Filename C:\Users\Simon\Desktop\Pendulum - In Silico [FLAC]\Pendulum - 2008 - In Silico\10 - The Tempest.wav

     Peak level 99.8 %
     Track quality 100.0 %
     Test CRC DF7CA849
     Copy CRC DF7CA849
     Track not present in AccurateRip database
     Copy OK

None of the tracks are present in the AccurateRip database

No errors occurred

End of status report

Код:

REM GENRE "Drum & Bass"
REM DATE 2008
REM DISCID 840D9D0A
REM COMMENT "ExactAudioCopy v0.99pb4"
PERFORMER "Pendulum"
TITLE "In Silico"
FILE "01 - Showdown.wav" WAVE
  TRACK 01 AUDIO
    TITLE "Showdown"
    PERFORMER "Pendulum"
    INDEX 01 00:00:00
FILE "02 - Different.wav" WAVE
  TRACK 02 AUDIO
    TITLE "Different"
    PERFORMER "Pendulum"
    INDEX 01 00:00:00
FILE "03 - Propane Nightmares.wav" WAVE
  TRACK 03 AUDIO
    TITLE "Propane Nightmares"
    PERFORMER "Pendulum"
    INDEX 01 00:00:00
FILE "04 - Vision.wav" WAVE
  TRACK 04 AUDIO
    TITLE "Vision"
    PERFORMER "Pendulum"
    INDEX 01 00:00:00
FILE "05 - Midnight Runner.wav" WAVE
  TRACK 05 AUDIO
    TITLE "Midnight Runner"
    PERFORMER "Pendulum"
    INDEX 01 00:00:00
FILE "06 - The Other Side.wav" WAVE
  TRACK 06 AUDIO
    TITLE "The Other Side"
    PERFORMER "Pendulum"
    INDEX 01 00:00:00
FILE "07 - Mutiny.wav" WAVE
  TRACK 07 AUDIO
    TITLE "Mutiny"
    PERFORMER "Pendulum"
    INDEX 01 00:00:00
FILE "08 - 9,000 Miles.wav" WAVE
  TRACK 08 AUDIO
    TITLE "9,000 Miles"
    PERFORMER "Pendulum"
    INDEX 01 00:00:00
FILE "09 - Granite.wav" WAVE
  TRACK 09 AUDIO
    TITLE "Granite"
    PERFORMER "Pendulum"
    INDEX 01 00:00:00
FILE "10 - The Tempest.wav" WAVE
  TRACK 10 AUDIO
    TITLE "The Tempest"
    PERFORMER "Pendulum"
    INDEX 01 00:00:00
01. Showdown (5:28)
02. Different (5:52)
03. Propane Nightmares (5:13)
04. Visions (5:36)
05. Midnight Runner (6:55)
06. The Other Side (5:16)
07. Mutiny (5:10)
08. 9,000 Miles (6:26)
09. Granite (4:42)
10. The Tempest (7:27)
11. Propane Nightmares (VIP Remix) (5:15)
12. Propane Nightmares (Celldweller Remix) (5:33)

Код:

Exact Audio Copy V0.99 prebeta 4 from 23. January 2008

EAC extraction logfile from 8. June 2008, 20:03

Pendulum / In Silico

Used drive  : _NEC    DVD_RW ND-3520AW   Adapter: 0  ID: 2

Read mode               : Secure
Utilize accurate stream : Yes
Defeat audio cache      : Yes
Make use of C2 pointers : No

Read offset correction                      : 48
Overread into Lead-In and Lead-Out          : No
Fill up missing offset samples with silence : Yes
Delete leading and trailing silent blocks   : No
Null samples used in CRC calculations       : Yes
Used interface                              : Installed external ASPI interface
Gap handling                                : Appended to previous track

Used output format              : User Defined Encoder
Selected bitrate                : 128 kBit/s
Quality                         : High
Add ID3 tag                     : No
Command line compressor         : C:\Program Files\Exact Audio Copy\Flac\flac.exe
Additional command line options : -8

TOC of the extracted CD

     Track |   Start  |  Length  | Start sector | End sector
    ---------------------------------------------------------
        1  |  0:00.00 |  5:27.53 |         0    |    24577   
        2  |  5:27.53 |  5:51.63 |     24578    |    50965   
        3  | 11:19.41 |  5:13.26 |     50966    |    74466   
        4  | 16:32.67 |  5:36.10 |     74467    |    99676   
        5  | 22:09.02 |  6:55.30 |     99677    |   130831   
        6  | 29:04.32 |  5:15.54 |    130832    |   154510   
        7  | 34:20.11 |  5:09.71 |    154511    |   177756   
        8  | 39:30.07 |  6:26.34 |    177757    |   206740   
        9  | 45:56.41 |  4:41.58 |    206741    |   227873   
       10  | 50:38.24 |  7:27.16 |    227874    |   261414   
       11  | 58:05.40 |  5:14.49 |    261415    |   285013   
       12  | 63:20.14 |  5:32.73 |    285014    |   309986   
       13  | 71:25.12 |  8:23.25 |    321387    |   359136   

Track  1

     Filename D:\Temp\Pendulum - In Silico\Pendulum - In Silico\01_Showdown.wav

     Pre-gap length  0:00:02.00

     Peak level 99.8 %
     Track quality 100.0 %
     Test CRC BEE431EB
     Copy CRC BEE431EB
     Copy OK

Track  2

     Filename D:\Temp\Pendulum - In Silico\Pendulum - In Silico\02_Different.wav

     Peak level 99.8 %
     Track quality 100.0 %
     Test CRC 2DCBCD92
     Copy CRC 2DCBCD92
     Copy OK

Track  3

     Filename D:\Temp\Pendulum - In Silico\Pendulum - In Silico\03_Propane Nightmares.wav

     Peak level 99.8 %
     Track quality 100.0 %
     Test CRC A25ED388
     Copy CRC A25ED388
     Copy OK

Track  4

     Filename D:\Temp\Pendulum - In Silico\Pendulum - In Silico\04_Visions.wav

     Peak level 99.8 %
     Track quality 100.0 %
     Test CRC 0F9020E8
     Copy CRC 0F9020E8
     Copy OK

Track  5

     Filename D:\Temp\Pendulum - In Silico\Pendulum - In Silico\05_Midnight Runner.wav

     Peak level 99.8 %
     Track quality 99.9 %
     Test CRC 3579FC29
     Copy CRC 3579FC29
     Copy OK

Track  6

     Filename D:\Temp\Pendulum - In Silico\Pendulum - In Silico\06_The Other Side.wav

     Peak level 99.8 %
     Track quality 100.0 %
     Test CRC A6E79D60
     Copy CRC A6E79D60
     Copy OK

Track  7

     Filename D:\Temp\Pendulum - In Silico\Pendulum - In Silico\07_Mutiny.wav

     Peak level 99.8 %
     Track quality 100.0 %
     Test CRC BBDDD630
     Copy CRC BBDDD630
     Copy OK

Track  8

     Filename D:\Temp\Pendulum - In Silico\Pendulum - In Silico\08_9,000 Miles.wav

     Peak level 99.8 %
     Track quality 100.0 %
     Test CRC 8BE0CF7D
     Copy CRC 8BE0CF7D
     Copy OK

Track  9

     Filename D:\Temp\Pendulum - In Silico\Pendulum - In Silico\09_Granite.wav

     Peak level 100.0 %
     Track quality 100.0 %
     Test CRC 5377754E
     Copy CRC 5377754E
     Copy OK

Track 10

     Filename D:\Temp\Pendulum - In Silico\Pendulum - In Silico\10_The Tempest.wav

     Peak level 99.8 %
     Track quality 100.0 %
     Test CRC 0ADDB659
     Copy CRC 0ADDB659
     Copy OK

Track 11

     Filename D:\Temp\Pendulum - In Silico\Pendulum - In Silico\11_Propane Nightmares (VIP Remix).wav

     Peak level 100.0 %
     Track quality 100.0 %
     Test CRC BAD73225
     Copy CRC BAD73225
     Copy OK

Track 12

     Filename D:\Temp\Pendulum - In Silico\Pendulum - In Silico\12_Propane Nightmares (Celldweller Remix).wav

     Peak level 99.8 %
     Track quality 100.0 %
     Test CRC AF048ADF
     Copy CRC AF048ADF
     Copy OK

No errors occurred

End of status report

Код:

REM DATE 2008
REM DISCID BC12B40D
REM COMMENT "ExactAudioCopy v0.99pb4"
PERFORMER "Pendulum"
TITLE "In Silico"
FILE "Pendulum - In Silico\01_Showdown.wav" WAVE
  TRACK 01 AUDIO
    TITLE "Showdown"
    PERFORMER "Pendulum"
    INDEX 01 00:00:00
FILE "Pendulum - In Silico\02_Different.wav" WAVE
  TRACK 02 AUDIO
    TITLE "Different"
    PERFORMER "Pendulum"
    INDEX 01 00:00:00
FILE "Pendulum - In Silico\03_Propane Nightmares.wav" WAVE
  TRACK 03 AUDIO
    TITLE "Propane Nightmares"
    PERFORMER "Pendulum"
    INDEX 01 00:00:00
FILE "Pendulum - In Silico\04_Visions.wav" WAVE
  TRACK 04 AUDIO
    TITLE "Visions"
    PERFORMER "Pendulum"
    INDEX 01 00:00:00
FILE "Pendulum - In Silico\05_Midnight Runner.wav" WAVE
  TRACK 05 AUDIO
    TITLE "Midnight Runner"
    PERFORMER "Pendulum"
    INDEX 01 00:00:00
FILE "Pendulum - In Silico\06_The Other Side.wav" WAVE
  TRACK 06 AUDIO
    TITLE "The Other Side"
    PERFORMER "Pendulum"
    INDEX 01 00:00:00
FILE "Pendulum - In Silico\07_Mutiny.wav" WAVE
  TRACK 07 AUDIO
    TITLE "Mutiny"
    PERFORMER "Pendulum"
    INDEX 01 00:00:00
FILE "Pendulum - In Silico\08_9,000 Miles.wav" WAVE
  TRACK 08 AUDIO
    TITLE "9,000 Miles"
    PERFORMER "Pendulum"
    INDEX 01 00:00:00
FILE "Pendulum - In Silico\09_Granite.wav" WAVE
  TRACK 09 AUDIO
    TITLE "Granite"
    PERFORMER "Pendulum"
    INDEX 01 00:00:00
FILE "Pendulum - In Silico\10_The Tempest.wav" WAVE
  TRACK 10 AUDIO
    TITLE "The Tempest"
    PERFORMER "Pendulum"
    INDEX 01 00:00:00
FILE "Pendulum - In Silico\11_Propane Nightmares (VIP Remix).wav" WAVE
  TRACK 11 AUDIO
    TITLE "Propane Nightmares (VIP Remix)"
    PERFORMER "Pendulum"
    INDEX 01 00:00:00
FILE "Pendulum - In Silico\12_Propane Nightmares (Celldweller Remix).wav" WAVE
  TRACK 12 AUDIO
    TITLE "Propane Nightmares (Celldweller Remix)"
    PERFORMER "Pendulum"
    INDEX 01 00:00:00
  TRACK 13 MODEx/2xxx
    TITLE "Propane Nightmares & Granite Videos"
    PERFORMER "Pendulum"
    INDEX 00 05:32:73
Лейбл: Warner Music UK
Каталоговый номер: 5186594882
01. Genesis (1:09)
02. Salt In The Wounds (6:39)
03. Watercolour (5:04)
04. Set Me On Fire (5:03)
05. Crush (4:14)
06. Under The Waves (4:55)
07. Immunize (feat. Liam H) (4:37)
08. The Island - Pt. I (Dawn) (5:20)
09. The Island - Pt. 2 (Dusk) (4:10)
10. Comprachicos (2:49)
11. The Vulture (4:04)
12. Witchcraft (4:13)
13. Self vs Self (feat. In Flames) (4:46)
14. The Fountain (feat. Steve Wilson) (5:01)
15. Encoder (5:21)

Код:

Exact Audio Copy V0.99 prebeta 5 from 4. May 2009

EAC extraction logfile from 20. May 2010, 17:20

Pendulum / Immersion

Used drive  : HL-DT-STDVDRAM GH20NS10   Adapter: 1  ID: 0

Read mode               : Secure
Utilize accurate stream : Yes
Defeat audio cache      : Yes
Make use of C2 pointers : No

Read offset correction                      : 667
Overread into Lead-In and Lead-Out          : No
Fill up missing offset samples with silence : Yes
Delete leading and trailing silent blocks   : No
Null samples used in CRC calculations       : Yes
Used interface                              : Native Win32 interface for Win NT & 2000
Gap handling                                : Appended to previous track

Used output format              : User Defined Encoder
Selected bitrate                : 896 kBit/s
Quality                         : High
Add ID3 tag                     : No
Command line compressor         : D:\EACPortable\App\FLAC\flac.exe
Additional command line options : -V -8 -T "artist=%a" -T "title=%t" -T "album=%g" -T "date=%y" -T "tracknumber=%n" -T "genre=%m" %s

TOC of the extracted CD

     Track |   Start  |  Length  | Start sector | End sector
    ---------------------------------------------------------
        1  |  0:00.00 |  1:09.00 |         0    |     5174   
        2  |  1:09.00 |  6:38.73 |      5175    |    35097   
        3  |  7:47.73 |  5:03.74 |     35098    |    57896   
        4  | 12:51.72 |  5:02.73 |     57897    |    80619   
        5  | 17:54.70 |  4:13.54 |     80620    |    99648   
        6  | 22:08.49 |  4:55.02 |     99649    |   121775   
        7  | 27:03.51 |  4:36.51 |    121776    |   142526   
        8  | 31:40.27 |  5:20.09 |    142527    |   166535   
        9  | 37:00.36 |  4:09.64 |    166536    |   185274   
       10  | 41:10.25 |  2:48.38 |    185275    |   197912   
       11  | 43:58.63 |  4:03.45 |    197913    |   216182   
       12  | 48:02.33 |  4:12.59 |    216183    |   235141   
       13  | 52:15.17 |  4:45.40 |    235142    |   256556   
       14  | 57:00.57 |  5:00.65 |    256557    |   279121   
       15  | 62:01.47 |  5:21.29 |    279122    |   303225   

Track  1

     Filename D:\2010 - Immersion\01 - Genesis.wav

     Pre-gap length  0:00:02.00

     Peak level 95.7 %
     Track quality 100.0 %
     Test CRC E846E120
     Copy CRC E846E120
     Track not present in AccurateRip database
     Copy OK

Track  2

     Filename D:\2010 - Immersion\02 - Salt In The Wounds.wav

     Peak level 100.0 %
     Track quality 100.0 %
     Test CRC D114B4D9
     Copy CRC D114B4D9
     Track not present in AccurateRip database
     Copy OK

Track  3

     Filename D:\2010 - Immersion\03 - Watercolour.wav

     Peak level 99.7 %
     Track quality 100.0 %
     Test CRC DD2C1260
     Copy CRC DD2C1260
     Track not present in AccurateRip database
     Copy OK

Track  4

     Filename D:\2010 - Immersion\04 - Set Me On Fire.wav

     Peak level 99.7 %
     Track quality 100.0 %
     Test CRC 92EE0C22
     Copy CRC 92EE0C22
     Track not present in AccurateRip database
     Copy OK

Track  5

     Filename D:\2010 - Immersion\05 - Crush.wav

     Peak level 99.7 %
     Track quality 100.0 %
     Test CRC 6DFF9736
     Copy CRC 6DFF9736
     Track not present in AccurateRip database
     Copy OK

Track  6

     Filename D:\2010 - Immersion\06 - Under The Waves.wav

     Peak level 99.7 %
     Track quality 100.0 %
     Test CRC 84961450
     Copy CRC 84961450
     Track not present in AccurateRip database
     Copy OK

Track  7

     Filename D:\2010 - Immersion\07 - Immunize (feat. Liam H).wav

     Peak level 99.7 %
     Track quality 100.0 %
     Test CRC 7B5AC443
     Copy CRC 7B5AC443
     Track not present in AccurateRip database
     Copy OK

Track  8

     Filename D:\2010 - Immersion\08 - The Island - Pt. I (Dawn).wav

     Peak level 99.7 %
     Track quality 99.9 %
     Test CRC F5B669BD
     Copy CRC F5B669BD
     Track not present in AccurateRip database
     Copy OK

Track  9

     Filename D:\2010 - Immersion\09 - The Island - Pt. 2 (Dusk).wav

     Peak level 99.7 %
     Track quality 100.0 %
     Test CRC 227DF5FE
     Copy CRC 227DF5FE
     Track not present in AccurateRip database
     Copy OK

Track 10

     Filename D:\2010 - Immersion\10 - Comprachicos.wav

     Peak level 99.7 %
     Track quality 100.0 %
     Test CRC 47D6B547
     Copy CRC 47D6B547
     Track not present in AccurateRip database
     Copy OK

Track 11

     Filename D:\2010 - Immersion\11 - The Vulture.wav

     Peak level 99.8 %
     Track quality 100.0 %
     Test CRC DD3F4B99
     Copy CRC DD3F4B99
     Track not present in AccurateRip database
     Copy OK

Track 12

     Filename D:\2010 - Immersion\12 - Witchcraft.wav

     Peak level 100.0 %
     Track quality 100.0 %
     Test CRC A1B17533
     Copy CRC A1B17533
     Track not present in AccurateRip database
     Copy OK

Track 13

     Filename D:\2010 - Immersion\13 - Self vs Self (feat. In Flames).wav

     Peak level 99.7 %
     Track quality 100.0 %
     Test CRC 91683F27
     Copy CRC 91683F27
     Track not present in AccurateRip database
     Copy OK

Track 14

     Filename D:\2010 - Immersion\14 - The Fountain (feat. Steve Wilson).wav

     Peak level 99.7 %
     Track quality 100.0 %
     Test CRC 51FE7CDD
     Copy CRC 51FE7CDD
     Track not present in AccurateRip database
     Copy OK

Track 15

     Filename D:\2010 - Immersion\15 - Encoder.wav

     Peak level 99.7 %
     Track quality 100.0 %
     Test CRC 6DF638C1
     Copy CRC 6DF638C1
     Track not present in AccurateRip database
     Copy OK

None of the tracks are present in the AccurateRip database

No errors occurred

End of status report

Код:

REM GENRE "Drum & Bass"
REM DATE 2010
REM DISCID BE0FCB0F
REM COMMENT "ExactAudioCopy v0.99pb5"
FILE "2010 - Immersion\01 - Genesis.wav" WAVE
  TRACK 01 AUDIO
    INDEX 01 00:00:00
FILE "2010 - Immersion\02 - Salt In The Wounds.wav" WAVE
  TRACK 02 AUDIO
    INDEX 01 00:00:00
FILE "2010 - Immersion\03 - Watercolour.wav" WAVE
  TRACK 03 AUDIO
    INDEX 01 00:00:00
FILE "2010 - Immersion\04 - Set Me On Fire.wav" WAVE
  TRACK 04 AUDIO
    INDEX 01 00:00:00
FILE "2010 - Immersion\05 - Crush.wav" WAVE
  TRACK 05 AUDIO
    INDEX 01 00:00:00
FILE "2010 - Immersion\06 - Under The Waves.wav" WAVE
  TRACK 06 AUDIO
    INDEX 01 00:00:00
FILE "2010 - Immersion\07 - Immunize (feat. Liam H).wav" WAVE
  TRACK 07 AUDIO
    INDEX 01 00:00:00
FILE "2010 - Immersion\08 - The Island - Pt. I (Dawn).wav" WAVE
  TRACK 08 AUDIO
    INDEX 01 00:00:00
FILE "2010 - Immersion\09 - The Island - Pt. 2 (Dusk).wav" WAVE
  TRACK 09 AUDIO
    INDEX 01 00:00:00
FILE "2010 - Immersion\10 - Comprachicos.wav" WAVE
  TRACK 10 AUDIO
    INDEX 01 00:00:00
FILE "2010 - Immersion\11 - The Vulture.wav" WAVE
  TRACK 11 AUDIO
    INDEX 01 00:00:00
FILE "2010 - Immersion\12 - Witchcraft.wav" WAVE
  TRACK 12 AUDIO
    INDEX 01 00:00:00
FILE "2010 - Immersion\13 - Self vs Self (feat. In Flames).wav" WAVE
  TRACK 13 AUDIO
    INDEX 01 00:00:00
FILE "2010 - Immersion\14 - The Fountain (feat. Steve Wilson).wav" WAVE
  TRACK 14 AUDIO
    INDEX 01 00:00:00
FILE "2010 - Immersion\15 - Encoder.wav" WAVE
  TRACK 15 AUDIO
    INDEX 01 00:00:00
01. Intro (1:57)
02. Showdown (5:53)
03. Fasten Your Seatbelts (5:51)
04. Another Planet (4:26)
05. Voodoo People (Pendulum Remix) (4:49)
06. Propane Nightmares (6:04)
07. Blood Sugar (5:16)
08. The Other Side (5:27)
09. Different (5:57)
10. Master Of Puppets (1:34)
11. Slam (4:20)
12. Hold Your Colour (7:14)
13. Countdown (2:19)
14. Tarantula (4:58)
15. Granite (4:56)
16. Tempest (8:20)

Код:

Exact Audio Copy V0.99 prebeta 4 from 23. January 2008

EAC extraction logfile from 10. August 2009, 3:46

Pendulum / Live At Brixton Academy

Used drive  : ASUS    DRW-1814BL   Adapter: 0  ID: 0

Read mode               : Secure
Utilize accurate stream : Yes
Defeat audio cache      : Yes
Make use of C2 pointers : No

Read offset correction                      : 6
Overread into Lead-In and Lead-Out          : No
Fill up missing offset samples with silence : Yes
Delete leading and trailing silent blocks   : No
Null samples used in CRC calculations       : Yes
Used interface                              : Installed external ASPI interface
Gap handling                                : Appended to previous track

Used output format              : User Defined Encoder
Selected bitrate                : 1024 kBit/s
Quality                         : High
Add ID3 tag                     : No
Command line compressor         : C:\Program Files\FLAC\flac.exe
Additional command line options : -V -8 -T "artist=%a" -T "title=%t" -T "album=%g" -T "date=%y" -T "tracknumber=%n" -T "genre=%m" %s

TOC of the extracted CD

     Track |   Start  |  Length  | Start sector | End sector
    ---------------------------------------------------------
        1  |  0:00.00 |  1:57.02 |         0    |     8776   
        2  |  1:57.02 |  5:52.42 |      8777    |    35218   
        3  |  7:49.44 |  5:50.40 |     35219    |    61508   
        4  | 13:40.09 |  4:26.12 |     61509    |    81470   
        5  | 18:06.21 |  4:48.48 |     81471    |   103118   
        6  | 22:54.69 |  6:04.24 |    103119    |   130442   
        7  | 28:59.18 |  5:16.36 |    130443    |   154178   
        8  | 34:15.54 |  5:27.22 |    154179    |   178725   
        9  | 39:43.01 |  5:57.11 |    178726    |   205511   
       10  | 45:40.12 |  1:34.09 |    205512    |   212570   
       11  | 47:14.21 |  4:19.44 |    212571    |   232039   
       12  | 51:33.65 |  7:13.67 |    232040    |   264581   
       13  | 58:47.57 |  2:19.33 |    264582    |   275039   
       14  | 61:07.15 |  4:58.28 |    275040    |   297417   
       15  | 66:05.43 |  4:56.34 |    297418    |   319651   
       16  | 71:02.02 |  8:19.52 |    319652    |   357128   

Track  1

     Filename D:\EAC Rips\Pendulum - 2009 - Live At Brixton Academy [FLAC]\01. Pendulum - Live At Brixton Academy - Intro.wav

     Pre-gap length  0:00:02.00

     Peak level 85.8 %
     Track quality 100.0 %
     Test CRC E25F2A5D
     Copy CRC E25F2A5D
     Cannot be verified as accurate (confidence 2)  [52540AAD], AccurateRip returned [ACE79608]
     Copy OK

Track  2

     Filename D:\EAC Rips\Pendulum - 2009 - Live At Brixton Academy [FLAC]\02. Pendulum - Live At Brixton Academy - Showdown.wav

     Pre-gap length  0:01:53.12

     Peak level 99.9 %
     Track quality 100.0 %
     Test CRC E0E6A41E
     Copy CRC E0E6A41E
     Cannot be verified as accurate (confidence 2)  [C4B9C7DC], AccurateRip returned [23BF8F76]
     Copy OK

Track  3

     Filename D:\EAC Rips\Pendulum - 2009 - Live At Brixton Academy [FLAC]\03. Pendulum - Live At Brixton Academy - Fasten Your Seatbelts.wav

     Peak level 99.9 %
     Track quality 100.0 %
     Test CRC 8917946B
     Copy CRC 8917946B
     Cannot be verified as accurate (confidence 2)  [54581975], AccurateRip returned [7CAB3D45]
     Copy OK

Track  4

     Filename D:\EAC Rips\Pendulum - 2009 - Live At Brixton Academy [FLAC]\04. Pendulum - Live At Brixton Academy - Another Planet.wav

     Peak level 99.9 %
     Track quality 100.0 %
     Test CRC 3D133B5E
     Copy CRC 3D133B5E
     Cannot be verified as accurate (confidence 2)  [9BF88DC1], AccurateRip returned [09493345]
     Copy OK

Track  5

     Filename D:\EAC Rips\Pendulum - 2009 - Live At Brixton Academy [FLAC]\05. Pendulum - Live At Brixton Academy - Voodoo People (Pendulum Remix).wav

     Peak level 99.9 %
     Track quality 100.0 %
     Test CRC 8DA59676
     Copy CRC 8DA59676
     Cannot be verified as accurate (confidence 2)  [5B427C4F], AccurateRip returned [5084CA90]
     Copy OK

Track  6

     Filename D:\EAC Rips\Pendulum - 2009 - Live At Brixton Academy [FLAC]\06. Pendulum - Live At Brixton Academy - Propane Nightmares.wav

     Peak level 99.9 %
     Track quality 100.0 %
     Test CRC 9F2A7EFE
     Copy CRC 9F2A7EFE
     Cannot be verified as accurate (confidence 2)  [603FE52C], AccurateRip returned [892DE764]
     Copy OK

Track  7

     Filename D:\EAC Rips\Pendulum - 2009 - Live At Brixton Academy [FLAC]\07. Pendulum - Live At Brixton Academy - Blood Sugar.wav

     Peak level 99.9 %
     Track quality 100.0 %
     Test CRC 0410F563
     Copy CRC 0410F563
     Cannot be verified as accurate (confidence 2)  [B61BC674], AccurateRip returned [25198E05]
     Copy OK

Track  8

     Filename D:\EAC Rips\Pendulum - 2009 - Live At Brixton Academy [FLAC]\08. Pendulum - Live At Brixton Academy - The Other Side.wav

     Peak level 99.9 %
     Track quality 100.0 %
     Test CRC 2851C644
     Copy CRC 2851C644
     Cannot be verified as accurate (confidence 2)  [D0B54D95], AccurateRip returned [ED3724C9]
     Copy OK

Track  9

     Filename D:\EAC Rips\Pendulum - 2009 - Live At Brixton Academy [FLAC]\09. Pendulum - Live At Brixton Academy - Different.wav

     Peak level 99.9 %
     Track quality 100.0 %
     Test CRC 30596129
     Copy CRC 30596129
     Cannot be verified as accurate (confidence 2)  [33CD5752], AccurateRip returned [ED5C3AF7]
     Copy OK

Track 10

     Filename D:\EAC Rips\Pendulum - 2009 - Live At Brixton Academy [FLAC]\10. Pendulum - Live At Brixton Academy - Master Of Puppets.wav

     Peak level 99.9 %
     Track quality 100.0 %
     Test CRC 53E3F7A6
     Copy CRC 53E3F7A6
     Cannot be verified as accurate (confidence 2)  [1800490A], AccurateRip returned [7B9EA49F]
     Copy OK

Track 11

     Filename D:\EAC Rips\Pendulum - 2009 - Live At Brixton Academy [FLAC]\11. Pendulum - Live At Brixton Academy - Slam.wav

     Peak level 99.9 %
     Track quality 100.0 %
     Test CRC 44E75AF6
     Copy CRC 44E75AF6
     Cannot be verified as accurate (confidence 2)  [FE617933], AccurateRip returned [477D89F6]
     Copy OK

Track 12

     Filename D:\EAC Rips\Pendulum - 2009 - Live At Brixton Academy [FLAC]\12. Pendulum - Live At Brixton Academy - Hold Your Colour.wav

     Peak level 99.9 %
     Track quality 100.0 %
     Test CRC 67457DF5
     Copy CRC 67457DF5
     Cannot be verified as accurate (confidence 2)  [EE8E4AEC], AccurateRip returned [B71FD82D]
     Copy OK

Track 13

     Filename D:\EAC Rips\Pendulum - 2009 - Live At Brixton Academy [FLAC]\13. Pendulum - Live At Brixton Academy - Countdown.wav

     Peak level 99.9 %
     Track quality 100.0 %
     Test CRC B5E12408
     Copy CRC B5E12408
     Cannot be verified as accurate (confidence 2)  [39A5238D], AccurateRip returned [79264608]
     Copy OK

Track 14

     Filename D:\EAC Rips\Pendulum - 2009 - Live At Brixton Academy [FLAC]\14. Pendulum - Live At Brixton Academy - Tarantula.wav

     Peak level 99.9 %
     Track quality 100.0 %
     Test CRC BF5E019C
     Copy CRC BF5E019C
     Cannot be verified as accurate (confidence 2)  [F9905608], AccurateRip returned [BC07E404]
     Copy OK

Track 15

     Filename D:\EAC Rips\Pendulum - 2009 - Live At Brixton Academy [FLAC]\15. Pendulum - Live At Brixton Academy - Granite.wav

     Peak level 99.9 %
     Track quality 100.0 %
     Test CRC 0E215524
     Copy CRC 0E215524
     Cannot be verified as accurate (confidence 2)  [AD50FBAF], AccurateRip returned [C954ECDA]
     Copy OK

Track 16

     Filename D:\EAC Rips\Pendulum - 2009 - Live At Brixton Academy [FLAC]\16. Pendulum - Live At Brixton Academy - Tempest.wav

     Peak level 99.9 %
     Track quality 100.0 %
     Test CRC 3482FD05
     Copy CRC 3482FD05
     Cannot be verified as accurate (confidence 2)  [BE324B09], AccurateRip returned [52EA2A7C]
     Copy OK

No tracks could be verified as accurate
You may have a different pressing from the one(s) in the database

No errors occurred

End of status report

Код:

REM GENRE Electronic
REM DATE 2009
REM DISCID FB129910
REM COMMENT "ExactAudioCopy v0.99pb4"
PERFORMER "Pendulum"
TITLE "Live At Brixton Academy"
FILE "Pendulum - 2009 - Live At Brixton Academy [FLAC]\01. Pendulum - Live At Brixton Academy - Intro.wav" WAVE
  TRACK 01 AUDIO
    TITLE "Intro"
    PERFORMER "Pendulum"
    INDEX 01 00:00:00
  TRACK 02 AUDIO
    TITLE "Showdown"
    PERFORMER "Pendulum"
    INDEX 00 00:03:65
FILE "Pendulum - 2009 - Live At Brixton Academy [FLAC]\02. Pendulum - Live At Brixton Academy - Showdown.wav" WAVE
    INDEX 01 00:00:00
FILE "Pendulum - 2009 - Live At Brixton Academy [FLAC]\03. Pendulum - Live At Brixton Academy - Fasten Your Seatbelts.wav" WAVE
  TRACK 03 AUDIO
    TITLE "Fasten Your Seatbelts"
    PERFORMER "Pendulum"
    INDEX 01 00:00:00
FILE "Pendulum - 2009 - Live At Brixton Academy [FLAC]\04. Pendulum - Live At Brixton Academy - Another Planet.wav" WAVE
  TRACK 04 AUDIO
    TITLE "Another Planet"
    PERFORMER "Pendulum"
    INDEX 01 00:00:00
FILE "Pendulum - 2009 - Live At Brixton Academy [FLAC]\05. Pendulum - Live At Brixton Academy - Voodoo People (Pendulum Remix).wav" WAVE
  TRACK 05 AUDIO
    TITLE "Voodoo People (Pendulum Remix)"
    PERFORMER "Pendulum"
    INDEX 01 00:00:00
FILE "Pendulum - 2009 - Live At Brixton Academy [FLAC]\06. Pendulum - Live At Brixton Academy - Propane Nightmares.wav" WAVE
  TRACK 06 AUDIO
    TITLE "Propane Nightmares"
    PERFORMER "Pendulum"
    INDEX 01 00:00:00
FILE "Pendulum - 2009 - Live At Brixton Academy [FLAC]\07. Pendulum - Live At Brixton Academy - Blood Sugar.wav" WAVE
  TRACK 07 AUDIO
    TITLE "Blood Sugar"
    PERFORMER "Pendulum"
    INDEX 01 00:00:00
FILE "Pendulum - 2009 - Live At Brixton Academy [FLAC]\08. Pendulum - Live At Brixton Academy - The Other Side.wav" WAVE
  TRACK 08 AUDIO
    TITLE "The Other Side"
    PERFORMER "Pendulum"
    INDEX 01 00:00:00
FILE "Pendulum - 2009 - Live At Brixton Academy [FLAC]\09. Pendulum - Live At Brixton Academy - Different.wav" WAVE
  TRACK 09 AUDIO
    TITLE "Different"
    PERFORMER "Pendulum"
    INDEX 01 00:00:00
FILE "Pendulum - 2009 - Live At Brixton Academy [FLAC]\10. Pendulum - Live At Brixton Academy - Master Of Puppets.wav" WAVE
  TRACK 10 AUDIO
    TITLE "Master Of Puppets"
    PERFORMER "Pendulum"
    INDEX 01 00:00:00
FILE "Pendulum - 2009 - Live At Brixton Academy [FLAC]\11. Pendulum - Live At Brixton Academy - Slam.wav" WAVE
  TRACK 11 AUDIO
    TITLE "Slam"
    PERFORMER "Pendulum"
    INDEX 01 00:00:00
FILE "Pendulum - 2009 - Live At Brixton Academy [FLAC]\12. Pendulum - Live At Brixton Academy - Hold Your Colour.wav" WAVE
  TRACK 12 AUDIO
    TITLE "Hold Your Colour"
    PERFORMER "Pendulum"
    INDEX 01 00:00:00
FILE "Pendulum - 2009 - Live At Brixton Academy [FLAC]\13. Pendulum - Live At Brixton Academy - Countdown.wav" WAVE
  TRACK 13 AUDIO
    TITLE "Countdown"
    PERFORMER "Pendulum"
    INDEX 01 00:00:00
FILE "Pendulum - 2009 - Live At Brixton Academy [FLAC]\14. Pendulum - Live At Brixton Academy - Tarantula.wav" WAVE
  TRACK 14 AUDIO
    TITLE "Tarantula"
    PERFORMER "Pendulum"
    INDEX 01 00:00:00
FILE "Pendulum - 2009 - Live At Brixton Academy [FLAC]\15. Pendulum - Live At Brixton Academy - Granite.wav" WAVE
  TRACK 15 AUDIO
    TITLE "Granite"
    PERFORMER "Pendulum"
    INDEX 01 00:00:00
FILE "Pendulum - 2009 - Live At Brixton Academy [FLAC]\16. Pendulum - Live At Brixton Academy - Tempest.wav" WAVE
  TRACK 16 AUDIO
    TITLE "Tempest"
    PERFORMER "Pendulum"
    INDEX 01 00:00:00
01. Voodoo People (Pendulum Radio Edit) (3:16)
02. Voodoo People (Wonder Remix) (4:56)
03. Smack My Bitch Up (Sub Focus Remix) (5:34)
04. Out Of Space (Audio Bullys Radio Edit) (3:38)
05. Out Of Space (Audio Bullys Remix) (4:57)

Код:

Exact Audio Copy V0.99 prebeta 5 from 4. May 2009

EAC extraction logfile from 27. June 2009, 13:55

The Prodigy / Voodoo People (Pendulum Remix)

Used drive  : ASUS    DRW-2014L1T   Adapter: 3  ID: 1

Read mode               : Secure
Utilize accurate stream : Yes
Defeat audio cache      : Yes
Make use of C2 pointers : No

Read offset correction                      : 6
Overread into Lead-In and Lead-Out          : No
Fill up missing offset samples with silence : Yes
Delete leading and trailing silent blocks   : No
Null samples used in CRC calculations       : Yes
Used interface                              : Native Win32 interface for Win NT & 2000
Gap handling                                : Appended to previous track

Used output format              : User Defined Encoder
Selected bitrate                : 768 kBit/s
Quality                         : High
Add ID3 tag                     : No
Command line compressor         : C:\Program Files (x86)\Exact Audio Copy\FLAC\FLAC.EXE
Additional command line options : -8 -V -T "ARTIST=%a" -T "TITLE=%t" -T "ALBUM=%g" -T "DATE=%y" -T "TRACKNUMBER=%n" -T "GENRE=%m" -T "COMMENT=%e" %s -o %d

TOC of the extracted CD

     Track |   Start  |  Length  | Start sector | End sector
    ---------------------------------------------------------
        1  |  0:00.00 |  3:16.13 |         0    |    14712   
        2  |  3:16.13 |  4:56.07 |     14713    |    36919   
        3  |  8:12.20 |  5:33.55 |     36920    |    61949   
        4  | 13:46.00 |  3:38.13 |     61950    |    78312   
        5  | 17:24.13 |  4:56.42 |     78313    |   100554   

Track  1

     Filename F:\Flac\01 - Voodoo People (Pendulum Radio Edit).wav

     Pre-gap length  0:00:02.00

     Peak level 100.0 %
     Track quality 100.0 %
     Test CRC F7F21599
     Copy CRC F7F21599
     Accurately ripped (confidence 1)  [1C6C9A70]
     Copy OK

Track  2

     Filename F:\Flac\02 - Voodoo People (Wonder Remix).wav

     Peak level 99.3 %
     Track quality 100.0 %
     Test CRC 7D11968E
     Copy CRC 7D11968E
     Accurately ripped (confidence 1)  [549F3D05]
     Copy OK

Track  3

     Filename F:\Flac\03 - Smack My Bitch Up (Sub Focus Remix).wav

     Peak level 99.3 %
     Track quality 99.9 %
     Test CRC 28368048
     Copy CRC 28368048
     Accurately ripped (confidence 1)  [3FB542C3]
     Copy OK

Track  4

     Filename F:\Flac\04 - Out Of Space (Audio Bullys Radio Edit).wav

     Peak level 99.3 %
     Track quality 99.9 %
     Test CRC F1AE4056
     Copy CRC F1AE4056
     Accurately ripped (confidence 1)  [19FF5351]
     Copy OK

Track  5

     Filename F:\Flac\05 - Out Of Space (Audio Bullys Remix).wav

     Peak level 99.3 %
     Track quality 99.9 %
     Test CRC 2BC1E9EC
     Copy CRC 2BC1E9EC
     Accurately ripped (confidence 1)  [9F26CB32]
     Copy OK

All tracks accurately ripped

No errors occurred

End of status report

Код:

REM GENRE "Big Beat; Club/Dance; Electronica; Funky Breaks; Rave Music; Te"
REM DATE 2005
REM DISCID 42053C05
REM COMMENT "ExactAudioCopy v0.99pb5"
PERFORMER "The Prodigy"
TITLE "Voodoo People (Pendulum Remix)"
FILE "01 - Voodoo People (Pendulum Radio Edit).wav" WAVE
  TRACK 01 AUDIO
    TITLE "Voodoo People (Pendulum Radio Edit)"
    PERFORMER "The Prodigy"
    INDEX 01 00:00:00
FILE "02 - Voodoo People (Wonder Remix).wav" WAVE
  TRACK 02 AUDIO
    TITLE "Voodoo People (Wonder Remix)"
    PERFORMER "The Prodigy"
    INDEX 01 00:00:00
FILE "03 - Smack My Bitch Up (Sub Focus Remix).wav" WAVE
  TRACK 03 AUDIO
    TITLE "Smack My Bitch Up (Sub Focus Remix)"
    PERFORMER "The Prodigy"
    INDEX 01 00:00:00
FILE "04 - Out Of Space (Audio Bullys Radio Edit).wav" WAVE
  TRACK 04 AUDIO
    TITLE "Out Of Space (Audio Bullys Radio Edit)"
    PERFORMER "The Prodigy"
    INDEX 01 00:00:00
FILE "05 - Out Of Space (Audio Bullys Remix).wav" WAVE
  TRACK 05 AUDIO
    TITLE "Out Of Space (Audio Bullys Remix)"
    PERFORMER "The Prodigy"
    INDEX 01 00:00:00
01. Voodoo People (Pendulum Remix Edit) (3:21)
02. Out Of Space (Audio Bullys Remix Edit) (3:40)

Код:

Exact Audio Copy V0.99 prebeta 5 from 4. May 2009

EAC extraction logfile from 10. June 2009, 21:27

The Prodigy / Voodoo People / Out Of Space (Promo)

Used drive  : ASUS    DRW-2014L1T   Adapter: 3  ID: 1

Read mode               : Secure
Utilize accurate stream : Yes
Defeat audio cache      : Yes
Make use of C2 pointers : No

Read offset correction                      : 6
Overread into Lead-In and Lead-Out          : No
Fill up missing offset samples with silence : Yes
Delete leading and trailing silent blocks   : No
Null samples used in CRC calculations       : Yes
Used interface                              : Native Win32 interface for Win NT & 2000
Gap handling                                : Appended to previous track

Used output format              : User Defined Encoder
Selected bitrate                : 32 kBit/s
Quality                         : High
Add ID3 tag                     : No
Command line compressor         : C:\Program Files (x86)\Exact Audio Copy\FLAC\FLAC.EXE
Additional command line options : -8 -V -T "ARTIST=%a" -T "TITLE=%t" -T "ALBUM=%g" -T "DATE=%y" -T "TRACKNUMBER=%n" -T "GENRE=%m" -T "COMMENT=%e" %s -o %d

TOC of the extracted CD

     Track |   Start  |  Length  | Start sector | End sector
    ---------------------------------------------------------
        1  |  0:00.00 |  3:20.52 |         0    |    15051   
        2  |  3:20.52 |  3:39.46 |     15052    |    31522   

Track  1

     Filename F:\Flac\01 - Voodoo People (Pendulum Remix Edit).wav

     Pre-gap length  0:00:02.00

     Peak level 100.0 %
     Track quality 100.0 %
     Test CRC 8D838052
     Copy CRC 8D838052
     Track not present in AccurateRip database
     Copy OK

Track  2

     Filename F:\Flac\02 - Out Of Space (Audio Bullys Remix Edit).wav

     Pre-gap length  0:00:01.97

     Peak level 100.0 %
     Track quality 100.0 %
     Test CRC 194AB1B7
     Copy CRC 194AB1B7
     Track not present in AccurateRip database
     Copy OK

None of the tracks are present in the AccurateRip database

No errors occurred

End of status report

Код:

REM DATE 2005
REM DISCID 0601A402
REM COMMENT "ExactAudioCopy v0.99pb5"
PERFORMER "The Prodigy"
TITLE "Voodoo People / Out Of Space (Promo)"
FILE "01 - Voodoo People (Pendulum Remix Edit).wav" WAVE
  TRACK 01 AUDIO
    TITLE "Voodoo People (Pendulum Remix Edit)"
    PERFORMER "The Prodigy"
    INDEX 01 00:00:00
  TRACK 02 AUDIO
    TITLE "Out Of Space (Audio Bullys Remix Edit)"
    PERFORMER "The Prodigy"
    INDEX 00 03:18:54
FILE "02 - Out Of Space (Audio Bullys Remix Edit).wav" WAVE
    INDEX 01 00:00:00
01. Hold Your Colour (Radio Edit) (3:34)
02. Hold Your Colour (Bi-Polar Mix) (4:14)
03. Hold Your Colour (Album Version) (5:30)
04. Streamline (5:25)

Код:

EAC extraction logfile from 28. March 2007, 22:03 for CD
Pendulum / Hold Your Colour (Bi-Polar Vocal Mix)

Used drive  : HL-DT-STDVD-ROM GDR8164B   Adapter: 0  ID: 0
Read mode   : Secure with NO C2, accurate stream, disable cache
Read offset correction : 102
Overread into Lead-In and Lead-Out : No

Used output format : C:\Program Files\FLAC\flac.exe   (User Defined Encoder)
                     128 kBit/s
                     Additional command line options : -V -8 -T "artist=%a" -T "title=%t" -T "album=%g" -T "date=%y" -T "tracknumber=%n" -T "genre=%m" %s

Other options      :
    Fill up missing offset samples with silence : Yes
    Delete leading and trailing silent blocks : No
    Native Win32 interface for Win NT & 2000

Track  1
     Filename C:\Documents and Settings\Yo Momma\Desktop\Oink\Pendulum\Hold Your Colour (Bi-Polar Vocal Mix) (FLAC)\01 - Pendulum - Hold Your Colour (Radio Edit).wav

     Pre-gap length  0:00:02.00

     Peak level 60.8 %
     Track quality 99.9 %
     Test CRC 82FD1350
     Copy CRC 82FD1350
     Copy OK

Track  2
     Filename C:\Documents and Settings\Yo Momma\Desktop\Oink\Pendulum\Hold Your Colour (Bi-Polar Vocal Mix) (FLAC)\02 - Pendulum - Hold Your Colour (Bi-Polar Mix).wav

     Pre-gap length  0:00:02.00

     Peak level 59.2 %
     Track quality 100.0 %
     Test CRC 6BA7A691
     Copy CRC 6BA7A691
     Copy OK

Track  3
     Filename C:\Documents and Settings\Yo Momma\Desktop\Oink\Pendulum\Hold Your Colour (Bi-Polar Vocal Mix) (FLAC)\03 - Pendulum - Hold Your Colour (Album Version).wav

     Pre-gap length  0:00:02.00

     Peak level 100.0 %
     Track quality 100.0 %
     Test CRC CF58B387
     Copy CRC CF58B387
     Copy OK

Track  4
     Filename C:\Documents and Settings\Yo Momma\Desktop\Oink\Pendulum\Hold Your Colour (Bi-Polar Vocal Mix) (FLAC)\04 - Pendulum - Streamline.wav

     Pre-gap length  0:00:02.00

     Peak level 100.0 %
     Track quality 100.0 %
     Test CRC 5B1DA50C
     Copy CRC 5B1DA50C
     Copy OK

No errors occured

End of status report

Код:

REM GENRE "Drum & Bass"
REM DATE 2006
REM DISCID 36046204
REM COMMENT "ExactAudioCopy v0.95b4"
PERFORMER "Pendulum"
TITLE "Hold Your Colour (Bi-Polar Vocal Mix)"
FILE "01 - Pendulum - Hold Your Colour (Radio Edit).wav" WAVE
  TRACK 01 AUDIO
    TITLE "Hold Your Colour (Radio Edit)"
    PERFORMER "Pendulum"
    INDEX 01 00:00:00
  TRACK 02 AUDIO
    TITLE "Hold Your Colour (Bi-Polar Mix)"
    PERFORMER "Pendulum"
    INDEX 00 03:31:38
FILE "02 - Pendulum - Hold Your Colour (Bi-Polar Mix).wav" WAVE
    INDEX 01 00:00:00
  TRACK 03 AUDIO
    TITLE "Hold Your Colour (Album Version)"
    PERFORMER "Pendulum"
    INDEX 00 04:11:46
FILE "03 - Pendulum - Hold Your Colour (Album Version).wav" WAVE
    INDEX 01 00:00:00
  TRACK 04 AUDIO
    TITLE "Streamline"
    PERFORMER "Pendulum"
    INDEX 00 05:28:36
FILE "04 - Pendulum - Streamline.wav" WAVE
    INDEX 01 00:00:00
01. Granite (4:30)
02. Granite (Dillinja Remix) (4:20)

Код:

Exact Audio Copy V0.99 prebeta 3 from 28. July 2007

EAC extraction logfile from 14. December 2007, 15:36

Pendulum / Granite

Used drive  : _NEC    DVD_RW ND-3520A   Adapter: 1  ID: 0

Read mode               : Secure
Utilize accurate stream : Yes
Defeat audio cache      : Yes
Make use of C2 pointers : No

Read offset correction                      : 48
Overread into Lead-In and Lead-Out          : No
Fill up missing offset samples with silence : Yes
Delete leading and trailing silent blocks   : No
Null samples used in CRC calculations       : Yes
Used interface                              : Native Win32 interface for Win NT & 2000
Gap handling                                : Not detected, thus appended to previous track

Used output format              : User Defined Encoder
Selected bitrate                : 128 kBit/s
Quality                         : High
Add ID3 tag                     : No
Command line compressor         : C:\Program Files\Exact Audio Copy\flac.exe
Additional command line options : -8 -A tukey(0.25) -A gauss(0.1875) -b 4096 -V -T "artist=%a" -T "title=%t" -T "album=%g" -T "date=%y" -T "tracknumber=%n" -T "genre=%m" %s --sector-align

TOC of the extracted CD

     Track |   Start  |  Length  | Start sector | End sector
    ---------------------------------------------------------
        1  |  0:00.00 |  4:29.63 |         0    |    20237   
        2  |  4:29.63 |  4:20.08 |     20238    |    39745   

Track  1

     Filename C:\EAC\Output\01 Granite.wav

     Peak level 100.0 %
     Track quality 100.0 %
     Test CRC FBE7ECCB
     Copy CRC FBE7ECCB
     Copy OK

Track  2

     Filename C:\EAC\Output\02 Granite (Dillinja Remix).wav

     Peak level 87.1 %
     Track quality 100.0 %
     Test CRC CF4E4B0F
     Copy CRC CF4E4B0F
     Copy OK

No errors occurred

End of status report

Код:

REM GENRE "Drum & Bass"
REM DATE 2007
REM DISCID 0C021102
REM COMMENT "ExactAudioCopy v0.99pb3"
PERFORMER "Pendulum"
TITLE "Granite"
FILE "01 Granite.wav" WAVE
  TRACK 01 AUDIO
    TITLE "Granite"
    PERFORMER "Pendulum"
    INDEX 01 00:00:00
  TRACK 02 AUDIO
    TITLE "Granite (Dillinja Remix)"
    PERFORMER "Pendulum"
    INDEX 00 04:27:12
FILE "02 Granite (Dillinja Remix).wav" WAVE
    INDEX 01 00:00:00
01. Propane Nightmares (Radio Edit) (4:19)
02. Propane Nightmares (Original Version) (5:14)

Код:

Exact Audio Copy V0.99 prebeta 4 from 23. January 2008

EAC extraction logfile from 4. June 2009, 1:37

Pendulum / Propane Nightmares

Used drive  : TSSTcorpCD/DVDW TS-L632D   Adapter: 0  ID: 1

Read mode               : Secure
Utilize accurate stream : Yes
Defeat audio cache      : Yes
Make use of C2 pointers : No

Read offset correction                      : 6
Overread into Lead-In and Lead-Out          : No
Fill up missing offset samples with silence : Yes
Delete leading and trailing silent blocks   : No
Null samples used in CRC calculations       : Yes
Used interface                              : Native Win32 interface for Win NT & 2000
Gap handling                                : Appended to previous track

Used output format              : User Defined Encoder
Selected bitrate                : 128 kBit/s
Quality                         : High
Add ID3 tag                     : No
Command line compressor         : D:\Programs\Exact Audio Copy\Flac\flac.exe
Additional command line options : -V -8 -T "artist=%a" -T "title=%t" -T "album=%g" -T "date=%y" -T "tracknumber=%n" -T "genre=%m" %s

TOC of the extracted CD

     Track |   Start  |  Length  | Start sector | End sector
    ---------------------------------------------------------
        1  |  0:00.00 |  4:19.22 |         0    |    19446   
        2  |  4:19.22 |  5:13.65 |     19447    |    42986   

Track  1

     Filename D:\Downloads\Pendulum - Propane Nightmares promo\01 Propane Nightmares (Radio Edit).wav

     Pre-gap length  0:00:02.00

     Peak level 100.0 %
     Track quality 100.0 %
     Test CRC 4CCE751A
     Copy CRC 4CCE751A
     Copy OK

Track  2

     Filename D:\Downloads\Pendulum - Propane Nightmares promo\02 Propane Nightmares (Original Version).wav

     Pre-gap length  0:00:01.68

     Peak level 100.0 %
     Track quality 100.0 %
     Test CRC D39034EE
     Copy CRC D39034EE
     Copy OK

No errors occurred

End of status report

Код:

REM DATE 2008
REM DISCID 0B023D02
REM COMMENT "ExactAudioCopy v0.99pb4"
PERFORMER "Pendulum"
TITLE "Propane Nightmares"
FILE "01 Propane Nightmares (Radio Edit).wav" WAVE
  TRACK 01 AUDIO
    TITLE "Propane Nightmares (Radio Edit)"
    PERFORMER "Pendulum"
    INDEX 01 00:00:00
  TRACK 02 AUDIO
    TITLE "Propane Nightmares (Original Version)"
    PERFORMER "Pendulum"
    INDEX 00 04:17:46
FILE "02 Propane Nightmares (Original Version).wav" WAVE
    INDEX 01 00:00:00
01. The Other Side (Original Mix) (5:18)
02. The Other Side (Radio Edit) (3:42)
03. The Other Side (VIP Mix) (5:39)
04. The Other Side (Dubstep Mix) (4:46)

Код:

Exact Audio Copy V0.99 prebeta 4 from 23. January 2008

EAC extraction logfile from 1. February 2009, 1:16

Pendulum / The Other Side

Used drive  : TSSTcorpCD/DVDW TS-L632D   Adapter: 0  ID: 1

Read mode               : Secure
Utilize accurate stream : Yes
Defeat audio cache      : Yes
Make use of C2 pointers : No

Read offset correction                      : 6
Overread into Lead-In and Lead-Out          : No
Fill up missing offset samples with silence : Yes
Delete leading and trailing silent blocks   : No
Null samples used in CRC calculations       : Yes
Used interface                              : Native Win32 interface for Win NT & 2000
Gap handling                                : Appended to previous track

Used output format              : User Defined Encoder
Selected bitrate                : 128 kBit/s
Quality                         : High
Add ID3 tag                     : No
Command line compressor         : D:\Programs\Exact Audio Copy\Flac\flac.exe
Additional command line options : -V -8 -T "artist=%a" -T "title=%t" -T "album=%g" -T "date=%y" -T "tracknumber=%n" -T "genre=%m" %s

TOC of the extracted CD

     Track |   Start  |  Length  | Start sector | End sector
    ---------------------------------------------------------
        1  |  0:00.00 |  5:18.35 |         0    |    23884   
        2  |  5:18.35 |  3:41.53 |     23885    |    40512   
        3  |  9:00.13 |  5:38.43 |     40513    |    65905   
        4  | 14:38.56 |  4:46.35 |     65906    |    87390   

Track  1

     Filename D:\Downloads\01 - The Other Side (Original Mix).wav

     Pre-gap length  0:00:02.00

     Peak level 99.8 %
     Track quality 99.9 %
     Test CRC 48F7307C
     Copy CRC 48F7307C
     Copy OK

Track  2

     Filename D:\Downloads\02 - The Other Side (Radio Edit).wav

     Pre-gap length  0:00:01.89

     Peak level 99.8 %
     Track quality 100.0 %
     Test CRC 0F82B045
     Copy CRC 0F82B045
     Copy OK

Track  3

     Filename D:\Downloads\03 - The Other Side (VIP Mix).wav

     Pre-gap length  0:00:02.90

     Peak level 89.7 %
     Track quality 100.0 %
     Test CRC 2042420D
     Copy CRC 2042420D
     Copy OK

Track  4

     Filename D:\Downloads\04 - The Other Side (Dubstep Mix).wav

     Pre-gap length  0:00:02.05

     Peak level 95.1 %
     Track quality 100.0 %
     Test CRC 6B2E8969
     Copy CRC 6B2E8969
     Copy OK

No errors occurred

End of status report

Код:

REM DATE 2008
REM DISCID 22048D04
REM COMMENT "ExactAudioCopy v0.99pb4"
PERFORMER "Pendulum"
TITLE "The Other Side"
FILE "01 - The Other Side (Original Mix).wav" WAVE
  TRACK 01 AUDIO
    TITLE "The Other Side (Original Mix)"
    PERFORMER "Pendulum"
    INDEX 01 00:00:00
  TRACK 02 AUDIO
    TITLE "The Other Side (Radio Edit)"
    PERFORMER "Pendulum"
    INDEX 00 05:16:43
FILE "02 - The Other Side (Radio Edit).wav" WAVE
    INDEX 01 00:00:00
  TRACK 03 AUDIO
    TITLE "The Other Side (VIP Mix)"
    PERFORMER "Pendulum"
    INDEX 00 03:38:60
FILE "03 - The Other Side (VIP Mix).wav" WAVE
    INDEX 01 00:00:00
  TRACK 04 AUDIO
    TITLE "The Other Side (Dubstep Mix)"
    PERFORMER "Pendulum"
    INDEX 00 05:36:39
FILE "04 - The Other Side (Dubstep Mix).wav" WAVE
    INDEX 01 00:00:00
01. Watercolour [Original Version] (5:08)
02. Watercolour [Radio Edit] (3:30)
03. Watercolour [Deadmau5 Remix] (6:09)
04. Watercolour [Emalkay Remix] (5:10)

Код:

Exact Audio Copy V0.99 prebeta 4 from 23. January 2008

EAC extraction logfile from 4. May 2010, 21:21

Pendulum / Watercolour [Single]

Used drive  : HL-DT-STDVD-RAM GH10L   Adapter: 1  ID: 0

Read mode               : Secure
Utilize accurate stream : Yes
Defeat audio cache      : Yes
Make use of C2 pointers : No

Read offset correction                      : 667
Overread into Lead-In and Lead-Out          : No
Fill up missing offset samples with silence : Yes
Delete leading and trailing silent blocks   : No
Null samples used in CRC calculations       : Yes
Used interface                              : Native Win32 interface for Win NT & 2000
Gap handling                                : Appended to previous track

Used output format              : User Defined Encoder
Selected bitrate                : 192 kBit/s
Quality                         : High
Add ID3 tag                     : No
Command line compressor         : C:\Program Files (x86)\Exact Audio Copy\Flac\flac.exe
Additional command line options : -V -8 -T "artist=%a" -T "title=%t" -T "album=%g" -T "date=%y" -T "tracknumber=%n" -T "genre=%m" %s

TOC of the extracted CD

     Track |   Start  |  Length  | Start sector | End sector
    ---------------------------------------------------------
        1  |  0:00.00 |  5:08.07 |         0    |    23106   
        2  |  5:08.07 |  3:30.33 |     23107    |    38889   
        3  |  8:38.40 |  6:08.51 |     38890    |    66540   
        4  | 14:47.16 |  5:10.02 |     66541    |    89792   

Track  1

     Filename D:\FLAC\Pendulum\Watercolour [Single]\01 - Watercolour [Original Version].wav

     Pre-gap length  0:00:02.00

     Peak level 98.8 %
     Track quality 100.0 %
     Test CRC EE0FF415
     Copy CRC EE0FF415
     Track not present in AccurateRip database
     Copy OK

Track  2

     Filename D:\FLAC\Pendulum\Watercolour [Single]\02 - Watercolour [Radio Edit].wav

     Pre-gap length  0:00:01.94

     Peak level 98.8 %
     Track quality 100.0 %
     Test CRC F84A950E
     Copy CRC F84A950E
     Track not present in AccurateRip database
     Copy OK

Track  3

     Filename D:\FLAC\Pendulum\Watercolour [Single]\03 - Watercolour [Deadmau5 Remix].wav

     Pre-gap length  0:00:01.94

     Peak level 98.8 %
     Track quality 100.0 %
     Test CRC 08BF51C2
     Copy CRC 08BF51C2
     Track not present in AccurateRip database
     Copy OK

Track  4

     Filename D:\FLAC\Pendulum\Watercolour [Single]\04 - Watercolour [Emalkay Remix].wav

     Pre-gap length  0:00:01.94

     Peak level 98.8 %
     Track quality 100.0 %
     Test CRC 9BB9F6B5
     Copy CRC 9BB9F6B5
     Track not present in AccurateRip database
     Copy OK

None of the tracks are present in the AccurateRip database

No errors occurred

End of status report

Код:

REM GENRE Electronic
REM DATE 2010
REM DISCID 2604AD04
REM COMMENT "ExactAudioCopy v0.99pb4"
FILE "01 - Watercolour [Original Version].wav" WAVE
  TRACK 01 AUDIO
    INDEX 01 00:00:00
  TRACK 02 AUDIO
    INDEX 00 05:06:11
FILE "02 - Watercolour [Radio Edit].wav" WAVE
    INDEX 01 00:00:00
  TRACK 03 AUDIO
    INDEX 00 03:28:37
FILE "03 - Watercolour [Deadmau5 Remix].wav" WAVE
    INDEX 01 00:00:00
  TRACK 04 AUDIO
    INDEX 00 06:06:55
FILE "04 - Watercolour [Emalkay Remix].wav" WAVE
    INDEX 01 00:00:00
01. Witchcraft (4:14)
02. Witchcraft (Rob Swire's drum-step mix) (5:44)
03. Witchcraft (Chuckie remix) (6:16)
04. Witchcraft (John B remix) (6:54)
05. Witchcraft (Netsky remix) (4:59)

Код:

Exact Audio Copy V0.99 prebeta 5 from 4. May 2009

EAC extraction logfile from 26. July 2010, 12:17

Pendulum / Witchcraft

Used drive  : _NEC    DVD+RW ND-3100AD   Adapter: 1  ID: 0

Read mode               : Secure
Utilize accurate stream : Yes
Defeat audio cache      : Yes
Make use of C2 pointers : No

Read offset correction                      : 48
Overread into Lead-In and Lead-Out          : No
Fill up missing offset samples with silence : Yes
Delete leading and trailing silent blocks   : No
Null samples used in CRC calculations       : Yes
Used interface                              : Installed external ASPI interface
Gap handling                                : Appended to previous track

Used output format              : User Defined Encoder
Selected bitrate                : 320 kBit/s
Quality                         : High
Add ID3 tag                     : No
Command line compressor         : C:\Program Files\Exact Audio Copy\Flac\flac.exe
Additional command line options : -V -8 -T "artist=%a" -T "title=%t" -T "album=%g" -T "date=%y" -T "tracknumber=%n" -T "genre=%m" %s

TOC of the extracted CD

     Track |   Start  |  Length  | Start sector | End sector
    ---------------------------------------------------------
        1  |  0:00.00 |  4:13.70 |         0    |    19044   
        2  |  4:13.70 |  5:44.37 |     19045    |    44881   
        3  |  9:58.32 |  6:15.67 |     44882    |    73073   
        4  | 16:14.24 |  6:54.03 |     73074    |   104126   
        5  | 23:08.27 |  4:58.39 |    104127    |   126515   

Track  1

     Filename C:\CD Rips\Pendulum - 2010 - Witchcraft\01 - Witchcraft.wav

     Pre-gap length  0:00:02.00

     Peak level 99.4 %
     Track quality 100.0 %
     Test CRC 67203B34
     Copy CRC 67203B34
     Track not present in AccurateRip database
     Copy OK

Track  2

     Filename C:\CD Rips\Pendulum - 2010 - Witchcraft\02 - Witchcraft (Rob Swire's drum-step mix).wav

     Pre-gap length  0:00:00.20

     Peak level 99.4 %
     Track quality 100.0 %
     Test CRC 56073886
     Copy CRC 56073886
     Track not present in AccurateRip database
     Copy OK

Track  3

     Filename C:\CD Rips\Pendulum - 2010 - Witchcraft\03 - Witchcraft (Chuckie remix).wav

     Pre-gap length  0:00:00.69

     Peak level 99.4 %
     Track quality 99.9 %
     Test CRC 40D319F0
     Copy CRC 40D319F0
     Track not present in AccurateRip database
     Copy OK

Track  4

     Filename C:\CD Rips\Pendulum - 2010 - Witchcraft\04 - Witchcraft (John B remix).wav

     Pre-gap length  0:00:00.66

     Peak level 99.0 %
     Track quality 100.0 %
     Test CRC 10D649C5
     Copy CRC 10D649C5
     Track not present in AccurateRip database
     Copy OK

Track  5

     Filename C:\CD Rips\Pendulum - 2010 - Witchcraft\05 - Witchcraft (Netsky remix).wav

     Pre-gap length  0:00:00.09

     Peak level 99.4 %
     Track quality 99.9 %
     Test CRC E7633E7D
     Copy CRC E7633E7D
     Track not present in AccurateRip database
     Copy OK

None of the tracks are present in the AccurateRip database

No errors occurred

End of status report

Код:

REM GENRE "Drum & Bass"
REM DATE 2010
REM DISCID 37069605
REM COMMENT "ExactAudioCopy v0.99pb5"
FILE "Pendulum - 2010 - Witchcraft\01 - Witchcraft.wav" WAVE
  TRACK 01 AUDIO
    INDEX 01 00:00:00
  TRACK 02 AUDIO
    INDEX 00 04:13:55
FILE "Pendulum - 2010 - Witchcraft\02 - Witchcraft (Rob Swire's drum-step mix).wav" WAVE
    INDEX 01 00:00:00
  TRACK 03 AUDIO
    INDEX 00 05:43:60
FILE "Pendulum - 2010 - Witchcraft\03 - Witchcraft (Chuckie remix).wav" WAVE
    INDEX 01 00:00:00
  TRACK 04 AUDIO
    INDEX 00 06:15:17
FILE "Pendulum - 2010 - Witchcraft\04 - Witchcraft (John B remix).wav" WAVE
    INDEX 01 00:00:00
  TRACK 05 AUDIO
    INDEX 00 06:53:71
FILE "Pendulum - 2010 - Witchcraft\05 - Witchcraft (Netsky remix).wav" WAVE
    INDEX 01 00:00:00
info [Профиль]  [ЛС] 

post 11-Сен-2010 19:31 (спустя 4 минуты) [-]0[+]

Топик был перенесен из форума Оформление раздач в форум Drum & Bass, Jungle, Breakbeat, Dubstep, IDM (lossless)

Oneguns
 

Kenny69

Пол: Пол:Муж

Стаж: 7 лет 3 месяца

Сообщений: 1766

Россия
Рейтинг

post 11-Сен-2010 19:46 (спустя 18 минут) [-]0[+]

[Цитировать] 

Лейбл: Warner Music UK
Каталоговый номер: 5186594882

Добавь к Immersion , тогда можно будет поглотить альбом , который уже есть на трекере

_________________
info [Профиль]  [ЛС] 

Resistance

Пол: Пол:Муж

Стаж: 7 лет 2 месяца

Сообщений: 3639

Россия
Рейтинг

post 11-Сен-2010 20:03 (спустя 17 минут) [-]0[+]

[Цитировать] 

Kenny69
Добавил, просто тут большинство идеальные рипы, просто я не добавлял кат. номера и лейблы Улыбаюсь
info [Профиль]  [ЛС] 

Kenny69

Пол: Пол:Муж

Стаж: 7 лет 3 месяца

Сообщений: 1766

Россия
Рейтинг

post 11-Сен-2010 20:07 (спустя 4 минуты) [-]0[+]

[Цитировать] 

На Discogs можно поискать , добавить Улыбаюсь

_________________
info [Профиль]  [ЛС] 

Bulykin17

Пол: Пол:Муж

Стаж: 7 лет 7 месяцев

Сообщений: 346

США
Рейтинг

post 11-Сен-2010 20:07 (спустя 27 секунд) [-]0[+]

[Цитировать] 

Спасибо,обожаю их.Благодаря им DnB пошел в массы.Заменю mp3 Улыбаюсь
info [Профиль]  [ЛС] 

Resistance

Пол: Пол:Муж

Стаж: 7 лет 2 месяца

Сообщений: 3639

Россия
Рейтинг

post 11-Сен-2010 20:08 (спустя 44 секунды) [-]0[+]

[Цитировать] 

Kenny69
Какой смысл, если все равно будет точный рип. Ну если надо, то добавлю. Улыбаюсь
info [Профиль]  [ЛС] 

Kenny69

Пол: Пол:Муж

Стаж: 7 лет 3 месяца

Сообщений: 1766

Россия
Рейтинг

post 11-Сен-2010 20:11 (спустя 3 минуты) [-]0[+]

[Цитировать] 

Oneguns
Почему? Некоторые альбомы будут идеальные , а некоторые точные. Хотя дело твое , можешь и не добавлять

_________________
info [Профиль]  [ЛС] 

Resistance

Пол: Пол:Муж

Стаж: 7 лет 2 месяца

Сообщений: 3639

Россия
Рейтинг

post 11-Сен-2010 20:16 (спустя 4 минуты) [-]0[+]

[Цитировать] 

Kenny69
Завтра тогда этим займусь.
info [Профиль]  [ЛС] 
Показать сообщения:    
Ответить на тему

Текущее время: 04-Дек 03:54

Часовой пояс: GMT + 4



Вы не можете начинать темы
Вы не можете отвечать на сообщения
Вы не можете редактировать свои сообщения
Вы не можете удалять свои сообщения
Вы не можете голосовать в опросах
Вы не можете прикреплять файлы к сообщениям
Вы не можете скачивать файлы