Ошибка

(Rock) Чиж & Co - Дискография – (1993 – 2007), APE (image + .cue), lossless

Ответить на тему
 
Автор Сообщение

TheMrMafiozi

Пол: Пол:Муж

Стаж: 6 лет 9 месяцев

Сообщений: 859

СССР
Рейтинг

post 19-Авг-2010 11:49 1[+]

[Цитировать] 


Чиж & Co - Дискография (22 CD)

pic="http://img0.liveinternet.ru/images/attach/b/3/12/47/12047012_all.jpg"

Жанр: Rock | Год выпуска диска: 1994 – 2007 || Страна: Россия
Аудио кодек: APE | Тип релиза: image+ .cue | Битрейт аудио: lossless

Цитата:

Чиж & Со — российская рок-группа, созданная в начале 1990-х годов гитаристом, вокалистом и автором песен Сергеем Чиграковым по прозвищу «Чиж»
Группа состоит из пяти участников: С.Чиграков, Е.Баринов, А.Романюк, И. Федоров, М.Владимиров
.

Лидер группы и автор почти всех песен, Сергей 'Чиж' Чиграков, родился 6 февраля 1961 в городе Дзержинске. С 14 лет он вместе со своим старшим братом

играет в местных ансамблях, иногда подменяя кого-нибудь из музыкантов. Там же окончивает музыкальную школу и училище. Настоящим "взрослым" опытом стала для него работа в дзержинской группе

"ГПД" ("Группа Продленного Дня"). Группа играла тогда популярный хард-рок. Летом 1989-го Сергей Чиграков переезжает из Дзержинска в Харьков, куда его пригласили работать в качестве сессионного

музыканта в одноименную группу ("ГПД"). К тому времени харьковская "ГПД" распадается на две половины и Чиж оказывается в той, которая называет себя "РАЗНЫЕ ЛЮДИ". Под именем "РАЗНЫЕ ЛЮДИ"

записываются несколько альбомов, один из которых "Буги-Харьков", полностью состоящий из песен Чижа. Широкое распространение этот альбом получил лишь через несколько лет, но уже тогда были

написаны и записаны будущие хиты: "Хочу чаю", "Дорогуша" и "Ассоль". Благодаря работе в "РАЗНЫХ ЛЮДЯХ", Чиж был замечен не только местными фанатами, но и рок-общественностью.
В 1993 году Чиж получает предложение от Игоря Березовца и Андрея Бурлаки на запись собственной пластинки. С моральной поддержкой мэтра русского рок-н-ролла Б. Гребенщикова он приезжает в

Питер, где и записывает свой сольный альбом названый просто "Чиж", вышедший на виниле под лейблом "ОсоАвиАхим". В связи с тем, что Чиж еще не имеет собственного состава, в записи альбома ему

помогают известные питерские музыканты: БГ, Н.Корзинин ("САНКТ-ПЕТЕРБУРГ"), А.Бровко ("ДДТ"), М.Чернов ("ДДТ") и другие. Звукорежиссером этой записи стал легендарный питерский музыкант Юрий

Морозов. В дальнейшем Ю. Морозов становится постоянным студийным звукооператором группы "Чиж & Со". (с 1995 года еще и концертным - до этого с группой работал Олег Гончаров).
В конце 1993 - начале 1994 Чиж дал несколько концертов в питерских клубах с группой музыкантов в которую входят А.Романюк и ныне покойный А.Кондрашкин, ставшие впоследствии членами "Чиж &

Со". Воодушевленный реакцией питерской публики, Чиж окончательно решился на переезд и 1 мая 1994 переселился в Петербург. Месяц спустя он уже собрал постоянную группу "Чиж & Со", в которую

вошли бас-гитарист Алексей Романюк (род. 15 марта 1973) игравший в группе "Петля Нестерова", гитарист Михаил Владимиров (род. 26 января 1967) работал с "Мифами", барабанщик Владимир Ханутин

(род. 19 ноября 1973) игравший в группе "Ужослонасные Барбуляторы и Гастурбалы". Группа сразу же начинает активно концертировать и летом 1994-го записывает свой первый альбом "Перекресток".

Почти одновременно группа также выпускает концертную запись "Live". Московская компания "Solyd Records" выпускает эти и все последующие альбомы группы. Благодаря альбому "Перекресток" группа

получает широкую известность, их песни постоянно звучат на всех радиостанциях бывшего СССР.
Подробнее тут: [url=http://ru.wikipedia.org/wiki/Чиж_%26_Со]
[/url]

01. Автобус
02. В старинном городе
03. Вечная молодость
04. Мышка
05. Русская (Хочу чаю)
06. Глазами и душой
07. Hoochie Сoochie Man
08. Она не вышла замуж
09. Такие дела
10. Глупенькая песенка(Ассоль)
Exact Audio Copy V0.99 prebeta 4 from 23. January 2008

Отчёт EAC об извлечении, выполненном 23. февраля 2009, 22:59

Чиж / Чиж

Дисковод: ASUS DRW-1814BL Adapter: 0 ID: 0

Режим чтения : Достоверность
Использование точного потока : Да
Отключение кэша аудио : Да
Использование указателей C2 : Нет

Коррекция смещения при чтении : 6
Способность читать области Lead-in и Lead-out : Нет
Заполнение пропущенных сэмплов тишиной : Да
Удаление блоков с тишиной в начале и конце : Нет
При вычислениях CRC использовались нулевые сэмплы : Да
Интерфейс : Установленный внешний ASPI-интерфейс

Выходной формат : Внутренние WAV-операции
Формат сэмплов : 44.100 Гц; 16 бит; стерео

TOC извлечённого CD

Трек | Старт | Длительность | Начальный сектор | Конечный сектор
---------------------------------------------------------------------
1 | 0:00.00 | 3:50.55 | 0 | 17304
2 | 3:50.55 | 3:42.37 | 17305 | 33991
3 | 7:33.17 | 2:58.54 | 33992 | 47395
4 | 10:31.71 | 2:22.37 | 47396 | 58082
5 | 12:54.33 | 3:30.42 | 58083 | 73874
6 | 16:25.00 | 4:01.17 | 73875 | 91966
7 | 20:26.17 | 3:44.22 | 91967 | 108788
8 | 24:10.39 | 6:48.37 | 108789 | 139425
9 | 30:59.01 | 5:56.35 | 139426 | 166160
10 | 36:55.36 | 4:30.11 | 166161 | 186421

Характеристики диапазона извлечения и сообщения об ошибках

Выбранный диапазон

Имя файла L:\Uploads\Чиж - Чиж\Чиж - Чиж.wav

Пиковый уровень 86.6 %
Качество диапазона 100.0 %
CRC копии A28246CF
Копирование... OK

Ошибок не произошло

AccurateRip: сводка

Трек 1 нет в базе данных
Трек 2 нет в базе данных
Трек 3 нет в базе данных
Трек 4 нет в базе данных
Трек 5 нет в базе данных
Трек 6 нет в базе данных
Трек 7 нет в базе данных
Трек 8 нет в базе данных
Трек 9 нет в базе данных
Трек 10 нет в базе данных

Ни одного трека нет в базе AccurateRip

Конец отчёта
01. INTRO
02. Дополнительный 38-й
03. Сен Симилья
04. Перекресток
05. Я не такой
06. Если
07. Поход
08. Мне не хватает свободы
09. Доброе утро
10. Coda
Exact Audio Copy V0.99 prebeta 4 from 23. January 2008

Отчёт EAC об извлечении, выполненном 30. марта 2008, 3:56

Чиж & Co / Перекресток

Дисковод: Optiarc DVD RW AD-7173A Adapter: 1 ID: 0

Режим чтения : Достоверность
Использование точного потока : Да
Отключение кэша аудио : Да
Использование указателей C2 : Нет

Коррекция смещения при чтении : 48
Способность читать области Lead-in и Lead-out : Нет
Заполнение пропущенных сэмплов тишиной : Да
Удаление блоков с тишиной в начале и конце : Нет
При вычислениях CRC использовались нулевые сэмплы : Нет
Интерфейс : Встроенный Win32-интерфейс для Win NT/2000

Выходной формат : Внутренние WAV-операции
Формат сэмплов : 44.100 Гц; 16 бит; стерео

TOC извлечённого CD

Трек | Старт | Длительность | Начальный сектор | Конечный сектор
---------------------------------------------------------------------
1 | 0:00.37 | 1:23.33 | 37 | 6294
2 | 1:23.70 | 5:07.10 | 6295 | 29329
3 | 6:31.05 | 5:42.52 | 29330 | 55031
4 | 12:13.57 | 6:59.35 | 55032 | 86491
5 | 19:13.17 | 4:02.55 | 86492 | 104696
6 | 23:15.72 | 4:31.15 | 104697 | 125036
7 | 27:47.12 | 3:29.03 | 125037 | 140714
8 | 31:16.15 | 4:20.15 | 140715 | 160229
9 | 35:36.30 | 4:20.67 | 160230 | 179796
10 | 39:57.22 | 2:24.43 | 179797 | 190639

Характеристики диапазона извлечения и сообщения об ошибках

Выбранный диапазон

Имя файла C:\CD\1994 Чиж & Co - Перекресток.wav

Пиковый уровень 74.3 %
Качество диапазона 100.0 %
CRC копии BB235A02
Копирование... OK

Ошибок не произошло

AccurateRip: сводка

Трек 1 точность не определена (достоверность 1) [D9F42923], AccurateRip вернул [29EE8653]
Трек 2 точность не определена (достоверность 1) [4CB6C342], AccurateRip вернул [FABE21CE]
Трек 3 точность не определена (достоверность 1) [574D9E02], AccurateRip вернул [BF088BC2]
Трек 4 точность не определена (достоверность 1) [0F0F0759], AccurateRip вернул [81F20BE9]
Трек 5 точность не определена (достоверность 1) [AA35ADEE], AccurateRip вернул [F18D59C7]
Трек 6 точность не определена (достоверность 1) [5598CE55], AccurateRip вернул [7B269FC8]
Трек 7 точность не определена (достоверность 1) [84C40D33], AccurateRip вернул [12EE08BB]
Трек 8 точность не определена (достоверность 1) [CB8A63CF], AccurateRip вернул [7C74AC8F]
Трек 9 нет в базе данных
Трек 10 нет в базе данных

8 трек(и) не удалось проверить на точность
2 трек(и) не содержатся в базе AccurateRip

Ни один трек не прошёл проверки на точность
В вашей базе может быть иной вариант штамповки диска

Конец отчёта
01. Дорогуша
02. Она не вышла замуж
03. Дополнительный 38-й
04. Эволюция [0:05:52.70]
05. Попутная песня
06. Hoochie Coochie Man
07. Ты был в этом городе первым
08. Если
09. Кругом тайга...
Exact Audio Copy V0.99 prebeta 4 from 23. January 2008

Отчёт EAC об извлечении, выполненном 19. апреля 2008, 17:26

Чиж & Co / Live

Дисковод: _NEC CDRW/DVD CB1100B Adapter: 1 ID: 0

Режим чтения : Достоверность
Использование точного потока : Да
Отключение кэша аудио : Да
Использование указателей C2 : Нет

Коррекция смещения при чтении : 6
Способность читать области Lead-in и Lead-out : Нет
Заполнение пропущенных сэмплов тишиной : Да
Удаление блоков с тишиной в начале и конце : Нет
При вычислениях CRC использовались нулевые сэмплы : Нет
Интерфейс : Встроенный Win32-интерфейс для Win NT/2000

Выходной формат : Внутренние WAV-операции
Формат сэмплов : 44.100 Гц; 16 бит; стерео

TOC извлечённого CD

Трек | Старт | Длительность | Начальный сектор | Конечный сектор
---------------------------------------------------------------------
1 | 0:00.03 | 7:13.15 | 3 | 32492
2 | 7:13.18 | 7:55.12 | 32493 | 68129
3 | 15:08.30 | 5:02.73 | 68130 | 90852
4 | 20:11.28 | 5:52.70 | 90853 | 117322
5 | 26:04.23 | 7:25.57 | 117323 | 150754
6 | 33:30.05 | 4:56.38 | 150755 | 172992
7 | 38:26.43 | 5:08.32 | 172993 | 196124
8 | 43:35.00 | 5:23.53 | 196125 | 220402
9 | 48:58.53 | 3:55.20 | 220403 | 238047

Характеристики диапазона извлечения и сообщения об ошибках

Выбранный диапазон

Имя файла O:\CD\1994 Чиж & Co - Live.wav

Пиковый уровень 82.0 %
Качество диапазона 100.0 %
CRC копии BD7DFD9E
Копирование... OK

Ошибок не произошло

AccurateRip: сводка

Трек 1 нет в базе данных
Трек 2 нет в базе данных
Трек 3 нет в базе данных
Трек 4 нет в базе данных
Трек 5 нет в базе данных
Трек 6 нет в базе данных
Трек 7 нет в базе данных
Трек 8 нет в базе данных
Трек 9 нет в базе данных

Ни одного трека нет в базе AccurateRip

Конец отчёта
01. О Любви
02. Последние Деньги
03. Сен Симилья
04. Вот Пуля Просвистела...
05. Перекресток
06. Still Life
07. Кругом Тайга...
08. Солдат На Привале
09. Она Не Вышла Замуж...
10. Хочу Чаю
11. Вечная Молодость
Exact Audio Copy V0.99 prebeta 4 from 23. January 2008

Отчёт EAC об извлечении, выполненном 23. февраля 2009, 22:52

Чиж & Co / Greatest Hits live

Дисковод: ASUS DRW-1814BL Adapter: 0 ID: 0

Режим чтения : Достоверность
Использование точного потока : Да
Отключение кэша аудио : Да
Использование указателей C2 : Нет

Коррекция смещения при чтении : 6
Способность читать области Lead-in и Lead-out : Нет
Заполнение пропущенных сэмплов тишиной : Да
Удаление блоков с тишиной в начале и конце : Нет
При вычислениях CRC использовались нулевые сэмплы : Да
Интерфейс : Установленный внешний ASPI-интерфейс

Выходной формат : Внутренние WAV-операции
Формат сэмплов : 44.100 Гц; 16 бит; стерео

TOC извлечённого CD

Трек | Старт | Длительность | Начальный сектор | Конечный сектор
---------------------------------------------------------------------
1 | 0:00.25 | 4:42.60 | 25 | 21234
2 | 4:43.10 | 3:35.62 | 21235 | 37421
3 | 8:18.72 | 6:31.70 | 37422 | 66816
4 | 14:50.67 | 4:19.68 | 66817 | 86309
5 | 19:10.60 | 8:00.35 | 86310 | 122344
6 | 27:11.20 | 3:52.55 | 122345 | 139799
7 | 31:04.00 | 3:43.30 | 139800 | 156554
8 | 34:47.30 | 3:39.17 | 156555 | 172996
9 | 38:26.47 | 9:39.43 | 172997 | 216464
10 | 48:06.15 | 4:01.07 | 216465 | 234546
11 | 52:07.22 | 7:18.18 | 234547 | 267414

Характеристики диапазона извлечения и сообщения об ошибках

Выбранный диапазон

Имя файла L:\Uploads\Чиж & Co - Greatest Hits live\Чиж & Co - Greatest Hits live.wav

Пиковый уровень 100.0 %
Качество диапазона 100.0 %
CRC копии 0DBEF06D
Копирование... OK

Ошибок не произошло

AccurateRip: сводка

Трек 1 нет в базе данных
Трек 2 нет в базе данных
Трек 3 нет в базе данных
Трек 4 нет в базе данных
Трек 5 нет в базе данных
Трек 6 нет в базе данных
Трек 7 нет в базе данных
Трек 8 нет в базе данных
Трек 9 нет в базе данных
Трек 10 точность не определена (достоверность 2) [2FCF9590], AccurateRip вернул [DD1DB291]
Трек 11 нет в базе данных

1 трек(и) не удалось проверить на точность
0 трек(и) не содержатся в базе AccurateRip

Ни один трек не прошёл проверки на точность
В вашей базе может быть иной вариант штамповки диска

Конец отчёта
01. Дверь в лето
02. Ветер вырывает из рук
03. Солдат на привале
04. О.К.
05. Я позвонил Вам из телефона-автомата...
06. Любитель жидкости
07. Still Life
08. О Любви
09. Идиллия
10. Прогулка по Одессе
11. Вот пуля просвистела
12. Мама
13. Точка
14. Дверь в лето (II)
Exact Audio Copy V0.99 prebeta 4 from 23. January 2008

Отчёт EAC об извлечении, выполненном 30. марта 2008, 4:21

Чиж & Co / О Любви

Дисковод: Optiarc DVD RW AD-7173A Adapter: 1 ID: 0

Режим чтения : Достоверность
Использование точного потока : Да
Отключение кэша аудио : Да
Использование указателей C2 : Нет

Коррекция смещения при чтении : 48
Способность читать области Lead-in и Lead-out : Нет
Заполнение пропущенных сэмплов тишиной : Да
Удаление блоков с тишиной в начале и конце : Нет
При вычислениях CRC использовались нулевые сэмплы : Нет
Интерфейс : Встроенный Win32-интерфейс для Win NT/2000

Выходной формат : Внутренние WAV-операции
Формат сэмплов : 44.100 Гц; 16 бит; стерео

TOC извлечённого CD

Трек | Старт | Длительность | Начальный сектор | Конечный сектор
---------------------------------------------------------------------
1 | 0:00.00 | 3:17.50 | 0 | 14824
2 | 3:17.50 | 3:29.65 | 14825 | 30564
3 | 6:47.40 | 3:28.07 | 30565 | 46171
4 | 10:15.47 | 4:51.05 | 46172 | 68001
5 | 15:06.52 | 2:49.05 | 68002 | 80681
6 | 17:55.57 | 2:08.50 | 80682 | 90331
7 | 20:04.32 | 3:56.63 | 90332 | 108094
8 | 24:01.20 | 4:35.55 | 108095 | 128774
9 | 28:37.00 | 5:29.60 | 128775 | 153509
10 | 34:06.60 | 6:42.52 | 153510 | 183711
11 | 40:49.37 | 4:28.70 | 183712 | 203881
12 | 45:18.32 | 7:36.15 | 203882 | 238096
13 | 52:54.47 | 3:03.48 | 238097 | 251869
14 | 55:58.20 | 2:06.02 | 251870 | 261321

Характеристики диапазона извлечения и сообщения об ошибках

Выбранный диапазон

Имя файла C:\CD\1995 Чиж & Co - О Любви.wav

Пиковый уровень 100.0 %
Качество диапазона 100.0 %
CRC копии FFEB57C5
Копирование... OK

Ошибок не произошло

AccurateRip: сводка

Трек 1 нет в базе данных
Трек 2 нет в базе данных
Трек 3 нет в базе данных
Трек 4 нет в базе данных
Трек 5 нет в базе данных
Трек 6 нет в базе данных
Трек 7 нет в базе данных
Трек 8 нет в базе данных
Трек 9 нет в базе данных
Трек 10 нет в базе данных
Трек 11 нет в базе данных
Трек 12 нет в базе данных
Трек 13 нет в базе данных
Трек 14 нет в базе данных

Ни одного трека нет в базе AccurateRip

Конец отчёта
01. Фантом
02. Динамовский вальс
03. Снова поезд
04. Эрогеная зона
05. Russo matroso
06. То засада, то измена
07. Прекрасное воскресение
08. Вечная молодость
09. Лирическая
Exact Audio Copy V0.99 prebeta 4 from 23. January 2008

Отчёт EAC об извлечении, выполненном 1. апреля 2008, 12:49

Чиж & Co / Эрогенная Зона

Дисковод: _NEC CDRW/DVD CB1100B Adapter: 1 ID: 0

Режим чтения : Достоверность
Использование точного потока : Да
Отключение кэша аудио : Да
Использование указателей C2 : Нет

Коррекция смещения при чтении : 6
Способность читать области Lead-in и Lead-out : Нет
Заполнение пропущенных сэмплов тишиной : Да
Удаление блоков с тишиной в начале и конце : Нет
При вычислениях CRC использовались нулевые сэмплы : Нет
Интерфейс : Встроенный Win32-интерфейс для Win NT/2000

Выходной формат : Внутренние WAV-операции
Формат сэмплов : 44.100 Гц; 16 бит; стерео

TOC извлечённого CD

Трек | Старт | Длительность | Начальный сектор | Конечный сектор
---------------------------------------------------------------------
1 | 0:00.03 | 5:57.55 | 3 | 26832
2 | 5:57.58 | 3:00.50 | 26833 | 40382
3 | 8:58.33 | 6:54.52 | 40383 | 71484
4 | 15:53.10 | 4:29.63 | 71485 | 91722
5 | 20:22.73 | 4:47.37 | 91723 | 113284
6 | 25:10.35 | 2:43.18 | 113285 | 125527
7 | 27:53.53 | 3:33.60 | 125528 | 141562
8 | 31:27.38 | 11:01.25 | 141563 | 191162
9 | 42:28.63 | 4:33.20 | 191163 | 211657

Характеристики диапазона извлечения и сообщения об ошибках

Выбранный диапазон

Имя файла O:\CD\1996 Чиж & Co - Эрогенная Зона.wav

Пиковый уровень 95.5 %
Качество диапазона 100.0 %
CRC копии E88773C0
Копирование... OK

Ошибок не произошло

AccurateRip: сводка

Трек 1 точное извлечение (доверие 2) [72462BB1]
Трек 2 точное извлечение (доверие 2) [4DAF4B8C]
Трек 3 точное извлечение (доверие 2) [3B09937F]
Трек 4 точное извлечение (доверие 2) [588120A3]
Трек 5 точное извлечение (доверие 2) [FC94B060]
Трек 6 точное извлечение (доверие 2) [E70396C6]
Трек 7 точное извлечение (доверие 2) [7D4197E5]
Трек 8 точное извлечение (доверие 2) [4625E4E7]
Трек 9 точное извлечение (доверие 2) [F63B2F92]

Все треки извлечены точно

Конец отчёта
01. Поезд
02. То измена, то засада
03. а) Невеста б) Домой
04. Космический вальс
05. Скучная история
06. Полонез
07. Ехал всю ночь
08. Не говорите мне о ней
09. Фея
Exact Audio Copy V0.99 prebeta 4 from 23. January 2008

Отчёт EAC об извлечении, выполненном 1. апреля 2008, 14:08

Чиж и Со / Полонез

Дисковод: _NEC CDRW/DVD CB1100B Adapter: 1 ID: 0

Режим чтения : Достоверность
Использование точного потока : Да
Отключение кэша аудио : Да
Использование указателей C2 : Нет

Коррекция смещения при чтении : 6
Способность читать области Lead-in и Lead-out : Нет
Заполнение пропущенных сэмплов тишиной : Да
Удаление блоков с тишиной в начале и конце : Нет
При вычислениях CRC использовались нулевые сэмплы : Нет
Интерфейс : Встроенный Win32-интерфейс для Win NT/2000

Выходной формат : Внутренние WAV-операции
Формат сэмплов : 44.100 Гц; 16 бит; стерео

TOC извлечённого CD

Трек | Старт | Длительность | Начальный сектор | Конечный сектор
---------------------------------------------------------------------
1 | 0:00.00 | 7:16.35 | 0 | 32734
2 | 7:16.35 | 4:34.55 | 32735 | 53339
3 | 11:51.15 | 8:09.62 | 53340 | 90076
4 | 20:01.02 | 5:42.68 | 90077 | 115794
5 | 25:43.70 | 4:40.57 | 115795 | 136851
6 | 30:24.52 | 6:11.33 | 136852 | 164709
7 | 36:36.10 | 4:49.20 | 164710 | 186404
8 | 41:25.30 | 4:28.62 | 186405 | 206566
9 | 45:54.17 | 3:24.10 | 206567 | 221876

Характеристики диапазона извлечения и сообщения об ошибках

Выбранный диапазон

Имя файла O:\CD\1996 Чиж и Со - Полонез.wav

Пиковый уровень 100.0 %
Качество диапазона 99.9 %
CRC копии 93252AFC
Копирование... OK

Ошибок не произошло

AccurateRip: сводка

Трек 1 нет в базе данных
Трек 2 нет в базе данных
Трек 3 нет в базе данных
Трек 4 нет в базе данных
Трек 5 нет в базе данных
Трек 6 нет в базе данных
Трек 7 нет в базе данных
Трек 8 нет в базе данных
Трек 9 точность не определена (достоверность 1) [817EAEB7], AccurateRip вернул [350CA652]

1 трек(и) не удалось проверить на точность
8 трек(и) не содержатся в базе AccurateRip

Ни один трек не прошёл проверки на точность
В вашей базе может быть иной вариант штамповки диска

Конец отчёта
01. Тучи над городом встали
02. Под звездами балканскими
03. На поле танки грохотали...
04. Бомбардировщики
05. Партизанская борода
06. Желтые листья
07. Летят перелётные птицы
08. Ленинградские мости
09. Жёлтый дождь
10. Нейлоновое Сердце
11. Есть!
12. Наши любимые
13. Осень
Exact Audio Copy V0.99 prebeta 4 from 23. January 2008

Отчёт EAC об извлечении, выполненном 1. апреля 2008, 19:56

Чиж & Co / Бомбардировщики

Дисковод: Optiarc DVD RW AD-7173A Adapter: 1 ID: 0

Режим чтения : Достоверность
Использование точного потока : Да
Отключение кэша аудио : Да
Использование указателей C2 : Нет

Коррекция смещения при чтении : 48
Способность читать области Lead-in и Lead-out : Нет
Заполнение пропущенных сэмплов тишиной : Да
Удаление блоков с тишиной в начале и конце : Нет
При вычислениях CRC использовались нулевые сэмплы : Нет
Интерфейс : Встроенный Win32-интерфейс для Win NT/2000

Выходной формат : Внутренние WAV-операции
Формат сэмплов : 44.100 Гц; 16 бит; стерео

TOC извлечённого CD

Трек | Старт | Длительность | Начальный сектор | Конечный сектор
---------------------------------------------------------------------
1 | 0:00.00 | 3:23.17 | 0 | 15241
2 | 3:23.17 | 3:49.45 | 15242 | 32461
3 | 7:12.62 | 3:51.13 | 32462 | 49799
4 | 11:04.00 | 4:51.12 | 49800 | 71636
5 | 15:55.12 | 4:32.53 | 71637 | 92089
6 | 20:27.65 | 4:31.30 | 92090 | 112444
7 | 24:59.20 | 4:49.52 | 112445 | 134171
8 | 29:48.72 | 4:42.30 | 134172 | 155351
9 | 34:31.27 | 5:43.48 | 155352 | 181124
10 | 40:15.00 | 3:56.47 | 181125 | 198871
11 | 44:11.47 | 4:36.45 | 198872 | 219616
12 | 48:48.17 | 6:04.48 | 219617 | 246964
13 | 54:52.65 | 3:55.30 | 246965 | 264619

Характеристики диапазона извлечения и сообщения об ошибках

Выбранный диапазон

Имя файла C:\CD\1997 Чиж & Co - Бомбардировщики.wav

Пиковый уровень 100.0 %
Качество диапазона 100.0 %
CRC копии AF19CB0D
Копирование... OK

Ошибок не произошло

AccurateRip: сводка

Трек 1 нет в базе данных
Трек 2 нет в базе данных
Трек 3 нет в базе данных
Трек 4 нет в базе данных
Трек 5 нет в базе данных
Трек 6 нет в базе данных
Трек 7 нет в базе данных
Трек 8 нет в базе данных
Трек 9 нет в базе данных
Трек 10 нет в базе данных
Трек 11 нет в базе данных
Трек 12 нет в базе данных
Трек 13 нет в базе данных

Ни одного трека нет в базе AccurateRip

Конец отчёта
01. Буги "Харьков"
02. Я не хочу
03. Хочу чаю
04. Дорогуша
05. Глазами и душой
06. Моя Перестройка, мама
07. Куры-гуси
08. В старинном городе
09. Мне не хватает свободы
10. Предпоследняя политика
11. Ассоль
Exact Audio Copy V0.99 prebeta 4 from 23. January 2008

Отчёт EAC об извлечении, выполненном 30. марта 2008, 3:23

Чиж и Разные люди / Буги-Харьков

Дисковод: Optiarc DVD RW AD-7173A Adapter: 1 ID: 0

Режим чтения : Достоверность
Использование точного потока : Да
Отключение кэша аудио : Да
Использование указателей C2 : Нет

Коррекция смещения при чтении : 48
Способность читать области Lead-in и Lead-out : Нет
Заполнение пропущенных сэмплов тишиной : Да
Удаление блоков с тишиной в начале и конце : Нет
При вычислениях CRC использовались нулевые сэмплы : Нет
Интерфейс : Встроенный Win32-интерфейс для Win NT/2000

Выходной формат : Внутренние WAV-операции
Формат сэмплов : 44.100 Гц; 16 бит; стерео

TOC извлечённого CD

Трек | Старт | Длительность | Начальный сектор | Конечный сектор
---------------------------------------------------------------------
1 | 0:00.00 | 4:03.50 | 0 | 18274
2 | 4:03.50 | 3:45.65 | 18275 | 35214
3 | 7:49.40 | 3:33.00 | 35215 | 51189
4 | 11:22.40 | 5:24.58 | 51190 | 75547
5 | 16:47.23 | 4:06.67 | 75548 | 94064
6 | 20:54.15 | 5:35.53 | 94065 | 119242
7 | 26:29.68 | 3:25.00 | 119243 | 134617
8 | 29:54.68 | 3:41.32 | 134618 | 151224
9 | 33:36.25 | 5:04.10 | 151225 | 174034
10 | 38:40.35 | 2:51.65 | 174035 | 186924
11 | 41:32.25 | 4:28.55 | 186925 | 207079

Характеристики диапазона извлечения и сообщения об ошибках

Выбранный диапазон

Имя файла C:\CD\1997 Чиж и Разные люди - Буги-Харьков.wav

Пиковый уровень 98.8 %
Качество диапазона 99.8 %
CRC копии 28525CF2
Копирование... OK

Ошибок не произошло

AccurateRip: сводка

Трек 1 нет в базе данных
Трек 2 нет в базе данных
Трек 3 нет в базе данных
Трек 4 нет в базе данных
Трек 5 нет в базе данных
Трек 6 нет в базе данных
Трек 7 нет в базе данных
Трек 8 нет в базе данных
Трек 9 нет в базе данных
Трек 10 нет в базе данных
Трек 11 нет в базе данных

Ни одного трека нет в базе AccurateRip

Конец отчёта
01. Я подобно собаке
02. Еду, еду
03. Бомбардировщики
04. На двоих
05. Под звездами балканскими
06. Hoochie Coochie Man
07. Russo Matroso
08. Папиросы
09. Есть!
10. На поле танки грохотали
11. Урал байкер блюз
12. Фантом
Exact Audio Copy V0.99 prebeta 4 from 23. January 2008

Отчёт EAC об извлечении, выполненном 30. апреля 2008, 16:15

Чиж & Co / Новый Иерусалим

Дисковод: _NEC CDRW/DVD CB1100B Adapter: 1 ID: 0

Режим чтения : Достоверность
Использование точного потока : Да
Отключение кэша аудио : Да
Использование указателей C2 : Нет

Коррекция смещения при чтении : 6
Способность читать области Lead-in и Lead-out : Нет
Заполнение пропущенных сэмплов тишиной : Да
Удаление блоков с тишиной в начале и конце : Нет
При вычислениях CRC использовались нулевые сэмплы : Нет
Интерфейс : Встроенный Win32-интерфейс для Win NT/2000

Выходной формат : Внутренние WAV-операции
Формат сэмплов : 44.100 Гц; 16 бит; стерео

TOC извлечённого CD

Трек | Старт | Длительность | Начальный сектор | Конечный сектор
---------------------------------------------------------------------
1 | 0:00.00 | 6:05.02 | 0 | 27376
2 | 6:05.02 | 3:57.48 | 27377 | 45199
3 | 10:02.50 | 5:04.32 | 45200 | 68031
4 | 15:07.07 | 6:08.30 | 68032 | 95661
5 | 21:15.37 | 3:19.43 | 95662 | 110629
6 | 24:35.05 | 5:00.40 | 110630 | 133169
7 | 29:35.45 | 4:40.17 | 133170 | 154186
8 | 34:15.62 | 3:58.63 | 154187 | 172099
9 | 38:14.50 | 4:18.40 | 172100 | 191489
10 | 42:33.15 | 3:55.10 | 191490 | 209124
11 | 46:28.25 | 9:07.57 | 209125 | 250206
12 | 55:36.07 | 5:53.73 | 250207 | 276754

Характеристики диапазона извлечения и сообщения об ошибках

Выбранный диапазон

Имя файла O:\CD\Чиж & Co - Новый Иерусалим.wav

Пиковый уровень 98.8 %
Качество диапазона 100.0 %
CRC копии 225C6C67
Копирование... OK

Ошибок не произошло

AccurateRip: сводка

Трек 1 нет в базе данных
Трек 2 нет в базе данных
Трек 3 нет в базе данных
Трек 4 нет в базе данных
Трек 5 нет в базе данных
Трек 6 нет в базе данных
Трек 7 нет в базе данных
Трек 8 нет в базе данных
Трек 9 нет в базе данных
Трек 10 нет в базе данных
Трек 11 нет в базе данных
Трек 12 нет в базе данных

Ни одного трека нет в базе AccurateRip

Конец отчёта
01. Она не вышла замуж...
02. Поезд
03. О любви
04. Поход
05. О.К.
06. Еду, еду
07. Мышка (Колыбельная хиппи)
08. Hoochie-Coochie Man
Exact Audio Copy V0.99 prebeta 4 from 23. January 2008

Отчёт EAC об извлечении, выполненном 26. апреля 2008, 17:46

Чиж & Со / Лучшие блюзы и баллады CD1

Дисковод: _NEC CDRW/DVD CB1100B Adapter: 1 ID: 0

Режим чтения : Достоверность
Использование точного потока : Да
Отключение кэша аудио : Да
Использование указателей C2 : Нет

Коррекция смещения при чтении : 6
Способность читать области Lead-in и Lead-out : Нет
Заполнение пропущенных сэмплов тишиной : Да
Удаление блоков с тишиной в начале и конце : Нет
При вычислениях CRC использовались нулевые сэмплы : Нет
Интерфейс : Встроенный Win32-интерфейс для Win NT/2000

Выходной формат : Внутренние WAV-операции
Формат сэмплов : 44.100 Гц; 16 бит; стерео

TOC извлечённого CD

Трек | Старт | Длительность | Начальный сектор | Конечный сектор
---------------------------------------------------------------------
1 | 0:00.00 | 9:37.05 | 0 | 43279
2 | 9:37.05 | 6:51.64 | 43280 | 74168
3 | 16:28.69 | 4:40.00 | 74169 | 95168
4 | 21:08.69 | 3:26.00 | 95169 | 110618
5 | 24:34.69 | 4:49.00 | 110619 | 132293
6 | 29:23.69 | 3:57.35 | 132294 | 150103
7 | 33:21.29 | 2:16.44 | 150104 | 160347
8 | 35:37.73 | 4:32.18 | 160348 | 180765

Характеристики диапазона извлечения и сообщения об ошибках

Выбранный диапазон

Имя файла O:\CD\1995 Чиж & Со - Лучшие блюзы и баллады CD1.wav

Пиковый уровень 100.0 %
Качество диапазона 100.0 %
CRC копии 3CC6D350
Копирование... OK

Ошибок не произошло

AccurateRip: сводка

Трек 1 нет в базе данных
Трек 2 нет в базе данных
Трек 3 нет в базе данных
Трек 4 нет в базе данных
Трек 5 нет в базе данных
Трек 6 нет в базе данных
Трек 7 нет в базе данных
Трек 8 нет в базе данных

Ни одного трека нет в базе AccurateRip

Конец отчёта
01. Перекресток
02. Ты был в этом городе первым
03. Идиллия
04. Полонез
05. Урал Байкер Блюз
06. Глупенькая песня (Ассоль)
07. Сен Симилья
Exact Audio Copy V0.99 prebeta 4 from 23. January 2008

Отчёт EAC об извлечении, выполненном 30. марта 2008, 1:59

Чиж & Сo / Лучшие Блюзы и Баллады 2

Дисковод: Optiarc DVD RW AD-7173A Adapter: 1 ID: 0

Режим чтения : Достоверность
Использование точного потока : Да
Отключение кэша аудио : Да
Использование указателей C2 : Нет

Коррекция смещения при чтении : 48
Способность читать области Lead-in и Lead-out : Нет
Заполнение пропущенных сэмплов тишиной : Да
Удаление блоков с тишиной в начале и конце : Нет
При вычислениях CRC использовались нулевые сэмплы : Нет
Интерфейс : Встроенный Win32-интерфейс для Win NT/2000

Выходной формат : Внутренние WAV-операции
Формат сэмплов : 44.100 Гц; 16 бит; стерео

TOC извлечённого CD

Трек | Старт | Длительность | Начальный сектор | Конечный сектор
---------------------------------------------------------------------
1 | 0:00.00 | 6:56.15 | 0 | 31214
2 | 6:56.15 | 5:11.40 | 31215 | 54579
3 | 12:07.55 | 5:29.22 | 54580 | 79276
4 | 17:37.02 | 6:13.00 | 79277 | 107251
5 | 23:50.02 | 7:06.38 | 107252 | 139239
6 | 30:56.40 | 4:31.67 | 139240 | 159631
7 | 35:28.32 | 5:39.30 | 159632 | 185086

Характеристики диапазона извлечения и сообщения об ошибках

Выбранный диапазон

Имя файла C:\CD\1998 Чиж & Сo - Лучшие Блюзы и Баллады 2.wav

Пиковый уровень 100.0 %
Качество диапазона 100.0 %
CRC копии 7EB4105C
Копирование... OK

Ошибок не произошло

AccurateRip: сводка

Трек 1 нет в базе данных
Трек 2 нет в базе данных
Трек 3 нет в базе данных
Трек 4 нет в базе данных
Трек 5 нет в базе данных
Трек 6 нет в базе данных
Трек 7 нет в базе данных

Ни одного трека нет в базе AccurateRip

Конец отчёта
01. Всё равно
02. Там, где дали темны
03. Люси
04. Симфония мокрой луны
05. Зима
06. Still got the blues
07. На том берегу
08. Красотка - лошадь
09. Концерт
10. Иллюзия
11. Блюз пустой комнаты
12. Прекраснее нет эмоций
13. Нерастворимая карма
14. Ангел - хранитель
Exact Audio Copy V0.99 prebeta 4 from 23. January 2008

Отчёт EAC об извлечении, выполненном 30. марта 2008, 3:41

Ю.Морозов и Чиж & Co / Иллюзия

Дисковод: Optiarc DVD RW AD-7173A Adapter: 1 ID: 0

Режим чтения : Достоверность
Использование точного потока : Да
Отключение кэша аудио : Да
Использование указателей C2 : Нет

Коррекция смещения при чтении : 48
Способность читать области Lead-in и Lead-out : Нет
Заполнение пропущенных сэмплов тишиной : Да
Удаление блоков с тишиной в начале и конце : Нет
При вычислениях CRC использовались нулевые сэмплы : Нет
Интерфейс : Встроенный Win32-интерфейс для Win NT/2000

Выходной формат : Внутренние WAV-операции
Формат сэмплов : 44.100 Гц; 16 бит; стерео

TOC извлечённого CD

Трек | Старт | Длительность | Начальный сектор | Конечный сектор
---------------------------------------------------------------------
1 | 0:00.00 | 4:23.43 | 0 | 19767
2 | 4:23.43 | 3:33.05 | 19768 | 35747
3 | 7:56.48 | 4:04.35 | 35748 | 54082
4 | 12:01.08 | 4:06.70 | 54083 | 72602
5 | 16:08.03 | 4:05.37 | 72603 | 91014
6 | 20:13.40 | 4:11.58 | 91015 | 109897
7 | 24:25.23 | 4:19.70 | 109898 | 129392
8 | 28:45.18 | 3:59.00 | 129393 | 147317
9 | 32:44.18 | 6:29.02 | 147318 | 176494
10 | 39:13.20 | 2:44.73 | 176495 | 188867
11 | 41:58.18 | 5:41.30 | 188868 | 214472
12 | 47:39.48 | 4:04.10 | 214473 | 232782
13 | 51:43.58 | 4:28.07 | 232783 | 252889
14 | 56:11.65 | 4:02.33 | 252890 | 271072

Характеристики диапазона извлечения и сообщения об ошибках

Выбранный диапазон

Имя файла C:\CD\1998 Ю.Морозов и Чиж & Co - Иллюзия.wav

Пиковый уровень 100.0 %
Качество диапазона 100.0 %
CRC копии B3683F7F
Копирование... OK

Ошибок не произошло

AccurateRip: сводка

Трек 1 нет в базе данных
Трек 2 нет в базе данных
Трек 3 нет в базе данных
Трек 4 нет в базе данных
Трек 5 нет в базе данных
Трек 6 нет в базе данных
Трек 7 нет в базе данных
Трек 8 нет в базе данных
Трек 9 нет в базе данных
Трек 10 нет в базе данных
Трек 11 нет в базе данных
Трек 12 нет в базе данных
Трек 13 нет в базе данных
Трек 14 нет в базе данных

Ни одного трека нет в базе AccurateRip

Конец отчёта
01. Сева Новгородцев: Прошу любить и жаловать - Сергей "Чиж" Чиграков
02. Еду, еду
03. О любви
04. Перекресток
05. Дополнительный 38й
06. Автобус
07. Hoochie - Coochie Man
08. Полонез
09. Форест Гамп
10. Би Би Си продолжает передачу
Exact Audio Copy V0.99 prebeta 4 from 23. January 2008

Отчёт EAC об извлечении, выполненном 29. марта 2008, 21:01

Чиж & Cо / В 20:00 по Гринвичу

Дисковод: Optiarc DVD RW AD-7173A Adapter: 1 ID: 0

Режим чтения : Достоверность
Использование точного потока : Да
Отключение кэша аудио : Да
Использование указателей C2 : Нет

Коррекция смещения при чтении : 48
Способность читать области Lead-in и Lead-out : Нет
Заполнение пропущенных сэмплов тишиной : Да
Удаление блоков с тишиной в начале и конце : Нет
При вычислениях CRC использовались нулевые сэмплы : Нет
Интерфейс : Встроенный Win32-интерфейс для Win NT/2000

Выходной формат : Внутренние WAV-операции
Формат сэмплов : 44.100 Гц; 16 бит; стерео

TOC извлечённого CD

Трек | Старт | Длительность | Начальный сектор | Конечный сектор
---------------------------------------------------------------------
1 | 0:00.00 | 1:51.51 | 0 | 8375
2 | 1:51.51 | 4:03.00 | 8376 | 26600
3 | 5:54.51 | 4:58.31 | 26601 | 48981
4 | 10:53.07 | 7:36.72 | 48982 | 83253
5 | 18:30.04 | 7:02.22 | 83254 | 114925
6 | 25:32.26 | 4:53.22 | 114926 | 136922
7 | 30:25.48 | 4:38.42 | 136923 | 157814
8 | 35:04.15 | 5:27.71 | 157815 | 182410
9 | 40:32.11 | 5:49.49 | 182411 | 208634
10 | 46:21.60 | 0:38.65 | 208635 | 211549

Характеристики диапазона извлечения и сообщения об ошибках

Выбранный диапазон

Имя файла C:\CD\1999 Чиж & Cо - В 20 00 по Гринвичу.wav

Пиковый уровень 100.0 %
Качество диапазона 100.0 %
CRC копии 0EEB5A9C
Копирование... OK

Ошибок не произошло

AccurateRip: сводка

Трек 1 нет в базе данных
Трек 2 нет в базе данных
Трек 3 нет в базе данных
Трек 4 нет в базе данных
Трек 5 нет в базе данных
Трек 6 нет в базе данных
Трек 7 нет в базе данных
Трек 8 нет в базе данных
Трек 9 нет в базе данных
Трек 10 нет в базе данных

Ни одного трека нет в базе AccurateRip

Конец отчёта
01. Нечего терять
02. Еду, еду
03. Рожден, чтобы бежать
04. Урал байкер блюз
05. На двоих
06. Пригородный блюз
07. Зверек
08. Дорожная № 2
09. Я подобно собаке...
10. Расстели мне поле
11. Пароль
12. Пригородный блюз (bonus track)
13. Я подобно собаке... (bonus track)
14. Урал байкер блюз (bonus track)
Exact Audio Copy V0.99 prebeta 4 from 23. January 2008

Отчёт EAC об извлечении, выполненном 30. апреля 2008, 11:50

Чиж & Cо / Нечего терять

Дисковод: _NEC CDRW/DVD CB1100B Adapter: 1 ID: 0

Режим чтения : Достоверность
Использование точного потока : Да
Отключение кэша аудио : Да
Использование указателей C2 : Нет

Коррекция смещения при чтении : 6
Способность читать области Lead-in и Lead-out : Нет
Заполнение пропущенных сэмплов тишиной : Да
Удаление блоков с тишиной в начале и конце : Нет
При вычислениях CRC использовались нулевые сэмплы : Нет
Интерфейс : Встроенный Win32-интерфейс для Win NT/2000

Выходной формат : Внутренние WAV-операции
Формат сэмплов : 44.100 Гц; 16 бит; стерео

TOC извлечённого CD

Трек | Старт | Длительность | Начальный сектор | Конечный сектор
---------------------------------------------------------------------
1 | 0:00.00 | 4:36.17 | 0 | 20716
2 | 4:36.17 | 4:01.16 | 20717 | 38807
3 | 8:37.33 | 5:28.54 | 38808 | 63461
4 | 14:06.12 | 6:30.22 | 63462 | 92733
5 | 20:36.34 | 6:15.44 | 92734 | 120902
6 | 26:52.03 | 4:03.23 | 120903 | 139150
7 | 30:55.26 | 4:15.47 | 139151 | 158322
8 | 35:10.73 | 4:29.52 | 158323 | 178549
9 | 39:40.50 | 5:26.44 | 178550 | 203043
10 | 45:07.19 | 3:49.29 | 203044 | 220247
11 | 48:56.48 | 4:49.21 | 220248 | 241943
12 | 53:45.69 | 3:45.69 | 241944 | 258887
13 | 57:31.63 | 5:09.18 | 258888 | 282080
14 | 62:41.06 | 6:33.56 | 282081 | 311611

Характеристики диапазона извлечения и сообщения об ошибках

Выбранный диапазон

Имя файла O:\CD\Чиж & Cо - Нечего терять.wav

Пиковый уровень 100.0 %
Качество диапазона 100.0 %
CRC копии ADC2D5BE
Копирование... OK

Ошибок не произошло

AccurateRip: сводка

Трек 1 нет в базе данных
Трек 2 нет в базе данных
Трек 3 нет в базе данных
Трек 4 нет в базе данных
Трек 5 нет в базе данных
Трек 6 нет в базе данных
Трек 7 нет в базе данных
Трек 8 нет в базе данных
Трек 9 нет в базе данных
Трек 10 нет в базе данных
Трек 11 нет в базе данных
Трек 12 нет в базе данных
Трек 13 нет в базе данных
Трек 14 нет в базе данных

Ни одного трека нет в базе AccurateRip

Конец отчёта
01. Не ко мне
02. 18 берез
03. Менуэт
04. Гайдном буду!
05. Танец дамской разведки
06. Романс
07. Пастораль
08. День рождения
09. 17.04.2001
10. Гав-Гав
Exact Audio Copy V0.99 prebeta 4 from 23. January 2008

Отчёт EAC об извлечении, выполненном 29. марта 2008, 22:45

Чиж & Co / Гайдном буду!

Дисковод: MITSUMI CR-48X5TE Adapter: 1 ID: 1

Режим чтения : Достоверность
Использование точного потока : Да
Отключение кэша аудио : Да
Использование указателей C2 : Нет

Коррекция смещения при чтении : 674
Способность читать области Lead-in и Lead-out : Нет
Заполнение пропущенных сэмплов тишиной : Да
Удаление блоков с тишиной в начале и конце : Нет
При вычислениях CRC использовались нулевые сэмплы : Нет
Интерфейс : Встроенный Win32-интерфейс для Win NT/2000

Выходной формат : Внутренние WAV-операции
Формат сэмплов : 44.100 Гц; 16 бит; стерео

TOC извлечённого CD

Трек | Старт | Длительность | Начальный сектор | Конечный сектор
---------------------------------------------------------------------
1 | 0:00.00 | 3:04.43 | 0 | 13842
2 | 3:04.43 | 3:39.49 | 13843 | 30316
3 | 6:44.17 | 4:58.12 | 30317 | 52678
4 | 11:42.29 | 8:37.13 | 52679 | 91466
5 | 20:19.42 | 5:32.35 | 91467 | 116401
6 | 25:52.02 | 4:19.51 | 116402 | 135877
7 | 30:11.53 | 3:40.60 | 135878 | 152437
8 | 33:52.38 | 4:07.21 | 152438 | 170983
9 | 37:59.59 | 6:35.08 | 170984 | 200616
10 | 44:34.67 | 3:50.60 | 200617 | 217926

Характеристики диапазона извлечения и сообщения об ошибках

Выбранный диапазон

Имя файла C:\CD\Чиж & Co - Гайдном буду!.wav

Пиковый уровень 98.8 %
Качество диапазона 100.0 %
CRC копии 9584DCAB
Копирование... OK

Ошибок не произошло

AccurateRip: сводка

Трек 1 точность не определена (достоверность 3) [A7C95C09], AccurateRip вернул [BA290A8A]
Трек 2 точность не определена (достоверность 3) [63B84D4F], AccurateRip вернул [4DC3941B]
Трек 3 точность не определена (достоверность 3) [90DAD1F9], AccurateRip вернул [B681FBB7]
Трек 4 точность не определена (достоверность 3) [4DA03CC8], AccurateRip вернул [ECCC050E]
Трек 5 точность не определена (достоверность 3) [DB68D5F9], AccurateRip вернул [6D75878D]
Трек 6 точность не определена (достоверность 3) [5212A68D], AccurateRip вернул [6EAACB29]
Трек 7 точность не определена (достоверность 3) [B44BADFA], AccurateRip вернул [2ACE98A8]
Трек 8 точность не определена (достоверность 3) [2C0D2444], AccurateRip вернул [D22F872A]
Трек 9 точность не определена (достоверность 4) [B767A05E], AccurateRip вернул [E9121DE2]
Трек 10 точность не определена (достоверность 5) [B753416C], AccurateRip вернул [9857DF52]

Ни один трек не прошёл проверки на точность
В вашей базе может быть иной вариант штамповки диска

Конец отчёта
01. Поход
02. Такие дела
03. Перекресток
04. Дополнительный 38-й
05. Вечная молодость
06. Урал байкер блюз
07. Вот пуля просвистела
08. Она не вышла замуж
09. Бомбардировщики
10. Полонез
11. Мне не хватает свободы
12. Hoochie coochie man
13. Нечего терять
14. О любви
15. Пастораль
Exact Audio Copy V0.99 prebeta 4 from 23. January 2008

Отчёт EAC об извлечении, выполненном 28. марта 2008, 4:08

Чиж & Со / Пастораль

Дисковод: Optiarc DVD RW AD-7173A Adapter: 1 ID: 0

Режим чтения : Достоверность
Использование точного потока : Да
Отключение кэша аудио : Да
Использование указателей C2 : Нет

Коррекция смещения при чтении : 48
Способность читать области Lead-in и Lead-out : Нет
Заполнение пропущенных сэмплов тишиной : Да
Удаление блоков с тишиной в начале и конце : Нет
При вычислениях CRC использовались нулевые сэмплы : Нет
Интерфейс : Встроенный Win32-интерфейс для Win NT/2000

Выходной формат : Внутренние WAV-операции
Формат сэмплов : 44.100 Гц; 16 бит; стерео

TOC извлечённого CD

Трек | Старт | Длительность | Начальный сектор | Конечный сектор
---------------------------------------------------------------------
1 | 0:00.00 | 3:28.00 | 0 | 15599
2 | 3:28.00 | 5:53.00 | 15600 | 42074
3 | 9:21.00 | 6:58.00 | 42075 | 73424
4 | 16:19.00 | 5:06.00 | 73425 | 96374
5 | 21:25.00 | 2:57.00 | 96375 | 109649
6 | 24:22.00 | 6:28.00 | 109650 | 138749
7 | 30:50.00 | 4:29.00 | 138750 | 158924
8 | 35:19.00 | 6:43.00 | 158925 | 189149
9 | 42:02.00 | 4:47.00 | 189150 | 210674
10 | 46:49.00 | 6:09.00 | 210675 | 238349
11 | 52:58.00 | 4:18.00 | 238350 | 257699
12 | 57:16.00 | 3:40.00 | 257700 | 274199
13 | 60:56.00 | 4:34.00 | 274200 | 294749
14 | 65:30.00 | 4:37.00 | 294750 | 315524
15 | 70:07.00 | 3:32.00 | 315525 | 331424

Характеристики диапазона извлечения и сообщения об ошибках

Выбранный диапазон

Имя файла D:\CD\2001 Чиж & Со - Пастораль.wav

Пиковый уровень 96.6 %
Качество диапазона 99.9 %
CRC копии EB1C0AA9
Копирование... OK

Ошибок не произошло

AccurateRip: сводка

Трек 1 точность не определена (достоверность 1) [91A797FA], AccurateRip вернул [854B401E]
Трек 2 точность не определена (достоверность 1) [9911D5F5], AccurateRip вернул [F3CB4B86]
Трек 3 точность не определена (достоверность 1) [9265904A], AccurateRip вернул [458DD32F]
Трек 4 точность не определена (достоверность 1) [3E56E2F6], AccurateRip вернул [1FF50FD6]
Трек 5 точность не определена (достоверность 1) [E264FC40], AccurateRip вернул [BE59558A]
Трек 6 точность не определена (достоверность 1) [300FFA20], AccurateRip вернул [A71D6150]
Трек 7 точность не определена (достоверность 1) [E7CFAB5E], AccurateRip вернул [9C40CE9D]
Трек 8 точность не определена (достоверность 1) [D27B7D47], AccurateRip вернул [2A801F7C]
Трек 9 точность не определена (достоверность 1) [2A4AFEAE], AccurateRip вернул [DCDD2B76]
Трек 10 точность не определена (достоверность 1) [A828727D], AccurateRip вернул [DCE4E1D9]
Трек 11 точность не определена (достоверность 1) [7FEF36F4], AccurateRip вернул [06AC07CC]
Трек 12 точность не определена (достоверность 1) [266AE766], AccurateRip вернул [C7CEF506]
Трек 13 точность не определена (достоверность 1) [B12E5BC4], AccurateRip вернул [E1D8220F]
Трек 14 точность не определена (достоверность 1) [B5B4F943], AccurateRip вернул [422EC33F]
Трек 15 точность не определена (достоверность 1) [F8B11E0E], AccurateRip вернул [D609FBD3]

Ни один трек не прошёл проверки на точность
В вашей базе может быть иной вариант штамповки диска

Конец отчёта
01. Мне не хватает свободы
02. Полонез
03. Домой
04. Сенсимилья
05. Я подобен собаке
06. Летят перелётные птицы
07. То измена, то засада
08. Кругом тайга
09. Еду, еду
10. Пригородный блюз
11. На двоих
12. На поле танки грохотали
13. Папиросы
14. Пароль
15. Бомбардировщики
16. О любви
17. Бездельник 2
Exact Audio Copy V0.99 prebeta 4 from 23. January 2008

Отчёт EAC об извлечении, выполненном 30. марта 2008, 9:21

Чиж & Со / Энциклопедия российского рока

Дисковод: MITSUMI CR-48X5TE Adapter: 1 ID: 1

Режим чтения : Достоверность
Использование точного потока : Да
Отключение кэша аудио : Да
Использование указателей C2 : Нет

Коррекция смещения при чтении : 674
Способность читать области Lead-in и Lead-out : Нет
Заполнение пропущенных сэмплов тишиной : Да
Удаление блоков с тишиной в начале и конце : Нет
При вычислениях CRC использовались нулевые сэмплы : Нет
Интерфейс : Встроенный Win32-интерфейс для Win NT/2000

Выходной формат : Внутренние WAV-операции
Формат сэмплов : 44.100 Гц; 16 бит; стерео

TOC извлечённого CD

Трек | Старт | Длительность | Начальный сектор | Конечный сектор
---------------------------------------------------------------------
1 | 0:00.00 | 4:17.36 | 0 | 19310
2 | 4:17.36 | 6:08.50 | 19311 | 46960
3 | 10:26.11 | 4:01.37 | 46961 | 65072
4 | 14:27.48 | 5:40.64 | 65073 | 90636
5 | 20:08.37 | 5:42.07 | 90637 | 116293
6 | 25:50.44 | 4:46.49 | 116294 | 137792
7 | 30:37.18 | 4:29.63 | 137793 | 158030
8 | 35:07.06 | 3:34.20 | 158031 | 174100
9 | 38:41.26 | 3:57.50 | 174101 | 191925
10 | 42:39.01 | 3:41.55 | 191926 | 208555
11 | 46:20.56 | 6:12.58 | 208556 | 236513
12 | 52:33.39 | 3:48.16 | 236514 | 253629
13 | 56:21.55 | 4:57.54 | 253630 | 275958
14 | 61:19.34 | 4:26.17 | 275959 | 295925
15 | 65:45.51 | 4:46.51 | 295926 | 317426
16 | 70:32.27 | 4:37.31 | 317427 | 338232
17 | 75:09.58 | 4:46.09 | 338233 | 359691

Характеристики диапазона извлечения и сообщения об ошибках

Выбранный диапазон

Имя файла C:\CD\2001 Чиж & Со - Энциклопедия российского рока\2001 Чиж & Со - Энциклопедия российского рока.wav

Пиковый уровень 100.0 %
Качество диапазона 100.0 %
CRC копии 8BB13C1F
Копирование... OK

Ошибок не произошло

AccurateRip: сводка

Трек 1 точное извлечение (доверие 1) [A7124B51]
Трек 2 точное извлечение (доверие 1) [4651C633]
Трек 3 точное извлечение (доверие 1) [E737BB13]
Трек 4 точное извлечение (доверие 1) [E775AFD3]
Трек 5 точное извлечение (доверие 1) [64FFA5D3]
Трек 6 точное извлечение (доверие 1) [E0C83AE5]
Трек 7 точное извлечение (доверие 1) [21937A36]
Трек 8 точное извлечение (доверие 1) [0EEBE7B1]
Трек 9 точное извлечение (доверие 1) [799D8B43]
Трек 10 точное извлечение (доверие 1) [C0CE2FB5]
Трек 11 точное извлечение (доверие 1) [A29095C6]
Трек 12 точное извлечение (доверие 1) [419ADCBA]
Трек 13 точное извлечение (доверие 1) [31DC6CB7]
Трек 14 точное извлечение (доверие 1) [3F877C8D]
Трек 15 точное извлечение (доверие 1) [DFF048B7]
Трек 16 точное извлечение (доверие 1) [64F51A8D]
Трек 17 точное извлечение (доверие 1) [BAA050FC]

Все треки извлечены точно

Конец отчёта
01. Мишень
02. Still got the blues
03. Волки
04. Смутные дни
05. Все равно
06. Там, где дали темные
07. Красотка лошадь
08. Люси
09. Блюз пустой комнаты
10. На том берегу
11. Гей, славяне!
12. Концерт
13. Ангел хранитель
Exact Audio Copy V0.99 prebeta 4 from 23. January 2008

Отчёт EAC об извлечении, выполненном 26. апреля 2008, 17:31

Чиж & Co и Юрий Морозов / Концерт в зале около Финляндского вокзала

Дисковод: _NEC CDRW/DVD CB1100B Adapter: 1 ID: 0

Режим чтения : Достоверность
Использование точного потока : Да
Отключение кэша аудио : Да
Использование указателей C2 : Нет

Коррекция смещения при чтении : 6
Способность читать области Lead-in и Lead-out : Нет
Заполнение пропущенных сэмплов тишиной : Да
Удаление блоков с тишиной в начале и конце : Нет
При вычислениях CRC использовались нулевые сэмплы : Нет
Интерфейс : Встроенный Win32-интерфейс для Win NT/2000

Выходной формат : Внутренние WAV-операции
Формат сэмплов : 44.100 Гц; 16 бит; стерео

TOC извлечённого CD

Трек | Старт | Длительность | Начальный сектор | Конечный сектор
---------------------------------------------------------------------
1 | 0:00.00 | 5:15.19 | 0 | 23643
2 | 5:15.19 | 4:43.13 | 23644 | 44881
3 | 9:58.32 | 4:17.02 | 44882 | 64158
4 | 14:15.34 | 4:20.24 | 64159 | 83682
5 | 18:35.58 | 4:27.15 | 83683 | 103722
6 | 23:02.73 | 3:40.35 | 103723 | 120257
7 | 26:43.33 | 5:40.19 | 120258 | 145776
8 | 32:23.52 | 3:36.62 | 145777 | 162038
9 | 36:00.39 | 5:27.12 | 162039 | 186575
10 | 41:27.51 | 4:36.34 | 186576 | 207309
11 | 46:04.10 | 3:40.74 | 207310 | 223883
12 | 49:45.09 | 7:16.01 | 223884 | 256584
13 | 57:01.10 | 5:16.01 | 256585 | 280285

Характеристики диапазона извлечения и сообщения об ошибках

Выбранный диапазон

Имя файла O:\CD\2002 Чиж & Co и Юрий Морозов - Концерт в зале около Финляндского вокзала.wav

Пиковый уровень 98.8 %
Качество диапазона 100.0 %
CRC копии 3636B4A6
Копирование... OK

Ошибок не произошло

AccurateRip: сводка

Трек 1 нет в базе данных
Трек 2 нет в базе данных
Трек 3 нет в базе данных
Трек 4 нет в базе данных
Трек 5 нет в базе данных
Трек 6 нет в базе данных
Трек 7 нет в базе данных
Трек 8 нет в базе данных
Трек 9 нет в базе данных
Трек 10 нет в базе данных
Трек 11 нет в базе данных
Трек 12 нет в базе данных
Трек 13 нет в базе данных

Ни одного трека нет в базе AccurateRip

Конец отчёта
01. Такие дела
02. Аты-баты
03. Деньги
04. Траверза
05. Еду, еду
06. Вера
07. Ассоль
08. Родина предков
09. Папиросы
10. Проходчик
11. Пусть сегодня никто не умрет
Exact Audio Copy V0.99 prebeta 4 from 23. January 2008

Отчёт EAC об извлечении, выполненном 1. апреля 2008, 12:28

Чиж & Co + Разные люди / 44

Дисковод: _NEC CDRW/DVD CB1100B Adapter: 1 ID: 0

Режим чтения : Достоверность
Использование точного потока : Да
Отключение кэша аудио : Да
Использование указателей C2 : Нет

Коррекция смещения при чтении : 6
Способность читать области Lead-in и Lead-out : Нет
Заполнение пропущенных сэмплов тишиной : Да
Удаление блоков с тишиной в начале и конце : Нет
При вычислениях CRC использовались нулевые сэмплы : Нет
Интерфейс : Встроенный Win32-интерфейс для Win NT/2000

Выходной формат : Внутренние WAV-операции
Формат сэмплов : 44.100 Гц; 16 бит; стерео

TOC извлечённого CD

Трек | Старт | Длительность | Начальный сектор | Конечный сектор
---------------------------------------------------------------------
1 | 0:00.00 | 4:13.19 | 0 | 18993
2 | 4:13.19 | 4:23.08 | 18994 | 38726
3 | 8:36.27 | 3:29.25 | 38727 | 54426
4 | 12:05.52 | 4:20.07 | 54427 | 73933
5 | 16:25.59 | 3:43.53 | 73934 | 90711
6 | 20:09.37 | 3:58.22 | 90712 | 108583
7 | 24:07.59 | 4:01.29 | 108584 | 126687
8 | 28:09.13 | 5:55.42 | 126688 | 153354
9 | 34:04.55 | 4:12.23 | 153355 | 172277
10 | 38:17.03 | 4:50.70 | 172278 | 194097
11 | 43:07.73 | 7:07.57 | 194098 | 226179

Характеристики диапазона извлечения и сообщения об ошибках

Выбранный диапазон

Имя файла O:\CD\2005 Чиж & Co + Разные люди - 44.wav

Пиковый уровень 98.8 %
Качество диапазона 100.0 %
CRC копии 768889EA
Копирование... OK

Ошибок не произошло

AccurateRip: сводка

Трек 1 нет в базе данных
Трек 2 нет в базе данных
Трек 3 нет в базе данных
Трек 4 нет в базе данных
Трек 5 нет в базе данных
Трек 6 нет в базе данных
Трек 7 нет в базе данных
Трек 8 нет в базе данных
Трек 9 нет в базе данных
Трек 10 нет в базе данных
Трек 11 нет в базе данных

Ни одного трека нет в базе AccurateRip

Конец отчёта
01. Поезд
02. Ливень
03. Про слонов
04. Мама
05. Диалог
06. Пойдем домой
07. Метелица
08. Колокольня
09. Июльская ночь
10. Улицы
11. Кирпичи
Exact Audio Copy V0.99 prebeta 4 from 23. January 2008

Отчёт EAC об извлечении, выполненном 27. марта 2008, 10:43

Чиж и Паша / Про слонов

Дисковод: _NEC CDRW/DVD CB1100B Adapter: 1 ID: 0

Режим чтения : Достоверность
Использование точного потока : Да
Отключение кэша аудио : Да
Использование указателей C2 : Нет

Коррекция смещения при чтении : 6
Способность читать области Lead-in и Lead-out : Нет
Заполнение пропущенных сэмплов тишиной : Да
Удаление блоков с тишиной в начале и конце : Нет
При вычислениях CRC использовались нулевые сэмплы : Нет
Интерфейс : Встроенный Win32-интерфейс для Win NT/2000

Выходной формат : Внутренние WAV-операции
Формат сэмплов : 44.100 Гц; 16 бит; стерео

TOC извлечённого CD

Трек | Старт | Длительность | Начальный сектор | Конечный сектор
---------------------------------------------------------------------
1 | 0:00.00 | 3:42.26 | 0 | 16675
2 | 3:42.26 | 4:31.37 | 16676 | 37037
3 | 8:13.63 | 4:08.66 | 37038 | 55703
4 | 12:22.54 | 3:21.10 | 55704 | 70788
5 | 15:43.64 | 3:09.50 | 70789 | 85013
6 | 18:53.39 | 4:07.43 | 85014 | 103581
7 | 23:01.07 | 4:42.62 | 103582 | 124793
8 | 27:43.69 | 6:05.47 | 124794 | 152215
9 | 33:49.41 | 3:46.65 | 152216 | 169230
10 | 37:36.31 | 3:27.51 | 169231 | 184806
11 | 41:04.07 | 3:19.60 | 184807 | 199791

Характеристики диапазона извлечения и сообщения об ошибках

Выбранный диапазон

Имя файла O:\CD\2005 Чиж и Паша - Про слонов.wav

Пиковый уровень 98.8 %
Качество диапазона 100.0 %
CRC копии 4181E33A
Копирование... OK

Ошибок не произошло

Конец отчёта
01. Белая звезда
02. Бронзовая птица
03. Фонарик
04. Кошки
05. Меня спасет Rock-n-Roll
06. Мы взяли виски
07. На грани изумруда
08. Они могли бы быть вместе
09. Позвони мне рано утром
10. Станция 0
11. Все будет как хочешь ты
Exact Audio Copy V0.99 prebeta 4 from 23. January 2008

Отчёт EAC об извлечении, выполненном 29. марта 2008, 21:04

Владимиров & Чиж & Co / На грани изумруда

Дисковод: MITSUMI CR-48X5TE Adapter: 1 ID: 1

Режим чтения : Достоверность
Использование точного потока : Да
Отключение кэша аудио : Да
Использование указателей C2 : Нет

Коррекция смещения при чтении : 674
Способность читать области Lead-in и Lead-out : Нет
Заполнение пропущенных сэмплов тишиной : Да
Удаление блоков с тишиной в начале и конце : Нет
При вычислениях CRC использовались нулевые сэмплы : Нет
Интерфейс : Встроенный Win32-интерфейс для Win NT/2000

Выходной формат : Внутренние WAV-операции
Формат сэмплов : 44.100 Гц; 16 бит; стерео

TOC извлечённого CD

Трек | Старт | Длительность | Начальный сектор | Конечный сектор
---------------------------------------------------------------------
1 | 0:00.00 | 5:25.42 | 0 | 24416
2 | 5:25.42 | 3:48.24 | 24417 | 41540
3 | 9:13.66 | 3:02.08 | 41541 | 55198
4 | 12:15.74 | 5:00.22 | 55199 | 77720
5 | 17:16.21 | 3:36.42 | 77721 | 93962
6 | 20:52.63 | 3:07.20 | 93963 | 108007
7 | 24:00.08 | 3:57.20 | 108008 | 125802
8 | 27:57.28 | 3:11.54 | 125803 | 140181
9 | 31:09.07 | 3:44.08 | 140182 | 156989
10 | 34:53.15 | 3:48.22 | 156990 | 174111
11 | 38:41.37 | 6:00.38 | 174112 | 201149

Характеристики диапазона извлечения и сообщения об ошибках

Выбранный диапазон

Имя файла C:\CD\2007 Владимиров & Чиж & Co - На грани изумруда.wav

Пиковый уровень 97.6 %
Качество диапазона 100.0 %
CRC копии E4AD7AE3
Копирование... OK

Ошибок не произошло

AccurateRip: сводка

Трек 1 нет в базе данных
Трек 2 нет в базе данных
Трек 3 нет в базе данных
Трек 4 нет в базе данных
Трек 5 нет в базе данных
Трек 6 нет в базе данных
Трек 7 нет в базе данных
Трек 8 нет в базе данных
Трек 9 нет в базе данных
Трек 10 нет в базе данных
Трек 11 нет в базе данных

Ни одного трека нет в базе AccurateRip

Конец отчёта

info [Профиль]  [ЛС] 

Мракобес

Пол: Пол:Муж

Стаж: 6 лет 8 месяцев

Сообщений: 32

Россия
Рейтинг

post 20-Сен-2010 15:08 (спустя 1 месяц 1 день) [-]0[+]

[Цитировать] 

Блин, чет не пойму, как открывать? Подскажите не знающему всех нюансов)))

_________________
info [Профиль]  [ЛС] 

Kenny69

Пол: Пол:Муж

Стаж: 7 лет 4 месяца

Сообщений: 1766

Россия
Рейтинг

post 20-Сен-2010 15:19 (спустя 10 минут) [-]0[+]

[Цитировать] 

Мракобес
Winamp , AIMP2 , Foobar2000. Открываешь CUE файл и у тебя в плейлисте весь альбом

_________________
info [Профиль]  [ЛС] 

Мракобес

Пол: Пол:Муж

Стаж: 6 лет 8 месяцев

Сообщений: 32

Россия
Рейтинг

post 20-Сен-2010 16:37 (спустя 1 час 18 минут) [-]0[+]

[Цитировать] 

Kenny69 Спасибо, я пытался всю папку открыть. Все, слушаю.

_________________
info [Профиль]  [ЛС] 

bagnet

Пол: Пол:Муж

Стаж: 3 года 11 месяцев

Сообщений: 2

Украина
Рейтинг

post 24-Дек-2012 12:49 (спустя 2 года 3 месяца) [-]0[+]

[Цитировать] 

Вот это действительно огромная и нужная работа! Благодарю!
info [Профиль]  [ЛС] 
Показать сообщения:    
Ответить на тему

Текущее время: 05-Дек 16:40

Часовой пояс: GMT + 4



Вы не можете начинать темы
Вы не можете отвечать на сообщения
Вы не можете редактировать свои сообщения
Вы не можете удалять свои сообщения
Вы не можете голосовать в опросах
Вы не можете прикреплять файлы к сообщениям
Вы не можете скачивать файлы