Ошибка

(Pop, Disco, Dance, Rock) Michael Jackson - Дискография - 1972 - 2001, FLAC (tracks+.cue)+covers, lossless

Ответить на тему
 
Автор Сообщение

Resistance

Пол: Пол:Муж

Стаж: 7 лет 2 месяца

Сообщений: 3639

Россия
Рейтинг

post 10-Июл-2010 19:55 1[+]

[Цитировать] 

Michael Jackson - Дискография
Жанр: Pop, Disco, Dance, Rock || Происхождение исполнителя: Gary, Indiana, U.S. || Год: 1972-2001
Аудио кодек: FLAC || Тип релиза: tracks+.cue || Битрейт аудио: lossless || Продолжительность: 9:42:43 || Полиграфия: присутствует

Цитата:

Майкл Джо́зеф Дже́ксон (англ. Michael Joseph Jackson; 29 августа 1958 года — 25 июня 2009 года) — американский поп-певец, танцор и автор песен. Один из самых успешных исполнителей в истории, обладатель 14 премий Грэмми и десятков других премий. 2 раза занесён в Книгу рекордов Гиннеса; в мире продано порядка 750 миллионов альбомов Джексона. Он внёс значительный вклад в развитие популярной музыки, видеоклипов, танца и моды.
01. Ben (2:47)
02. Greatest Show On Earth (2:51)
03. People Make The World Go 'Round (3:17)
04. We've Got A Good Thing Going (3:06)
05. Everybody's Somebody's Fool (3:01)
06. My Girl (3:11)
07. What Goes Around Comes Around (3:34)
08. In Our Small Way (3:40)
09. Shoo-Be-Doo-Be-Doo-Da-Day (3:23)
10. You Can Cry On My Shoulder (2:40)
EAC extraction logfile from 3. April 2006, 20:57 for CD
Michael Jackson / Ben

Used drive : LITE-ON LTR-52327S Adapter: 3 ID: 1
Read mode : Secure with NO C2, accurate stream, disable cache
Read offset correction : 6
Overread into Lead-In and Lead-Out : No

Used output format : E:\Program Files\FLAC\flac.exe (User Defined Encoder)
320 kBit/s
Additional command line options : -V -8 -T "artist=%a" -T "title=%t" -T "album=%g" -T "date=%y" -T "tracknumber=%n" -T "genre=%m" %s

Other options :
Fill up missing offset samples with silence : Yes
Delete leading and trailing silent blocks : No
Native Win32 interface for Win NT & 2000

Track 1
Filename E:\Michael Jackson - Discography (FLAC)\(1972) Ben\01 - Michael Jackson - Ben.wav

Pre-gap length 0:00:02.42

Peak level 70.2 %
Track quality 100.0 %
Test CRC 3BC698BF
Copy CRC 3BC698BF
Copy OK

Track 2
Filename E:\Michael Jackson - Discography (FLAC)\(1972) Ben\02 - Michael Jackson - Greatest Show On Earth.wav

Pre-gap length 0:00:01.76

Peak level 97.7 %
Track quality 100.0 %
Test CRC 0B2EE897
Copy CRC 0B2EE897
Copy OK

Track 3
Filename E:\Michael Jackson - Discography (FLAC)\(1972) Ben\03 - Michael Jackson - People Make The World Go 'Round.wav

Pre-gap length 0:00:03.00

Peak level 97.7 %
Track quality 99.9 %
Test CRC 167EF444
Copy CRC 167EF444
Copy OK

Track 4
Filename E:\Michael Jackson - Discography (FLAC)\(1972) Ben\04 - Michael Jackson - We've Got A Good Thing Going.wav

Pre-gap length 0:00:01.62

Peak level 97.7 %
Track quality 100.0 %
Test CRC A1B4F92B
Copy CRC A1B4F92B
Copy OK

Track 5
Filename E:\Michael Jackson - Discography (FLAC)\(1972) Ben\05 - Michael Jackson - Everybody's Somebody's Fool.wav

Pre-gap length 0:00:03.10

Peak level 97.7 %
Track quality 100.0 %
Test CRC A0A0BA15
Copy CRC A0A0BA15
Copy OK

Track 6
Filename E:\Michael Jackson - Discography (FLAC)\(1972) Ben\06 - Michael Jackson - My Girl.wav

Pre-gap length 0:00:02.22

Peak level 97.7 %
Track quality 99.9 %
Test CRC E83EEA18
Copy CRC E83EEA18
Copy OK

Track 7
Filename E:\Michael Jackson - Discography (FLAC)\(1972) Ben\07 - Michael Jackson - What Goes Around Comes Around.wav

Pre-gap length 0:00:01.80

Peak level 97.7 %
Track quality 100.0 %
Test CRC A3B64270
Copy CRC A3B64270
Copy OK

Track 8
Filename E:\Michael Jackson - Discography (FLAC)\(1972) Ben\08 - Michael Jackson - In Our Small Way.wav

Pre-gap length 0:00:00.73

Peak level 97.7 %
Track quality 100.0 %
Test CRC BA8757DC
Copy CRC BA8757DC
Copy OK

Track 9
Filename E:\Michael Jackson - Discography (FLAC)\(1972) Ben\09 - Michael Jackson - Shoo-Be-Doo-Be-Doo-Da-Day.wav

Pre-gap length 0:00:02.36

Peak level 77.6 %
Track quality 100.0 %
Test CRC EBF3F579
Copy CRC EBF3F579
Copy OK

Track 10
Filename E:\Michael Jackson - Discography (FLAC)\(1972) Ben\10 - Michael Jackson - You Can Cry On My Shoulder.wav

Pre-gap length 0:00:01.93

Peak level 77.6 %
Track quality 100.0 %
Test CRC F51486F8
Copy CRC F51486F8
Copy OK

No errors occured

End of status report
REM GENRE Pop
REM DATE 1972
REM DISCID 7407610A
REM COMMENT "ExactAudioCopy v0.95b4"
CATALOG 0731453016323
PERFORMER "Michael Jackson"
TITLE "Ben"
FILE "01 - Michael Jackson - Ben.wav" WAVE
TRACK 01 AUDIO
TITLE "Ben"
PERFORMER "Michael Jackson"
PREGAP 00:00:32
INDEX 01 00:00:00
TRACK 02 AUDIO
TITLE "Greatest Show On Earth"
PERFORMER "Michael Jackson"
INDEX 00 02:45:13
FILE "02 - Michael Jackson - Greatest Show On Earth.wav" WAVE
INDEX 01 00:00:00
TRACK 03 AUDIO
TITLE "People Make The World Go 'Round"
PERFORMER "Michael Jackson"
INDEX 00 02:47:65
FILE "03 - Michael Jackson - People Make The World Go 'Round.wav" WAVE
INDEX 01 00:00:00
TRACK 04 AUDIO
TITLE "We've Got A Good Thing Going"
PERFORMER "Michael Jackson"
INDEX 00 03:14:68
FILE "04 - Michael Jackson - We've Got A Good Thing Going.wav" WAVE
INDEX 01 00:00:00
TRACK 05 AUDIO
TITLE "Everybody's Somebody's Fool"
PERFORMER "Michael Jackson"
INDEX 00 03:02:40
FILE "05 - Michael Jackson - Everybody's Somebody's Fool.wav" WAVE
INDEX 01 00:00:00
TRACK 06 AUDIO
TITLE "My Girl"
PERFORMER "Michael Jackson"
INDEX 00 02:59:00
FILE "06 - Michael Jackson - My Girl.wav" WAVE
INDEX 01 00:00:00
TRACK 07 AUDIO
TITLE "What Goes Around Comes Around"
PERFORMER "Michael Jackson"
INDEX 00 03:08:58
FILE "07 - Michael Jackson - What Goes Around Comes Around.wav" WAVE
INDEX 01 00:00:00
TRACK 08 AUDIO
TITLE "In Our Small Way"
PERFORMER "Michael Jackson"
INDEX 00 03:33:35
FILE "08 - Michael Jackson - In Our Small Way.wav" WAVE
INDEX 01 00:00:00
TRACK 09 AUDIO
TITLE "Shoo-Be-Doo-Be-Doo-Da-Day"
PERFORMER "Michael Jackson"
INDEX 00 03:38:00
FILE "09 - Michael Jackson - Shoo-Be-Doo-Be-Doo-Da-Day.wav" WAVE
INDEX 01 00:00:00
TRACK 10 AUDIO
TITLE "You Can Cry On My Shoulder"
PERFORMER "Michael Jackson"
INDEX 00 03:20:50
FILE "10 - Michael Jackson - You Can Cry On My Shoulder.wav" WAVE
INDEX 01 00:00:00
01. Ain't No Sunshine (4:14)
02. I Wanna Be Where You Are (3:03)
03. Girl Don't Take Your Love From Me (3:51)
04. In Our Small Way (3:41)
05. Got To Be There (3:25)
06. Rockin' Robin (2:35)
07. Wings Of My Love (3:25)
08. Maria (You Were The Only One) (3:43)
09. Love Is Here And Now You're Gone (2:54)
10. You've Got A Friend (4:54)
EAC extraction logfile from 4. April 2006, 17:31 for CD
Michael Jackson / Got To Be There

Used drive : LITE-ON LTR-52327S Adapter: 3 ID: 1
Read mode : Secure with NO C2, accurate stream, disable cache
Read offset correction : 6
Overread into Lead-In and Lead-Out : No

Used output format : E:\Program Files\FLAC\flac.exe (User Defined Encoder)
320 kBit/s
Additional command line options : -V -8 -T "artist=%a" -T "title=%t" -T "album=%g" -T "date=%y" -T "tracknumber=%n" -T "genre=%m" %s

Other options :
Fill up missing offset samples with silence : Yes
Delete leading and trailing silent blocks : No
Native Win32 interface for Win NT & 2000

Track 1
Filename E:\Michael Jackson - Discography (FLAC)\(1972) Got To Be There\01 - Michael Jackson - Ain't No Sunshine.wav

Pre-gap length 0:00:02.00

Peak level 100.0 %
Track quality 99.9 %
Test CRC E3C63208
Copy CRC E3C63208
Copy OK

Track 2
Filename E:\Michael Jackson - Discography (FLAC)\(1972) Got To Be There\02 - Michael Jackson - I Wanna Be Where You Are.wav

Pre-gap length 0:00:02.37

Peak level 100.0 %
Track quality 100.0 %
Test CRC 5B872B61
Copy CRC 5B872B61
Copy OK

Track 3
Filename E:\Michael Jackson - Discography (FLAC)\(1972) Got To Be There\03 - Michael Jackson - Girl Don't Take Your Love From Me.wav

Pre-gap length 0:00:02.33

Peak level 100.0 %
Track quality 99.9 %
Test CRC D99DCD2E
Copy CRC D99DCD2E
Copy OK

Track 4
Filename E:\Michael Jackson - Discography (FLAC)\(1972) Got To Be There\04 - Michael Jackson - In Our Small Way.wav

Pre-gap length 0:00:03.77

Peak level 99.1 %
Track quality 100.0 %
Test CRC 347641B0
Copy CRC 347641B0
Copy OK

Track 5
Filename E:\Michael Jackson - Discography (FLAC)\(1972) Got To Be There\05 - Michael Jackson - Got To Be There.wav

Pre-gap length 0:00:03.20

Peak level 100.0 %
Track quality 100.0 %
Test CRC 45C36555
Copy CRC 45C36555
Copy OK

Track 6
Filename E:\Michael Jackson - Discography (FLAC)\(1972) Got To Be There\06 - Michael Jackson - Rockin' Robin.wav

Pre-gap length 0:00:01.53

Peak level 100.0 %
Track quality 100.0 %
Test CRC 48C63249
Copy CRC 48C63249
Copy OK

Track 7
Filename E:\Michael Jackson - Discography (FLAC)\(1972) Got To Be There\07 - Michael Jackson - Wings Of My Love.wav

Pre-gap length 0:00:02.66

Peak level 84.4 %
Track quality 100.0 %
Test CRC 79F7B988
Copy CRC 79F7B988
Copy OK

Track 8
Filename E:\Michael Jackson - Discography (FLAC)\(1972) Got To Be There\08 - Michael Jackson - Maria (You Were The Only One).wav

Pre-gap length 0:00:03.46

Peak level 100.0 %
Track quality 100.0 %
Test CRC 852E7CB6
Copy CRC 852E7CB6
Copy OK

Track 9
Filename E:\Michael Jackson - Discography (FLAC)\(1972) Got To Be There\09 - Michael Jackson - Love Is Here And Now You're Gone.wav

Pre-gap length 0:00:02.37

Peak level 100.0 %
Track quality 100.0 %
Test CRC 0A369653
Copy CRC 0A369653
Copy OK

Track 10
Filename E:\Michael Jackson - Discography (FLAC)\(1972) Got To Be There\10 - Michael Jackson - You've Got A Friend.wav

Pre-gap length 0:00:02.09

Peak level 100.0 %
Track quality 99.9 %
Test CRC 9D75CBFE
Copy CRC 9D75CBFE
Copy OK

No errors occured

End of status report
REM GENRE Pop
REM DATE 1972
REM DISCID 8F08600A
REM COMMENT "ExactAudioCopy v0.95b4"
CATALOG 0731453016224
PERFORMER "Michael Jackson"
TITLE "Got To Be There"
FILE "01 - Michael Jackson - Ain't No Sunshine.wav" WAVE
TRACK 01 AUDIO
TITLE "Ain't No Sunshine"
PERFORMER "Michael Jackson"
INDEX 01 00:00:00
TRACK 02 AUDIO
TITLE "I Wanna Be Where You Are"
PERFORMER "Michael Jackson"
INDEX 00 04:11:22
FILE "02 - Michael Jackson - I Wanna Be Where You Are.wav" WAVE
INDEX 01 00:00:00
TRACK 03 AUDIO
TITLE "Girl Don't Take Your Love From Me"
PERFORMER "Michael Jackson"
INDEX 00 03:00:25
FILE "03 - Michael Jackson - Girl Don't Take Your Love From Me.wav" WAVE
INDEX 01 00:00:00
TRACK 04 AUDIO
TITLE "In Our Small Way"
PERFORMER "Michael Jackson"
INDEX 00 03:47:22
FILE "04 - Michael Jackson - In Our Small Way.wav" WAVE
INDEX 01 00:00:00
TRACK 05 AUDIO
TITLE "Got To Be There"
PERFORMER "Michael Jackson"
INDEX 00 03:38:15
FILE "05 - Michael Jackson - Got To Be There.wav" WAVE
INDEX 01 00:00:00
TRACK 06 AUDIO
TITLE "Rockin' Robin"
PERFORMER "Michael Jackson"
INDEX 00 03:23:30
FILE "06 - Michael Jackson - Rockin' Robin.wav" WAVE
INDEX 01 00:00:00
TRACK 07 AUDIO
TITLE "Wings Of My Love"
PERFORMER "Michael Jackson"
INDEX 00 02:31:70
FILE "07 - Michael Jackson - Wings Of My Love.wav" WAVE
INDEX 01 00:00:00
TRACK 08 AUDIO
TITLE "Maria (You Were The Only One)"
PERFORMER "Michael Jackson"
INDEX 00 03:21:37
FILE "08 - Michael Jackson - Maria (You Were The Only One).wav" WAVE
INDEX 01 00:00:00
TRACK 09 AUDIO
TITLE "Love Is Here And Now You're Gone"
PERFORMER "Michael Jackson"
INDEX 00 03:41:05
FILE "09 - Michael Jackson - Love Is Here And Now You're Gone.wav" WAVE
INDEX 01 00:00:00
TRACK 10 AUDIO
TITLE "You've Got A Friend"
PERFORMER "Michael Jackson"
INDEX 00 02:51:65
FILE "10 - Michael Jackson - You've Got A Friend.wav" WAVE
INDEX 01 00:00:00
01. Rockin´ Robin (2:35)
02. Johnny Raven (3:33)
03. Shoo-Be-Doo-Be-Doo-Da-Day (3:15)
04. Happy (Love Theme From "Lady Sings The Blues") (3:23)
05. Too Young (3:37)
06. Up Again (2:48)
07. With A Child´s Heart (3:30)
08. Ain´t No Sunshine (4:13)
09. Euphoria (2:49)
10. Morning Glow (3:36)
11. Music And Me (2:39)
12. All The Things You Are, Are Mine (2:56)
13. Cinderella Stay Awhile (3:09)
14. We´ve Got Forever (3:12)
Exact Audio Copy V0.99 prebeta 3 from 28. July 2007

EAC extraction logfile from 31. December 2007, 12:50

Michael Jackson / Music And Me

Used drive : PIONEER DVD-RW DVR-106D Adapter: 1 ID: 0

Read mode : Secure
Utilize accurate stream : Yes
Defeat audio cache : Yes
Make use of C2 pointers : No

Read offset correction : 48
Overread into Lead-In and Lead-Out : Yes
Fill up missing offset samples with silence : Yes
Delete leading and trailing silent blocks : No
Null samples used in CRC calculations : Yes
Used interface : Native Win32 interface for Win NT & 2000
Gap handling : Appended to previous track

Used output format : User Defined Encoder
Selected bitrate : 128 kBit/s
Quality : High
Add ID3 tag : No
Command line compressor : C:\Program Files\FLAC\flac.exe
Additional command line options : -8 -A tukey(0.25) -A gauss(0.1875) -b 4096 -V -T "artist=%a" -T "title=%t" -T "album=%g" -T "date=%y" -T "tracknumber=%n" -T "genre=%m" %s --sector-align

TOC of the extracted CD

Track | Start | Length | Start sector | End sector
---------------------------------------------------------
1 | 0:00.00 | 2:34.67 | 0 | 11616
2 | 2:34.67 | 3:32.40 | 11617 | 27556
3 | 6:07.32 | 3:14.40 | 27557 | 42146
4 | 9:21.72 | 3:22.65 | 42147 | 57361
5 | 12:44.62 | 3:37.00 | 57362 | 73636
6 | 16:21.62 | 2:47.43 | 73637 | 86204
7 | 19:09.30 | 3:30.27 | 86205 | 101981
8 | 22:39.57 | 4:12.63 | 101982 | 120944
9 | 26:52.45 | 2:49.00 | 120945 | 133619
10 | 29:41.45 | 3:35.62 | 133620 | 149806
11 | 33:17.32 | 2:38.53 | 149807 | 161709
12 | 35:56.10 | 2:56.27 | 161710 | 174936
13 | 38:52.37 | 3:08.70 | 174937 | 189106
14 | 42:01.32 | 3:11.63 | 189107 | 203494

Track 1

Filename C:\Users\Romez\Music\01 - Michael Jackson - Rockinґ Robin.wav

Pre-gap length 0:00:02.00

Peak level 86.3 %
Track quality 100.0 %
Test CRC E3FAE3A8
Copy CRC E3FAE3A8
Track not present in AccurateRip database
Copy OK

Track 2

Filename C:\Users\Romez\Music\02 - Michael Jackson - Johnny Raven.wav

Pre-gap length 0:00:01.96

Peak level 95.5 %
Track quality 99.9 %
Test CRC E3FA5A49
Copy CRC E3FA5A49
Track not present in AccurateRip database
Copy OK

Track 3

Filename C:\Users\Romez\Music\03 - Michael Jackson - Shoo-Be-Doo-Be-Doo-Da-Day.wav

Pre-gap length 0:00:02.16

Peak level 78.8 %
Track quality 100.0 %
Test CRC 20A94327
Copy CRC 20A94327
Track not present in AccurateRip database
Copy OK

Track 4

Filename C:\Users\Romez\Music\04 - Michael Jackson - Happy (Love Theme From 'Lady Sings The Blues').wav

Pre-gap length 0:00:01.86

Peak level 80.3 %
Track quality 99.9 %
Test CRC FD71EC27
Copy CRC FD71EC27
Track not present in AccurateRip database
Copy OK

Track 5

Filename C:\Users\Romez\Music\05 - Michael Jackson - Too Young.wav

Pre-gap length 0:00:02.22

Peak level 80.7 %
Track quality 100.0 %
Test CRC 6A4DC337
Copy CRC 6A4DC337
Track not present in AccurateRip database
Copy OK

Track 6

Filename C:\Users\Romez\Music\06 - Michael Jackson - Up Again.wav

Pre-gap length 0:00:01.29

Peak level 80.9 %
Track quality 100.0 %
Test CRC F265C75F
Copy CRC F265C75F
Track not present in AccurateRip database
Copy OK

Track 7

Filename C:\Users\Romez\Music\07 - Michael Jackson - With A Childґs Heart.wav

Pre-gap length 0:00:02.46

Peak level 87.6 %
Track quality 100.0 %
Test CRC 98DC88B4
Copy CRC 98DC88B4
Track not present in AccurateRip database
Copy OK

Track 8

Filename C:\Users\Romez\Music\08 - Michael Jackson - Ainґt No Sunshine.wav

Pre-gap length 0:00:02.26

Peak level 82.9 %
Track quality 100.0 %
Test CRC 8AA801A0
Copy CRC 8AA801A0
Track not present in AccurateRip database
Copy OK

Track 9

Filename C:\Users\Romez\Music\09 - Michael Jackson - Euphoria.wav

Pre-gap length 0:00:01.66

Peak level 97.2 %
Track quality 99.9 %
Test CRC DEC8C03A
Copy CRC DEC8C03A
Track not present in AccurateRip database
Copy OK

Track 10

Filename C:\Users\Romez\Music\10 - Michael Jackson - Morning Glow.wav

Pre-gap length 0:00:02.66

Peak level 99.7 %
Track quality 99.9 %
Test CRC 8C968485
Copy CRC 8C968485
Track not present in AccurateRip database
Copy OK

Track 11

Filename C:\Users\Romez\Music\11 - Michael Jackson - Music And Me.wav

Pre-gap length 0:00:02.49

Peak level 93.0 %
Track quality 99.9 %
Test CRC 37F79622
Copy CRC 37F79622
Track not present in AccurateRip database
Copy OK

Track 12

Filename C:\Users\Romez\Music\12 - Michael Jackson - All The Things You Are, Are Mine.wav

Pre-gap length 0:00:02.20

Peak level 100.0 %
Track quality 100.0 %
Test CRC FAA304BD
Copy CRC FAA304BD
Track not present in AccurateRip database
Copy OK

Track 13

Filename C:\Users\Romez\Music\13 - Michael Jackson - Cinderella Stay Awhile.wav

Pre-gap length 0:00:02.22

Peak level 99.6 %
Track quality 99.9 %
Test CRC 695A38BB
Copy CRC 695A38BB
Track not present in AccurateRip database
Copy OK

Track 14

Filename C:\Users\Romez\Music\14 - Michael Jackson - Weґve Got Forever.wav

Pre-gap length 0:00:02.00

Peak level 82.5 %
Track quality 100.0 %
Test CRC AC10F9E3
Copy CRC AC10F9E3
Track not present in AccurateRip database
Copy OK

None of the tracks are present in the AccurateRip database

No errors occurred

End of status report
REM GENRE Pop/Funk
REM DATE 1982
REM DISCID CB0A990E
REM COMMENT "ExactAudioCopy v0.99pb3"
PERFORMER "Michael Jackson"
TITLE "Music And Me"
FILE "01 - Michael Jackson - Rockinґ Robin.wav" WAVE
TRACK 01 AUDIO
TITLE "Rockinґ Robin"
PERFORMER "Michael Jackson"
INDEX 01 00:00:00
TRACK 02 AUDIO
TITLE "Johnny Raven"
PERFORMER "Michael Jackson"
INDEX 00 02:32:70
FILE "02 - Michael Jackson - Johnny Raven.wav" WAVE
INDEX 01 00:00:00
TRACK 03 AUDIO
TITLE "Shoo-Be-Doo-Be-Doo-Da-Day"
PERFORMER "Michael Jackson"
INDEX 00 03:30:28
FILE "03 - Michael Jackson - Shoo-Be-Doo-Be-Doo-Da-Day.wav" WAVE
INDEX 01 00:00:00
TRACK 04 AUDIO
TITLE "Happy (Love Theme From 'Lady Sings The Blues')"
PERFORMER "Michael Jackson"
INDEX 00 03:12:50
FILE "04 - Michael Jackson - Happy (Love Theme From 'Lady Sings The Blues').wav" WAVE
INDEX 01 00:00:00
TRACK 05 AUDIO
TITLE "Too Young"
PERFORMER "Michael Jackson"
INDEX 00 03:20:48
FILE "05 - Michael Jackson - Too Young.wav" WAVE
INDEX 01 00:00:00
TRACK 06 AUDIO
TITLE "Up Again"
PERFORMER "Michael Jackson"
INDEX 00 03:35:53
FILE "06 - Michael Jackson - Up Again.wav" WAVE
INDEX 01 00:00:00
TRACK 07 AUDIO
TITLE "With A Childґs Heart"
PERFORMER "Michael Jackson"
INDEX 00 02:45:08
FILE "07 - Michael Jackson - With A Childґs Heart.wav" WAVE
INDEX 01 00:00:00
TRACK 08 AUDIO
TITLE "Ainґt No Sunshine"
PERFORMER "Michael Jackson"
INDEX 00 03:28:07
FILE "08 - Michael Jackson - Ainґt No Sunshine.wav" WAVE
INDEX 01 00:00:00
TRACK 09 AUDIO
TITLE "Euphoria"
PERFORMER "Michael Jackson"
INDEX 00 04:11:13
FILE "09 - Michael Jackson - Euphoria.wav" WAVE
INDEX 01 00:00:00
TRACK 10 AUDIO
TITLE "Morning Glow"
PERFORMER "Michael Jackson"
INDEX 00 02:46:25
FILE "10 - Michael Jackson - Morning Glow.wav" WAVE
INDEX 01 00:00:00
TRACK 11 AUDIO
TITLE "Music And Me"
PERFORMER "Michael Jackson"
INDEX 00 03:33:25
FILE "11 - Michael Jackson - Music And Me.wav" WAVE
INDEX 01 00:00:00
TRACK 12 AUDIO
TITLE "All The Things You Are, Are Mine"
PERFORMER "Michael Jackson"
INDEX 00 02:36:38
FILE "12 - Michael Jackson - All The Things You Are, Are Mine.wav" WAVE
INDEX 01 00:00:00
TRACK 13 AUDIO
TITLE "Cinderella Stay Awhile"
PERFORMER "Michael Jackson"
INDEX 00 02:54:10
FILE "13 - Michael Jackson - Cinderella Stay Awhile.wav" WAVE
INDEX 01 00:00:00
TRACK 14 AUDIO
TITLE "Weґve Got Forever"
PERFORMER "Michael Jackson"
INDEX 00 03:06:70
FILE "14 - Michael Jackson - Weґve Got Forever.wav" WAVE
INDEX 01 00:00:00
01. We're Almost There (3:45)
02. Take Me Back (3:26)
03. One Day In Your Life (4:18)
04. Cinderella Stay Awhile (3:11)
05. We've Got Forever (3:14)
06. Just A Little Bit Of You (3:13)
07. You Are There (3:24)
08. Dapper-Dan (3:13)
09. Dear Michael (2:38)
10. I'll Come Home To You (3:03)
EAC extraction logfile from 3. April 2006, 17:13 for CD
Michael Jackson / Forever, Michael

Used drive : LITE-ON LTR-52327S Adapter: 3 ID: 1
Read mode : Secure with NO C2, accurate stream, disable cache
Read offset correction : 6
Overread into Lead-In and Lead-Out : No

Used output format : E:\Program Files\FLAC\flac.exe (User Defined Encoder)
320 kBit/s
Additional command line options : -V -8 -T "artist=%a" -T "title=%t" -T "album=%g" -T "date=%y" -T "tracknumber=%n" -T "genre=%m" %s

Other options :
Fill up missing offset samples with silence : Yes
Delete leading and trailing silent blocks : No
Native Win32 interface for Win NT & 2000

Track 1
Filename E:\Michael Jackson - Discography (FLAC)\(1975) Forever, Michael\01 - Michael Jackson - We're Almost There.wav

Pre-gap length 0:00:02.42

Peak level 77.3 %
Track quality 100.0 %
Test CRC D9348839
Copy CRC D9348839
Copy OK

Track 2
Filename E:\Michael Jackson - Discography (FLAC)\(1975) Forever, Michael\02 - Michael Jackson - Take Me Back.wav

Pre-gap length 0:00:02.10

Peak level 90.4 %
Track quality 100.0 %
Test CRC 78856C0A
Copy CRC 78856C0A
Copy OK

Track 3
Filename E:\Michael Jackson - Discography (FLAC)\(1975) Forever, Michael\03 - Michael Jackson - One Day In Your Life.wav

Pre-gap length 0:00:01.26

Peak level 93.0 %
Track quality 99.9 %
Test CRC D670F043
Copy CRC D670F043
Copy OK

Track 4
Filename E:\Michael Jackson - Discography (FLAC)\(1975) Forever, Michael\04 - Michael Jackson - Cinderella Stay Awhile.wav

Pre-gap length 0:00:02.20

Peak level 90.8 %
Track quality 100.0 %
Test CRC 0EBFE4F5
Copy CRC 0EBFE4F5
Copy OK

Track 5
Filename E:\Michael Jackson - Discography (FLAC)\(1975) Forever, Michael\05 - Michael Jackson - We've Got Forever.wav

Pre-gap length 0:00:02.13

Peak level 77.3 %
Track quality 99.9 %
Test CRC 89B8F36A
Copy CRC 89B8F36A
Copy OK

Track 6
Filename E:\Michael Jackson - Discography (FLAC)\(1975) Forever, Michael\06 - Michael Jackson - Just A Little Bit Of You.wav

Pre-gap length 0:00:02.69

Peak level 71.6 %
Track quality 100.0 %
Test CRC 4246C0B6
Copy CRC 4246C0B6
Copy OK

Track 7
Filename E:\Michael Jackson - Discography (FLAC)\(1975) Forever, Michael\07 - Michael Jackson - You Are There.wav

Pre-gap length 0:00:02.26

Peak level 92.3 %
Track quality 100.0 %
Test CRC BB9FBB78
Copy CRC BB9FBB78
Copy OK

Track 8
Filename E:\Michael Jackson - Discography (FLAC)\(1975) Forever, Michael\08 - Michael Jackson - Dapper-Dan.wav

Pre-gap length 0:00:02.26

Peak level 84.9 %
Track quality 100.0 %
Test CRC BE3DF419
Copy CRC BE3DF419
Copy OK

Track 9
Filename E:\Michael Jackson - Discography (FLAC)\(1975) Forever, Michael\09 - Michael Jackson - Dear Michael.wav

Pre-gap length 0:00:02.64

Peak level 93.0 %
Track quality 100.0 %
Test CRC 58926116
Copy CRC 58926116
Copy OK

Track 10
Filename E:\Michael Jackson - Discography (FLAC)\(1975) Forever, Michael\10 - Michael Jackson - I'll Come Home To You.wav

Pre-gap length 0:00:03.06

Peak level 60.4 %
Track quality 99.9 %
Test CRC 97351CBF
Copy CRC 97351CBF
Copy OK

No errors occured

End of status report
REM GENRE Pop
REM DATE 1975
REM DISCID 7C07D30A
REM COMMENT "ExactAudioCopy v0.95b4"
CATALOG 0731453028029
PERFORMER "Michael Jackson"
TITLE "Forever, Michael"
FILE "01 - Michael Jackson - We're Almost There.wav" WAVE
TRACK 01 AUDIO
TITLE "We're Almost There"
PERFORMER "Michael Jackson"
PREGAP 00:00:32
INDEX 01 00:00:00
TRACK 02 AUDIO
TITLE "Take Me Back"
PERFORMER "Michael Jackson"
INDEX 00 03:42:30
FILE "02 - Michael Jackson - Take Me Back.wav" WAVE
INDEX 01 00:00:00
TRACK 03 AUDIO
TITLE "One Day In Your Life"
PERFORMER "Michael Jackson"
INDEX 00 03:24:30
FILE "03 - Michael Jackson - One Day In Your Life.wav" WAVE
INDEX 01 00:00:00
TRACK 04 AUDIO
TITLE "Cinderella Stay Awhile"
PERFORMER "Michael Jackson"
INDEX 00 04:15:37
FILE "04 - Michael Jackson - Cinderella Stay Awhile.wav" WAVE
INDEX 01 00:00:00
TRACK 05 AUDIO
TITLE "We've Got Forever"
PERFORMER "Michael Jackson"
INDEX 00 03:08:45
FILE "05 - Michael Jackson - We've Got Forever.wav" WAVE
INDEX 01 00:00:00
TRACK 06 AUDIO
TITLE "Just A Little Bit Of You"
PERFORMER "Michael Jackson"
INDEX 00 03:10:68
FILE "06 - Michael Jackson - Just A Little Bit Of You.wav" WAVE
INDEX 01 00:00:00
TRACK 07 AUDIO
TITLE "You Are There"
PERFORMER "Michael Jackson"
INDEX 00 03:10:60
FILE "07 - Michael Jackson - You Are There.wav" WAVE
INDEX 01 00:00:00
TRACK 08 AUDIO
TITLE "Dapper-Dan"
PERFORMER "Michael Jackson"
INDEX 00 03:21:60
FILE "08 - Michael Jackson - Dapper-Dan.wav" WAVE
INDEX 01 00:00:00
TRACK 09 AUDIO
TITLE "Dear Michael"
PERFORMER "Michael Jackson"
INDEX 00 03:10:00
FILE "09 - Michael Jackson - Dear Michael.wav" WAVE
INDEX 01 00:00:00
TRACK 10 AUDIO
TITLE "I'll Come Home To You"
PERFORMER "Michael Jackson"
INDEX 00 02:35:10
FILE "10 - Michael Jackson - I'll Come Home To You.wav" WAVE
INDEX 01 00:00:00
01. Don't Stop 'Til You Get Enough (6:06)
02. Rock With You (3:41)
03. Working Day And Night (5:15)
04. Get On The Floor (4:40)
05. Off The Wall (4:07)
06. Girlfriend (3:06)
07. She's Out Of My Life (3:38)
08. I Can't Help It (4:30)
09. It's The Falling In Love (3:49)
10. Burn This Disco Out (3:42)
Exact Audio Copy V0.99 prebeta 3 from 28. July 2007

EAC extraction logfile from 27. November 2007, 10:22

Michael Jackson / Off the Wall

Used drive : HL-DT-STDVD-RAM GSA-H54N Adapter: 0 ID: 0

Read mode : Secure
Utilize accurate stream : Yes
Defeat audio cache : Yes
Make use of C2 pointers : No

Read offset correction : 102
Overread into Lead-In and Lead-Out : Yes
Fill up missing offset samples with silence : Yes
Delete leading and trailing silent blocks : No
Null samples used in CRC calculations : Yes
Used interface : Installed external ASPI interface
Gap handling : Appended to previous track

Used output format : Internal WAV Routines
Sample format : 44.100 Hz; 16 Bit; Stereo

TOC of the extracted CD

Track | Start | Length | Start sector | End sector
---------------------------------------------------------
1 | 0:00.00 | 6:06.30 | 0 | 27479
2 | 6:06.30 | 3:40.47 | 27480 | 44026
3 | 9:47.02 | 5:14.38 | 44027 | 67614
4 | 15:01.40 | 4:39.52 | 67615 | 88591
5 | 19:41.17 | 4:06.63 | 88592 | 107104
6 | 23:48.05 | 3:05.45 | 107105 | 121024
7 | 26:53.50 | 3:38.37 | 121025 | 137411
8 | 30:32.12 | 4:30.03 | 137412 | 157664
9 | 35:02.15 | 3:48.42 | 157665 | 174806
10 | 38:50.57 | 3:41.48 | 174807 | 191429

Track 1

Filename D:\Lossless\01 – Don't Stop 'Til You Get Enough.wav

Pre-gap length 0:00:02.00

Peak level 100.0 %
Track quality 99.8 %
Test CRC 713F04E9
Copy CRC 713F04E9
Accurately ripped (confidence 4) [57603BBF]
Copy OK

Track 2

Filename D:\Lossless\02 – Rock With You.wav

Peak level 100.0 %
Track quality 100.0 %
Test CRC 4D2A2DF5
Copy CRC 4D2A2DF5
Accurately ripped (confidence 4) [54A2EE5A]
Copy OK

Track 3

Filename D:\Lossless\03 – Workin' Day And Night.wav

Peak level 88.0 %
Track quality 100.0 %
Test CRC C6AE8756
Copy CRC C6AE8756
Accurately ripped (confidence 4) [3B8F6CF4]
Copy OK

Track 4

Filename D:\Lossless\04 – Get On The Floor.wav

Peak level 100.0 %
Track quality 100.0 %
Test CRC C404EE47
Copy CRC C404EE47
Accurately ripped (confidence 4) [D35460CC]
Copy OK

Track 5

Filename D:\Lossless\05 – Off The Wall.wav

Pre-gap length 0:00:01.10

Peak level 84.6 %
Track quality 100.0 %
Test CRC D316C9FD
Copy CRC D316C9FD
Accurately ripped (confidence 4) [7FA39244]
Copy OK

Track 6

Filename D:\Lossless\06 – Girlfriend.wav

Peak level 84.6 %
Track quality 99.9 %
Test CRC F24636CF
Copy CRC F24636CF
Accurately ripped (confidence 4) [280703A8]
Copy OK

Track 7

Filename D:\Lossless\07 – She's Out Of My Life.wav

Peak level 38.8 %
Track quality 99.9 %
Test CRC CE78611A
Copy CRC CE78611A
Accurately ripped (confidence 4) [5712A5F1]
Copy OK

Track 8

Filename D:\Lossless\08 – I Can't Help It.wav

Peak level 62.4 %
Track quality 100.0 %
Test CRC CDBE1660
Copy CRC CDBE1660
Accurately ripped (confidence 4) [47C632D2]
Copy OK

Track 9

Filename D:\Lossless\09 – It's The Falling In Love.wav

Peak level 82.7 %
Track quality 100.0 %
Test CRC 70353549
Copy CRC 70353549
Accurately ripped (confidence 4) [CD366B8D]
Copy OK

Track 10

Filename D:\Lossless\10 – Burn This Disco Out.wav

Peak level 93.4 %
Track quality 100.0 %
Test CRC 3C316B6F
Copy CRC 3C316B6F
Accurately ripped (confidence 4) [DD8F6BD3]
Copy OK

All tracks accurately ripped

No errors occurred

End of status report
REM GENRE Pop
REM DATE 1979
REM DISCID 7809F80A
REM COMMENT "ExactAudioCopy v0.99pb3"
PERFORMER "Michael Jackson"
TITLE "Off the Wall"
FILE "01 – Don't Stop 'Til You Get Enough.wav" WAVE
TRACK 01 AUDIO
TITLE "Don't Stop 'Til You Get Enough"
PERFORMER "Michael Jackson"
INDEX 01 00:00:00
FILE "02 – Rock With You.wav" WAVE
TRACK 02 AUDIO
TITLE "Rock With You"
PERFORMER "Michael Jackson"
INDEX 01 00:00:00
FILE "03 – Workin' Day And Night.wav" WAVE
TRACK 03 AUDIO
TITLE "Workin' Day And Night"
PERFORMER "Michael Jackson"
INDEX 01 00:00:00
FILE "04 – Get On The Floor.wav" WAVE
TRACK 04 AUDIO
TITLE "Get On The Floor"
PERFORMER "Michael Jackson"
INDEX 01 00:00:00
TRACK 05 AUDIO
TITLE "Off The Wall"
PERFORMER "Michael Jackson"
INDEX 00 04:38:42
FILE "05 – Off The Wall.wav" WAVE
INDEX 01 00:00:00
FILE "06 – Girlfriend.wav" WAVE
TRACK 06 AUDIO
TITLE "Girlfriend"
PERFORMER "Michael Jackson"
INDEX 01 00:00:00
FILE "07 – She's Out Of My Life.wav" WAVE
TRACK 07 AUDIO
TITLE "She's Out Of My Life"
PERFORMER "Michael Jackson"
INDEX 01 00:00:00
FILE "08 – I Can't Help It.wav" WAVE
TRACK 08 AUDIO
TITLE "I Can't Help It"
PERFORMER "Michael Jackson"
INDEX 01 00:00:00
FILE "09 – It's The Falling In Love.wav" WAVE
TRACK 09 AUDIO
TITLE "It's The Falling In Love"
PERFORMER "Michael Jackson"
INDEX 01 00:00:00
FILE "10 – Burn This Disco Out.wav" WAVE
TRACK 10 AUDIO
TITLE "Burn This Disco Out"
PERFORMER "Michael Jackson"
INDEX 01 00:00:00
01. Wanna Be Startin' Somethin' (6:04)
02. Baby Be Mine (4:21)
03. The Girl Is Mine (3:43)
04. Thriller (6:05)
05. Beat It (4:19)
06. Billie Jean (4:57)
07. Human Nature (4:06)
08. P. Y. T. (Pretty Young Thing) (3:59)
09. The Lady in My Life (5:01)
EAC extraction logfile from 17. March 2008, 19:43 for CD
Michael Jackson / Thriller

Used drive : SlimtypeDVDRW SOSW-833S Adapter: 1 ID: 0
Read mode : Secure with NO C2, accurate stream, disable cache
Read offset correction : 6
Overread into Lead-In and Lead-Out : No

Used output format : C:\Program\FLAC\flac.exe (User Defined Encoder)
192 kBit/s
Additional command line options : -V -8 -T "artist=%a" -T "title=%t" -T "album=%g" -T "date=%y" -T "tracknumber=%n" -T "genre=%m" %s

Other options :
Fill up missing offset samples with silence : Yes
Delete leading and trailing silent blocks : No
Native Win32 interface for Win NT & 2000

Track 1
Filename D:\U-torrent\MUSIK\Michael Jackson - Thriller (1982) [FLAC] {Japan 1st press 35.8P-11}\01 - Wanna Be Startin' Somethin'.wav

Pre-gap length 0:00:02.00

Peak level 85.7 %
Track quality 100.0 %
Test CRC 1D99A143
Copy CRC 1D99A143
Copy OK

Track 2
Filename D:\U-torrent\MUSIK\Michael Jackson - Thriller (1982) [FLAC] {Japan 1st press 35.8P-11}\02 - Baby Be Mine.wav

Peak level 80.0 %
Track quality 99.9 %
Test CRC F192D723
Copy CRC F192D723
Copy OK

Track 3
Filename D:\U-torrent\MUSIK\Michael Jackson - Thriller (1982) [FLAC] {Japan 1st press 35.8P-11}\03 - The Girl Is Mine.wav

Peak level 75.4 %
Track quality 100.0 %
Test CRC C30EF6B6
Copy CRC C30EF6B6
Copy OK

Track 4
Filename D:\U-torrent\MUSIK\Michael Jackson - Thriller (1982) [FLAC] {Japan 1st press 35.8P-11}\04 - Thriller.wav

Peak level 75.3 %
Track quality 100.0 %
Test CRC E69006A1
Copy CRC E69006A1
Copy OK

Track 5
Filename D:\U-torrent\MUSIK\Michael Jackson - Thriller (1982) [FLAC] {Japan 1st press 35.8P-11}\05 - Beat It.wav

Pre-gap length 0:00:03.66

Peak level 66.7 %
Track quality 99.9 %
Test CRC 148564C0
Copy CRC 148564C0
Copy OK

Track 6
Filename D:\U-torrent\MUSIK\Michael Jackson - Thriller (1982) [FLAC] {Japan 1st press 35.8P-11}\06 - Billie Jean.wav

Peak level 96.1 %
Track quality 100.0 %
Test CRC 3AFCAA5F
Copy CRC 3AFCAA5F
Copy OK

Track 7
Filename D:\U-torrent\MUSIK\Michael Jackson - Thriller (1982) [FLAC] {Japan 1st press 35.8P-11}\07 - Human Nature.wav

Peak level 68.4 %
Track quality 100.0 %
Test CRC F976D6A7
Copy CRC F976D6A7
Copy OK

Track 8
Filename D:\U-torrent\MUSIK\Michael Jackson - Thriller (1982) [FLAC] {Japan 1st press 35.8P-11}\08 - P. Y. T. (Pretty Young Thing).wav

Peak level 79.0 %
Track quality 100.0 %
Test CRC 73CE7D14
Copy CRC 73CE7D14
Copy OK

Track 9
Filename D:\U-torrent\MUSIK\Michael Jackson - Thriller (1982) [FLAC] {Japan 1st press 35.8P-11}\09 - The Lady in My Life.wav

Peak level 63.0 %
Track quality 100.0 %
Test CRC 32797FC4
Copy CRC 32797FC4
Copy OK

No errors occured

End of status report
REM GENRE R&B
REM DATE 1982
REM DISCID 6D09FB09
REM COMMENT "ExactAudioCopy v0.95b3"
PERFORMER "Michael Jackson"
TITLE "Thriller"
FILE "01 - Wanna Be Startin' Somethin'.wav" WAVE
TRACK 01 AUDIO
TITLE "Wanna Be Startin' Somethin'"
PERFORMER "Michael Jackson"
FLAGS PRE
INDEX 01 00:00:00
FILE "02 - Baby Be Mine.wav" WAVE
TRACK 02 AUDIO
TITLE "Baby Be Mine"
PERFORMER "Michael Jackson"
FLAGS PRE
INDEX 01 00:00:00
FILE "03 - The Girl Is Mine.wav" WAVE
TRACK 03 AUDIO
TITLE "The Girl Is Mine"
PERFORMER "Michael Jackson"
FLAGS PRE
INDEX 01 00:00:00
FILE "04 - Thriller.wav" WAVE
TRACK 04 AUDIO
TITLE "Thriller"
PERFORMER "Michael Jackson"
FLAGS PRE
INDEX 01 00:00:00
TRACK 05 AUDIO
TITLE "Beat It"
PERFORMER "Michael Jackson"
FLAGS PRE
INDEX 00 06:00:73
FILE "05 - Beat It.wav" WAVE
INDEX 01 00:00:00
FILE "06 - Billie Jean.wav" WAVE
TRACK 06 AUDIO
TITLE "Billie Jean"
PERFORMER "Michael Jackson"
FLAGS PRE
INDEX 01 00:00:00
FILE "07 - Human Nature.wav" WAVE
TRACK 07 AUDIO
TITLE "Human Nature"
PERFORMER "Michael Jackson"
FLAGS PRE
INDEX 01 00:00:00
FILE "08 - P. Y. T. (Pretty Young Thing).wav" WAVE
TRACK 08 AUDIO
TITLE "P. Y. T. (Pretty Young Thing)"
PERFORMER "Michael Jackson"
FLAGS PRE
INDEX 01 00:00:00
FILE "09 - The Lady in My Life.wav" WAVE
TRACK 09 AUDIO
TITLE "The Lady in My Life"
PERFORMER "Michael Jackson"
FLAGS PRE
INDEX 01 00:00:00
01. Bad (4:07)
02. The way you make me feel (5:00)
03. Speed Demon (4:01)
04. Liberian Girl (3:54)
05. Just good Friends (4:08)
06. Another Part of me (3:55)
07. Man in the Mirror (5:19)
08. I just cant stop loving you (4:25)
09. Dirty Diana (4:52)
10. Smooth Criminal (4:19)
11. Leave me alone (4:40)
Exact Audio Copy V0.99 prebeta 5 from 4. May 2009

EAC extraction logfile from 26. June 2009, 7:45

Jackson, Michael / Bad

Used drive : HL-DT-STDVD-RW GSA-H60L Adapter: 2 ID: 1

Read mode : Secure
Utilize accurate stream : Yes
Defeat audio cache : Yes
Make use of C2 pointers : No

Read offset correction : 667
Overread into Lead-In and Lead-Out : No
Fill up missing offset samples with silence : Yes
Delete leading and trailing silent blocks : No
Null samples used in CRC calculations : Yes
Used interface : Native Win32 interface for Win NT & 2000
Gap handling : Appended to previous track

Used output format : User Defined Encoder
Selected bitrate : 1024 kBit/s
Quality : High
Add ID3 tag : No
Command line compressor : C:\Program Files\Exact Audio Copy\FLAC\FLAC.EXE
Additional command line options : -6 -V -T "ARTIST=%a" -T "TITLE=%t" -T "ALBUM=%g" -T "DATE=%y" -T "TRACKNUMBER=%n" -T "GENRE=%m" -T "COMMENT=%e" %s -o %d

TOC of the extracted CD

Track | Start | Length | Start sector | End sector
---------------------------------------------------------
1 | 0:00.00 | 4:07.37 | 0 | 18561
2 | 4:07.37 | 4:59.38 | 18562 | 41024
3 | 9:07.00 | 4:01.17 | 41025 | 59116
4 | 13:08.17 | 3:53.50 | 59117 | 76641
5 | 17:01.67 | 4:08.15 | 76642 | 95256
6 | 21:10.07 | 3:54.58 | 95257 | 112864
7 | 25:04.65 | 5:19.37 | 112865 | 136826
8 | 30:24.27 | 4:25.23 | 136827 | 156724
9 | 34:49.50 | 4:52.32 | 156725 | 178656
10 | 39:42.07 | 4:19.03 | 178657 | 198084
11 | 44:01.10 | 4:39.65 | 198085 | 219074

Track 1

Filename C:\Users\dirk\Music\Jackson, Michael - 1987 - Bad\01 - Bad .wav

Pre-gap length 0:00:02.00

Peak level 91.6 %
Track quality 100.0 %
Test CRC 9BB9E331
Copy CRC 9BB9E331
Accurately ripped (confidence 69) [AD6EB8B7]
Copy OK

Track 2

Filename C:\Users\dirk\Music\Jackson, Michael - 1987 - Bad\02 - The way you make me feel .wav

Peak level 80.3 %
Track quality 99.9 %
Test CRC 11F03690
Copy CRC 11F03690
Accurately ripped (confidence 70) [EFDBD584]
Copy OK

Track 3

Filename C:\Users\dirk\Music\Jackson, Michael - 1987 - Bad\03 - Speed Demon .wav

Peak level 85.6 %
Track quality 100.0 %
Test CRC 1E6399CF
Copy CRC 1E6399CF
Accurately ripped (confidence 69) [30F2F945]
Copy OK

Track 4

Filename C:\Users\dirk\Music\Jackson, Michael - 1987 - Bad\04 - Liberian Girl .wav

Peak level 66.6 %
Track quality 100.0 %
Test CRC 2DE388D8
Copy CRC 2DE388D8
Accurately ripped (confidence 69) [C5534620]
Copy OK

Track 5

Filename C:\Users\dirk\Music\Jackson, Michael - 1987 - Bad\05 - Just good Friends .wav

Peak level 65.6 %
Track quality 100.0 %
Test CRC E8EF4FE6
Copy CRC E8EF4FE6
Accurately ripped (confidence 69) [B1B6E591]
Copy OK

Track 6

Filename C:\Users\dirk\Music\Jackson, Michael - 1987 - Bad\06 - Another Part of me .wav

Peak level 84.7 %
Track quality 99.9 %
Test CRC D8E05913
Copy CRC D8E05913
Accurately ripped (confidence 69) [F217CB0C]
Copy OK

Track 7

Filename C:\Users\dirk\Music\Jackson, Michael - 1987 - Bad\07 - Man in the Mirror .wav

Peak level 74.1 %
Track quality 100.0 %
Test CRC E2033D66
Copy CRC E2033D66
Accurately ripped (confidence 69) [9CE12F53]
Copy OK

Track 8

Filename C:\Users\dirk\Music\Jackson, Michael - 1987 - Bad\08 - I just cant stop loving you .wav

Peak level 79.4 %
Track quality 99.9 %
Test CRC 4F857AA3
Copy CRC 4F857AA3
Accurately ripped (confidence 69) [2F52705B]
Copy OK

Track 9

Filename C:\Users\dirk\Music\Jackson, Michael - 1987 - Bad\09 - Dirty Diana .wav

Peak level 77.2 %
Track quality 100.0 %
Test CRC 215F6A09
Copy CRC 215F6A09
Accurately ripped (confidence 69) [C7FC9DBE]
Copy OK

Track 10

Filename C:\Users\dirk\Music\Jackson, Michael - 1987 - Bad\10 - Smooth Criminal .wav

Peak level 86.7 %
Track quality 100.0 %
Test CRC 60CF9813
Copy CRC 60CF9813
Accurately ripped (confidence 70) [99FF21AB]
Copy OK

Track 11

Filename C:\Users\dirk\Music\Jackson, Michael - 1987 - Bad\11 - Leave me alone .wav

Peak level 86.1 %
Track quality 100.0 %
Test CRC 2E969BAB
Copy CRC 2E969BAB
Accurately ripped (confidence 69) [EF810A48]
Copy OK

All tracks accurately ripped

No errors occurred

End of status report
REM GENRE Pop
REM DATE 1987
REM DISCID 8E0B690B
REM COMMENT "ExactAudioCopy v0.99pb5"
FILE "Jackson, Michael - 1987 - Bad\01 - Bad .wav" WAVE
TRACK 01 AUDIO
INDEX 01 00:00:00
FILE "Jackson, Michael - 1987 - Bad\02 - The way you make me feel .wav" WAVE
TRACK 02 AUDIO
INDEX 01 00:00:00
FILE "Jackson, Michael - 1987 - Bad\03 - Speed Demon .wav" WAVE
TRACK 03 AUDIO
INDEX 01 00:00:00
FILE "Jackson, Michael - 1987 - Bad\04 - Liberian Girl .wav" WAVE
TRACK 04 AUDIO
INDEX 01 00:00:00
FILE "Jackson, Michael - 1987 - Bad\05 - Just good Friends .wav" WAVE
TRACK 05 AUDIO
INDEX 01 00:00:00
FILE "Jackson, Michael - 1987 - Bad\06 - Another Part of me .wav" WAVE
TRACK 06 AUDIO
INDEX 01 00:00:00
FILE "Jackson, Michael - 1987 - Bad\07 - Man in the Mirror .wav" WAVE
TRACK 07 AUDIO
INDEX 01 00:00:00
FILE "Jackson, Michael - 1987 - Bad\08 - I just cant stop loving you .wav" WAVE
TRACK 08 AUDIO
INDEX 01 00:00:00
FILE "Jackson, Michael - 1987 - Bad\09 - Dirty Diana .wav" WAVE
TRACK 09 AUDIO
INDEX 01 00:00:00
FILE "Jackson, Michael - 1987 - Bad\10 - Smooth Criminal .wav" WAVE
TRACK 10 AUDIO
INDEX 01 00:00:00
FILE "Jackson, Michael - 1987 - Bad\11 - Leave me alone .wav" WAVE
TRACK 11 AUDIO
INDEX 01 00:00:00
01. Jam (5:39)
02. Why You Wanna Trip On Me (5:25)
03. In The Closet (6:32)
04. She Drives Me Wild (3:42)
05. Remember The Time (4:01)
06. Can't Let Her Get Away (5:02)
07. Heal The World (6:25)
08. Black Or White (4:16)
09. Who Is It (6:36)
10. Give In To Me (5:29)
11. Will You Be There (7:40)
12. Keep The Faith (5:58)
13. Gone Too Soon (3:23)
14. Dangerous (7:00)
Exact Audio Copy V0.99 prebeta 4 from 23. January 2008

EAC extraction logfile from 28. April 2009, 11:04

Michael Jackson / Dangerous

Used drive : PIONEER DVD RW DVR-107D Adapter: 1 ID: 0

Read mode : Secure
Utilize accurate stream : Yes
Defeat audio cache : Yes
Make use of C2 pointers : No

Read offset correction : 48
Overread into Lead-In and Lead-Out : No
Fill up missing offset samples with silence : Yes
Delete leading and trailing silent blocks : No
Null samples used in CRC calculations : Yes
Used interface : Native Win32 interface for Win NT & 2000
Gap handling : Appended to previous track

Used output format : User Defined Encoder
Selected bitrate : 320 kBit/s
Quality : High
Add ID3 tag : No
Command line compressor : C:\Program Files\Exact Audio Copy\flac.exe
Additional command line options : -V -8 -T "artist=%a" -T "title=%t" -T "album=%g" -T "date=%y" -T "tracknumber=%n" -T "genre=%m" %s

TOC of the extracted CD

Track | Start | Length | Start sector | End sector
---------------------------------------------------------
1 | 0:00.00 | 5:39.20 | 0 | 25444
2 | 5:39.20 | 5:25.05 | 25445 | 49824
3 | 11:04.25 | 6:32.17 | 49825 | 79241
4 | 17:36.42 | 3:42.00 | 79242 | 95891
5 | 21:18.42 | 4:00.43 | 95892 | 113934
6 | 25:19.10 | 5:02.02 | 113935 | 136586
7 | 30:21.12 | 6:24.43 | 136587 | 165429
8 | 36:45.55 | 4:16.05 | 165430 | 184634
9 | 41:01.60 | 6:35.50 | 184635 | 214309
10 | 47:37.35 | 5:28.57 | 214310 | 238966
11 | 53:06.17 | 7:40.08 | 238967 | 273474
12 | 60:46.25 | 5:57.40 | 273475 | 300289
13 | 66:43.65 | 3:22.55 | 300290 | 315494
14 | 70:06.45 | 7:00.20 | 315495 | 347014

Track 1

Filename F:\EAC Rip\01 - Michael Jackson - Jam.wav

Pre-gap length 0:00:02.00

Peak level 100.0 %
Track quality 100.0 %
Test CRC D43C05AC
Copy CRC D43C05AC
Accurately ripped (confidence 3) [82F03D11]
Copy OK

Track 2

Filename F:\EAC Rip\02 - Michael Jackson - Why You Wanna Trip On Me.wav

Peak level 100.0 %
Track quality 99.9 %
Test CRC A23C9695
Copy CRC A23C9695
Accurately ripped (confidence 3) [DFEAD668]
Copy OK

Track 3

Filename F:\EAC Rip\03 - Michael Jackson - In The Closet.wav

Peak level 100.0 %
Track quality 100.0 %
Test CRC 5E48DB19
Copy CRC 5E48DB19
Accurately ripped (confidence 3) [135D08A7]
Copy OK

Track 4

Filename F:\EAC Rip\04 - Michael Jackson - She Drives Me Wild.wav

Pre-gap length 0:00:00.73

Peak level 100.0 %
Track quality 100.0 %
Test CRC DF92FC42
Copy CRC DF92FC42
Accurately ripped (confidence 3) [ACF04FAC]
Copy OK

Track 5

Filename F:\EAC Rip\05 - Michael Jackson - Remember The Time.wav

Pre-gap length 0:00:01.09

Peak level 100.0 %
Track quality 100.0 %
Test CRC F9154D32
Copy CRC F9154D32
Accurately ripped (confidence 3) [DF78A1F2]
Copy OK

Track 6

Filename F:\EAC Rip\06 - Michael Jackson - Can't Let Her Get Away.wav

Pre-gap length 0:00:00.92

Peak level 100.0 %
Track quality 100.0 %
Test CRC 2C4880B2
Copy CRC 2C4880B2
Accurately ripped (confidence 3) [2A70F24E]
Copy OK

Track 7

Filename F:\EAC Rip\07 - Michael Jackson - Heal The World.wav

Pre-gap length 0:00:02.72

Peak level 100.0 %
Track quality 100.0 %
Test CRC CDD31F1D
Copy CRC CDD31F1D
Accurately ripped (confidence 3) [80041950]
Copy OK

Track 8

Filename F:\EAC Rip\08 - Michael Jackson - Black Or White.wav

Pre-gap length 0:00:00.70

Peak level 95.7 %
Track quality 100.0 %
Test CRC 8237F555
Copy CRC 8237F555
Accurately ripped (confidence 3) [6014E128]
Copy OK

Track 9

Filename F:\EAC Rip\09 - Michael Jackson - Who Is It.wav

Pre-gap length 0:00:00.92

Peak level 98.6 %
Track quality 100.0 %
Test CRC 05B7C620
Copy CRC 05B7C620
Accurately ripped (confidence 3) [68EC738C]
Copy OK

Track 10

Filename F:\EAC Rip\10 - Michael Jackson - Give In To Me.wav

Pre-gap length 0:00:01.28

Peak level 93.0 %
Track quality 100.0 %
Test CRC 008CA59A
Copy CRC 008CA59A
Accurately ripped (confidence 3) [B6688F4A]
Copy OK

Track 11

Filename F:\EAC Rip\11 - Michael Jackson - Will You Be There.wav

Peak level 100.0 %
Track quality 100.0 %
Test CRC 4B773BF9
Copy CRC 4B773BF9
Accurately ripped (confidence 3) [0B91317E]
Copy OK

Track 12

Filename F:\EAC Rip\12 - Michael Jackson - Keep The Faith.wav

Peak level 99.9 %
Track quality 100.0 %
Test CRC D74EB9E9
Copy CRC D74EB9E9
Accurately ripped (confidence 3) [84B98CB9]
Copy OK

Track 13

Filename F:\EAC Rip\13 - Michael Jackson - Gone Too Soon.wav

Pre-gap length 0:00:00.20

Peak level 83.3 %
Track quality 100.0 %
Test CRC 26781CAD
Copy CRC 26781CAD
Accurately ripped (confidence 4) [E15B38C0]
Copy OK

Track 14

Filename F:\EAC Rip\14 - Michael Jackson - Dangerous.wav

Pre-gap length 0:00:00.14

Peak level 100.0 %
Track quality 100.0 %
Test CRC F93F45CD
Copy CRC F93F45CD
Accurately ripped (confidence 3) [452D91F8]
Copy OK

All tracks accurately ripped

No errors occurred

End of status report
REM GENRE Pop
REM DATE 1991
REM DISCID BE12120E
REM COMMENT "ExactAudioCopy v0.99pb4"
PERFORMER "Michael Jackson"
TITLE "Dangerous"
FILE "01 - Michael Jackson - Jam.wav" WAVE
TRACK 01 AUDIO
TITLE "Jam"
PERFORMER "Michael Jackson"
INDEX 01 00:00:00
FILE "02 - Michael Jackson - Why You Wanna Trip On Me.wav" WAVE
TRACK 02 AUDIO
TITLE "Why You Wanna Trip On Me"
PERFORMER "Michael Jackson"
INDEX 01 00:00:00
FILE "03 - Michael Jackson - In The Closet.wav" WAVE
TRACK 03 AUDIO
TITLE "In The Closet"
PERFORMER "Michael Jackson"
INDEX 01 00:00:00
TRACK 04 AUDIO
TITLE "She Drives Me Wild"
PERFORMER "Michael Jackson"
INDEX 00 06:31:37
FILE "04 - Michael Jackson - She Drives Me Wild.wav" WAVE
INDEX 01 00:00:00
TRACK 05 AUDIO
TITLE "Remember The Time"
PERFORMER "Michael Jackson"
INDEX 00 03:40:68
FILE "05 - Michael Jackson - Remember The Time.wav" WAVE
INDEX 01 00:00:00
TRACK 06 AUDIO
TITLE "Can't Let Her Get Away"
PERFORMER "Michael Jackson"
INDEX 00 03:59:49
FILE "06 - Michael Jackson - Can't Let Her Get Away.wav" WAVE
INDEX 01 00:00:00
TRACK 07 AUDIO
TITLE "Heal The World"
PERFORMER "Michael Jackson"
INDEX 00 04:59:23
FILE "07 - Michael Jackson - Heal The World.wav" WAVE
INDEX 01 00:00:00
TRACK 08 AUDIO
TITLE "Black Or White"
PERFORMER "Michael Jackson"
INDEX 00 06:23:65
FILE "08 - Michael Jackson - Black Or White.wav" WAVE
INDEX 01 00:00:00
TRACK 09 AUDIO
TITLE "Who Is It"
PERFORMER "Michael Jackson"
INDEX 00 04:15:11
FILE "09 - Michael Jackson - Who Is It.wav" WAVE
INDEX 01 00:00:00
TRACK 10 AUDIO
TITLE "Give In To Me"
PERFORMER "Michael Jackson"
INDEX 00 06:34:29
FILE "10 - Michael Jackson - Give In To Me.wav" WAVE
INDEX 01 00:00:00
FILE "11 - Michael Jackson - Will You Be There.wav" WAVE
TRACK 11 AUDIO
TITLE "Will You Be There"
PERFORMER "Michael Jackson"
INDEX 01 00:00:00
FILE "12 - Michael Jackson - Keep The Faith.wav" WAVE
TRACK 12 AUDIO
TITLE "Keep The Faith"
PERFORMER "Michael Jackson"
INDEX 01 00:00:00
TRACK 13 AUDIO
TITLE "Gone Too Soon"
PERFORMER "Michael Jackson"
INDEX 00 05:57:25
FILE "13 - Michael Jackson - Gone Too Soon.wav" WAVE
INDEX 01 00:00:00
TRACK 14 AUDIO
TITLE "Dangerous"
PERFORMER "Michael Jackson"
INDEX 00 03:22:44
FILE "14 - Michael Jackson - Dangerous.wav" WAVE
INDEX 01 00:00:00
CD 1
01. Billie Jean (4:54)
02. The Way You Make Me Feel (4:57)
03. Black Or White (4:16)
04. Rock With You (3:41)
05. She's Out Of My Life (3:38)
06. Bad (4:07)
07. I Just Can't Stop Loving You (4:12)
08. Man In The Mirror (5:19)
09. Thriller (5:58)
10. Beat It (4:19)
11. The Girl Is Mine (3:42)
12. Remember The Time (4:00)
13. Don't Stop Till You Get Enough (6:05)
14. Wanna Be Startin' Somethin' (6:04)
15. Heal The World (6:25)
CD 2
01. Scream (Duet With Janet Jackson) (4:39)
02. They Don't Care About Us (4:44)
03. Stranger In Moscow (5:44)
04. This Time Around (4:21)
05. Earth Song (6:46)
06. D.S. (4:50)
07. Money (4:42)
08. Come Together (4:03)
09. You Are Not Alone (5:45)
10. Childhood (Theme From "Free Willy 2") (4:28)
11. Tabloid Junkie (4:32)
12. 2 Bad (4:50)
13. History (6:37)
14. Little Susie (6:14)
15. Smile (4:57)
Exact Audio Copy V0.99 prebeta 3 from 28. July 2007

EAC extraction logfile from 17. February 2008, 22:51

Michael Jackson / HIStory - Past, Present And Future Book I (CD 1 - HIStory begins)

Used drive : HL-DT-STDVD-RAM GSA-H54N Adapter: 0 ID: 0

Read mode : Secure
Utilize accurate stream : Yes
Defeat audio cache : Yes
Make use of C2 pointers : No

Read offset correction : 102
Overread into Lead-In and Lead-Out : Yes
Fill up missing offset samples with silence : Yes
Delete leading and trailing silent blocks : No
Null samples used in CRC calculations : Yes
Used interface : Installed external ASPI interface
Gap handling : Appended to previous track

Used output format : Internal WAV Routines
Sample format : 44.100 Hz; 16 Bit; Stereo

TOC of the extracted CD

Track | Start | Length | Start sector | End sector
---------------------------------------------------------
1 | 0:00.00 | 4:54.25 | 0 | 22074
2 | 4:54.25 | 4:57.37 | 22075 | 44386
3 | 9:51.62 | 4:15.70 | 44387 | 63581
4 | 14:07.57 | 3:40.63 | 63582 | 80144
5 | 17:48.45 | 3:38.07 | 80145 | 96501
6 | 21:26.52 | 4:07.33 | 96502 | 115059
7 | 25:34.10 | 4:12.10 | 115060 | 133969
8 | 29:46.20 | 5:19.37 | 133970 | 157931
9 | 35:05.57 | 5:57.53 | 157932 | 184759
10 | 41:03.35 | 4:18.72 | 184760 | 204181
11 | 45:22.32 | 3:41.70 | 204182 | 220826
12 | 49:04.27 | 3:59.70 | 220827 | 238821
13 | 53:04.22 | 6:05.00 | 238822 | 266196
14 | 59:09.22 | 6:04.23 | 266197 | 293519
15 | 65:13.45 | 6:24.55 | 293520 | 322374

Track 1

Filename D:\Lossless\MJ-History\01 – Michael Jackson , Billie Jean.wav

Pre-gap length 0:00:02.00

Peak level 100.0 %
Track quality 99.9 %
Test CRC 985AFEC8
Copy CRC 985AFEC8
Accurately ripped (confidence 71) [97E6700D]
Copy OK

Track 2

Filename D:\Lossless\MJ-History\02 – Michael Jackson , The Way You Make Me Feel.wav

Pre-gap length 0:00:00.20

Peak level 100.0 %
Track quality 100.0 %
Test CRC 65F6352A
Copy CRC 65F6352A
Accurately ripped (confidence 73) [3D4E2B54]
Copy OK

Track 3

Filename D:\Lossless\MJ-History\03 – Michael Jackson , Black Or White.wav

Peak level 98.8 %
Track quality 100.0 %
Test CRC BAD907A9
Copy CRC BAD907A9
Accurately ripped (confidence 70) [582860CC]
Copy OK

Track 4

Filename D:\Lossless\MJ-History\04 – Michael Jackson , Rock with You.wav

Pre-gap length 0:00:00.05

Peak level 100.0 %
Track quality 99.9 %
Test CRC CE24C385
Copy CRC CE24C385
Accurately ripped (confidence 70) [30171143]
Copy OK

Track 5

Filename D:\Lossless\MJ-History\05 – Michael Jackson , She's out of My Life.wav

Pre-gap length 0:00:00.65

Peak level 89.8 %
Track quality 100.0 %
Test CRC 5B90B483
Copy CRC 5B90B483
Accurately ripped (confidence 70) [B6C11801]
Copy OK

Track 6

Filename D:\Lossless\MJ-History\06 – Michael Jackson , Bad.wav

Pre-gap length 0:00:00.60

Peak level 100.0 %
Track quality 100.0 %
Test CRC F5B1BC90
Copy CRC F5B1BC90
Accurately ripped (confidence 72) [CD78FF57]
Copy OK

Track 7

Filename D:\Lossless\MJ-History\07 – Michael Jackson , I Just Can't Stop Loving You.wav

Pre-gap length 0:00:00.55

Peak level 100.0 %
Track quality 100.0 %
Test CRC 0CE9626B
Copy CRC 0CE9626B
Accurately ripped (confidence 71) [F2357EBC]
Copy OK

Track 8

Filename D:\Lossless\MJ-History\08 – Michael Jackson , Man in the Mirror.wav

Pre-gap length 0:00:00.43

Peak level 96.4 %
Track quality 100.0 %
Test CRC 2EF00006
Copy CRC 2EF00006
Accurately ripped (confidence 68) [54AB1B21]
Copy OK

Track 9

Filename D:\Lossless\MJ-History\09 – Michael Jackson , Thriller.wav

Pre-gap length 0:00:00.20

Peak level 99.6 %
Track quality 100.0 %
Test CRC 4A38374A
Copy CRC 4A38374A
Accurately ripped (confidence 71) [33B76F69]
Copy OK

Track 10

Filename D:\Lossless\MJ-History\10 – Michael Jackson , Beat It.wav

Pre-gap length 0:00:00.45

Peak level 100.0 %
Track quality 100.0 %
Test CRC DA1C9033
Copy CRC DA1C9033
Accurately ripped (confidence 72) [CF1A8CFE]
Copy OK

Track 11

Filename D:\Lossless\MJ-History\11 – Michael Jackson , The Girl Is Mine.wav

Pre-gap length 0:00:00.55

Peak level 98.8 %
Track quality 100.0 %
Test CRC F8BD16B8
Copy CRC F8BD16B8
Accurately ripped (confidence 70) [F0509878]
Copy OK

Track 12

Filename D:\Lossless\MJ-History\12 – Michael Jackson , Remember the Time.wav

Pre-gap length 0:00:00.32

Peak level 100.0 %
Track quality 100.0 %
Test CRC B7763ADC
Copy CRC B7763ADC
Accurately ripped (confidence 70) [CB864642]
Copy OK

Track 13

Filename D:\Lossless\MJ-History\13 – Michael Jackson , Don't Stop 'Til You Get Enough.wav

Pre-gap length 0:00:00.52

Peak level 100.0 %
Track quality 100.0 %
Test CRC 4D3E5C6D
Copy CRC 4D3E5C6D
Accurately ripped (confidence 70) [0C3F8A3B]
Copy OK

Track 14

Filename D:\Lossless\MJ-History\14 – Michael Jackson , Wanna Be Startin' Somethin'.wav

Pre-gap length 0:00:00.52

Peak level 100.0 %
Track quality 100.0 %
Test CRC 8B3E4BFF
Copy CRC 8B3E4BFF
Accurately ripped (confidence 69) [BC2A0494]
Copy OK

Track 15

Filename D:\Lossless\MJ-History\15 – Michael Jackson , Heal the World.wav

Pre-gap length 0:00:02.10

Peak level 100.0 %
Track quality 100.0 %
Test CRC 3F8C89A3
Copy CRC 3F8C89A3
Accurately ripped (confidence 65) [C21F39DB]
Copy OK

All tracks accurately ripped

No errors occurred

End of status report
Exact Audio Copy V0.99 prebeta 3 from 28. July 2007

EAC extraction logfile from 18. February 2008, 22:44

Michael Jackson / HIStory - Past, Present And Future Book I (CD 1 - HIStory continues)

Used drive : HL-DT-STDVD-RAM GSA-H54N Adapter: 0 ID: 0

Read mode : Secure
Utilize accurate stream : Yes
Defeat audio cache : Yes
Make use of C2 pointers : No

Read offset correction : 102
Overread into Lead-In and Lead-Out : Yes
Fill up missing offset samples with silence : Yes
Delete leading and trailing silent blocks : No
Null samples used in CRC calculations : Yes
Used interface : Installed external ASPI interface
Gap handling : Appended to previous track

Used output format : Internal WAV Routines
Sample format : 44.100 Hz; 16 Bit; Stereo

TOC of the extracted CD

Track | Start | Length | Start sector | End sector
---------------------------------------------------------
1 | 0:00.00 | 4:38.70 | 0 | 20919
2 | 4:38.70 | 4:44.10 | 20920 | 42229
3 | 9:23.05 | 5:44.30 | 42230 | 68059
4 | 15:07.35 | 4:20.70 | 68060 | 87629
5 | 19:28.30 | 6:46.20 | 87630 | 118099
6 | 26:14.50 | 4:49.42 | 118100 | 139816
7 | 31:04.17 | 4:41.70 | 139817 | 160961
8 | 35:46.12 | 4:02.45 | 160962 | 179156
9 | 39:48.57 | 5:45.30 | 179157 | 205061
10 | 45:34.12 | 4:28.08 | 205062 | 225169
11 | 50:02.20 | 4:32.20 | 225170 | 245589
12 | 54:34.40 | 4:49.50 | 245590 | 267314
13 | 59:24.15 | 6:37.35 | 267315 | 297124
14 | 66:01.50 | 6:13.62 | 297125 | 325161
15 | 72:15.37 | 4:56.38 | 325162 | 347399

Track 1

Filename D:\Lossless\MJ-History\CD2\01 – Michael Jackson , Scream (duet with Michael Jackson & Janet Jackson).wav

Pre-gap length 0:00:02.00

Peak level 99.9 %
Track quality 99.9 %
Test CRC BB841A22
Copy CRC BB841A22
Accurately ripped (confidence 44) [B19343BD]
Copy OK

Track 2

Filename D:\Lossless\MJ-History\CD2\02 – They Don't Care About Us.wav

Peak level 98.9 %
Track quality 100.0 %
Test CRC 572D40A6
Copy CRC 572D40A6
Accurately ripped (confidence 45) [7D79C247]
Copy OK

Track 3

Filename D:\Lossless\MJ-History\CD2\03 – Stranger In Moscow.wav

Peak level 97.4 %
Track quality 100.0 %
Test CRC 83D1917D
Copy CRC 83D1917D
Accurately ripped (confidence 45) [B182BC0C]
Copy OK

Track 4

Filename D:\Lossless\MJ-History\CD2\04 – This Time Around.wav

Peak level 100.0 %
Track quality 100.0 %
Test CRC 0B061532
Copy CRC 0B061532
Accurately ripped (confidence 45) [9B73ACDD]
Copy OK

Track 5

Filename D:\Lossless\MJ-History\CD2\05 – Earth Song.wav

Peak level 99.9 %
Track quality 100.0 %
Test CRC 774D60EC
Copy CRC 774D60EC
Accurately ripped (confidence 46) [CDF33DAC]
Copy OK

Track 6

Filename D:\Lossless\MJ-History\CD2\06 – D.S..wav

Peak level 98.5 %
Track quality 99.9 %
Test CRC 6BBC9A6B
Copy CRC 6BBC9A6B
Accurately ripped (confidence 45) [E66CAE18]
Copy OK

Track 7

Filename D:\Lossless\MJ-History\CD2\07 – Money.wav

Peak level 99.9 %
Track quality 99.9 %
Test CRC 853BCE02
Copy CRC 853BCE02
Accurately ripped (confidence 44) [FE48675E]
Copy OK

Track 8

Filename D:\Lossless\MJ-History\CD2\08 – Come Together.wav

Peak level 99.9 %
Track quality 100.0 %
Test CRC 7EA68051
Copy CRC 7EA68051
Accurately ripped (confidence 45) [442DCBEB]
Copy OK

Track 9

Filename D:\Lossless\MJ-History\CD2\09 – You Are Not Alone.wav

Peak level 100.0 %
Track quality 100.0 %
Test CRC 03E05F62
Copy CRC 03E05F62
Accurately ripped (confidence 43) [86AD1D90]
Copy OK

Track 10

Filename D:\Lossless\MJ-History\CD2\10 – Childhood (theme from Free Willy 2).wav

Peak level 97.2 %
Track quality 100.0 %
Test CRC 6770A6F3
Copy CRC 6770A6F3
Accurately ripped (confidence 45) [E0AB26CB]
Copy OK

Track 11

Filename D:\Lossless\MJ-History\CD2\11 – Tabloid Junkie.wav

Pre-gap length 0:00:00.63

Peak level 99.9 %
Track quality 100.0 %
Test CRC E83F381C
Copy CRC E83F381C
Accurately ripped (confidence 45) [AFC55EA3]
Copy OK

Track 12

Filename D:\Lossless\MJ-History\CD2\12 – 2 Bad.wav

Peak level 100.0 %
Track quality 100.0 %
Test CRC D088A7D4
Copy CRC D088A7D4
Accurately ripped (confidence 44) [3F07E980]
Copy OK

Track 13

Filename D:\Lossless\MJ-History\CD2\13 – HIStory.wav

Peak level 100.0 %
Track quality 99.9 %
Test CRC 2E2C6F85
Copy CRC 2E2C6F85
Accurately ripped (confidence 44) [9398B31F]
Copy OK

Track 14

Filename D:\Lossless\MJ-History\CD2\14 – Little Susie.wav

Peak level 95.1 %
Track quality 100.0 %
Test CRC 95A80D7F
Copy CRC 95A80D7F
Accurately ripped (confidence 45) [DAC50D6B]
Copy OK

Track 15

Filename D:\Lossless\MJ-History\CD2\15 – Smile.wav

Peak level 99.9 %
Track quality 99.9 %
Test CRC 7163E273
Copy CRC 7163E273
Accurately ripped (confidence 42) [883725C2]
Copy OK

All tracks accurately ripped

No errors occurred

End of status report
REM GENRE Pop
REM DATE 1995
REM DISCID EC10CA0F
REM COMMENT "ExactAudioCopy v0.99pb3"
PERFORMER "Michael Jackson"
TITLE "HIStory - Past, Present And Future Book I (CD 1 - HIStory begins)"
FILE "01 – Michael Jackson , Billie Jean.wav" WAVE
TRACK 01 AUDIO
TITLE "Michael Jackson / Billie Jean"
PERFORMER "Michael Jackson"
INDEX 01 00:00:00
TRACK 02 AUDIO
TITLE "Michael Jackson / The Way You Make Me Feel"
PERFORMER "Michael Jackson"
INDEX 00 04:54:05
FILE "02 – Michael Jackson , The Way You Make Me Feel.wav" WAVE
INDEX 01 00:00:00
FILE "03 – Michael Jackson , Black Or White.wav" WAVE
TRACK 03 AUDIO
TITLE "Michael Jackson / Black Or White"
PERFORMER "Michael Jackson"
INDEX 01 00:00:00
TRACK 04 AUDIO
TITLE "Michael Jackson / Rock with You"
PERFORMER "Michael Jackson"
INDEX 00 04:15:65
FILE "04 – Michael Jackson , Rock with You.wav" WAVE
INDEX 01 00:00:00
TRACK 05 AUDIO
TITLE "Michael Jackson / She's out of My Life"
PERFORMER "Michael Jackson"
INDEX 00 03:39:73
FILE "05 – Michael Jackson , She's out of My Life.wav" WAVE
INDEX 01 00:00:00
TRACK 06 AUDIO
TITLE "Michael Jackson / Bad"
PERFORMER "Michael Jackson"
INDEX 00 03:37:22
FILE "06 – Michael Jackson , Bad.wav" WAVE
INDEX 01 00:00:00
TRACK 07 AUDIO
TITLE "Michael Jackson / I Just Can't Stop Loving You"
PERFORMER "Michael Jackson"
INDEX 00 04:06:53
FILE "07 – Michael Jackson , I Just Can't Stop Loving You.wav" WAVE
INDEX 01 00:00:00
TRACK 08 AUDIO
TITLE "Michael Jackson / Man in the Mirror"
PERFORMER "Michael Jackson"
INDEX 00 04:11:42
FILE "08 – Michael Jackson , Man in the Mirror.wav" WAVE
INDEX 01 00:00:00
TRACK 09 AUDIO
TITLE "Michael Jackson / Thriller"
PERFORMER "Michael Jackson"
INDEX 00 05:19:17
FILE "09 – Michael Jackson , Thriller.wav" WAVE
INDEX 01 00:00:00
TRACK 10 AUDIO
TITLE "Michael Jackson / Beat It"
PERFORMER "Michael Jackson"
INDEX 00 05:57:08
FILE "10 – Michael Jackson , Beat It.wav" WAVE
INDEX 01 00:00:00
TRACK 11 AUDIO
TITLE "Michael Jackson / The Girl Is Mine"
PERFORMER "Michael Jackson"
INDEX 00 04:18:17
FILE "11 – Michael Jackson , The Girl Is Mine.wav" WAVE
INDEX 01 00:00:00
TRACK 12 AUDIO
TITLE "Michael Jackson / Remember the Time"
PERFORMER "Michael Jackson"
INDEX 00 03:41:38
FILE "12 – Michael Jackson , Remember the Time.wav" WAVE
INDEX 01 00:00:00
TRACK 13 AUDIO
TITLE "Michael Jackson / Don't Stop 'Til You Get Enough"
PERFORMER "Michael Jackson"
INDEX 00 03:59:18
FILE "13 – Michael Jackson , Don't Stop 'Til You Get Enough.wav" WAVE
INDEX 01 00:00:00
TRACK 14 AUDIO
TITLE "Michael Jackson / Wanna Be Startin' Somethin'"
PERFORMER "Michael Jackson"
INDEX 00 06:04:23
FILE "14 – Michael Jackson , Wanna Be Startin' Somethin'.wav" WAVE
INDEX 01 00:00:00
TRACK 15 AUDIO
TITLE "Michael Jackson / Heal the World"
PERFORMER "Michael Jackson"
INDEX 00 06:02:13
FILE "15 – Michael Jackson , Heal the World.wav" WAVE
INDEX 01 00:00:00
REM GENRE Pop
REM DATE 1995
REM DISCID E112180F
REM COMMENT "ExactAudioCopy v0.99pb3"
PERFORMER "Michael Jackson"
TITLE "HIStory"
FILE "01 – Michael Jackson , Scream (duet with Michael Jackson & Janet Jackson).wav" WAVE
TRACK 01 AUDIO
TITLE "Michael Jackson / Scream (duet with Michael Jackson & Janet Jackson)"
PERFORMER "Michael Jackson"
INDEX 01 00:00:00
FILE "02 – They Don't Care About Us.wav" WAVE
TRACK 02 AUDIO
TITLE "They Don't Care About Us"
PERFORMER "Michael Jackson"
INDEX 01 00:00:00
FILE "03 – Stranger In Moscow.wav" WAVE
TRACK 03 AUDIO
TITLE "Stranger In Moscow"
PERFORMER "Michael Jackson"
INDEX 01 00:00:00
FILE "04 – This Time Around.wav" WAVE
TRACK 04 AUDIO
TITLE "This Time Around"
PERFORMER "Michael Jackson"
INDEX 01 00:00:00
FILE "05 – Earth Song.wav" WAVE
TRACK 05 AUDIO
TITLE "Earth Song"
PERFORMER "Michael Jackson"
INDEX 01 00:00:00
FILE "06 – D.S..wav" WAVE
TRACK 06 AUDIO
TITLE "D.S."
PERFORMER "Michael Jackson"
INDEX 01 00:00:00
FILE "07 – Money.wav" WAVE
TRACK 07 AUDIO
TITLE "Money"
PERFORMER "Michael Jackson"
INDEX 01 00:00:00
FILE "08 – Come Together.wav" WAVE
TRACK 08 AUDIO
TITLE "Come Together"
PERFORMER "Michael Jackson"
INDEX 01 00:00:00
FILE "09 – You Are Not Alone.wav" WAVE
TRACK 09 AUDIO
TITLE "You Are Not Alone"
PERFORMER "Michael Jackson"
INDEX 01 00:00:00
FILE "10 – Childhood (theme from Free Willy 2).wav" WAVE
TRACK 10 AUDIO
TITLE "Childhood (theme from Free Willy 2)"
PERFORMER "Michael Jackson"
INDEX 01 00:00:00
TRACK 11 AUDIO
TITLE "Tabloid Junkie"
PERFORMER "Michael Jackson"
INDEX 00 04:27:20
FILE "11 – Tabloid Junkie.wav" WAVE
INDEX 01 00:00:00
FILE "12 – 2 Bad.wav" WAVE
TRACK 12 AUDIO
TITLE "2 Bad"
PERFORMER "Michael Jackson"
INDEX 01 00:00:00
FILE "13 – HIStory.wav" WAVE
TRACK 13 AUDIO
TITLE "HIStory"
PERFORMER "Michael Jackson"
INDEX 01 00:00:00
FILE "14 – Little Susie.wav" WAVE
TRACK 14 AUDIO
TITLE "Little Susie"
PERFORMER "Michael Jackson"
INDEX 01 00:00:00
FILE "15 – Smile.wav" WAVE
TRACK 15 AUDIO
TITLE "Smile"
PERFORMER "Michael Jackson"
INDEX 01 00:00:00
01. Unbreakable (6:27)
02. Heartbreaker (5:10)
03. Invincible (4:46)
04. Break Of Dawn (5:32)
05. Heaven Can Wait (4:50)
06. You Rock My World (5:39)
07. Butterflies (4:40)
08. Speechless (3:19)
09. 2000 Watts (4:25)
10. You Are My Life (4:34)
11. Privacy (5:05)
12. Don't Walk Away (4:25)
13. Cry (5:01)
14. The Lost Children (4:01)
15. Whatever Happens (4:57)
16. Threatened (4:18)
Exact Audio Copy V0.99 prebeta 3 from 28. July 2007

EAC extraction logfile from 21. November 2007, 5:13

Michael Jackson / Invincible

Used drive : BENQ DVD DD DW1640 Adapter: 0 ID: 1

Read mode : Secure
Utilize accurate stream : Yes
Defeat audio cache : Yes
Make use of C2 pointers : No

Read offset correction : 618
Overread into Lead-In and Lead-Out : No
Fill up missing offset samples with silence : Yes
Delete leading and trailing silent blocks : No
Null samples used in CRC calculations : Yes
Used interface : Native Win32 interface for Win NT & 2000
Gap handling : Appended to previous track

Used output format : User Defined Encoder
Selected bitrate : 320 kBit/s
Quality : High
Add ID3 tag : No
Command line compressor : E:\Program Files\FLAC\flac.exe
Additional command line options : -V -8 -T \"artist=%a\" -T \"title=%t\" -T \"album=%g\" -T \"date=%y\" -T \"tracknumber=%n\" -T \"genre=%m\" %s

TOC of the extracted CD

Track | Start | Length | Start sector | End sector
---------------------------------------------------------
1 | 0:00.00 | 6:26.70 | 0 | 29019
2 | 6:26.70 | 5:09.65 | 29020 | 52259
3 | 11:36.60 | 4:46.20 | 52260 | 73729
4 | 16:23.05 | 5:32.30 | 73730 | 98659
5 | 21:55.35 | 4:49.72 | 98660 | 120406
6 | 26:45.32 | 5:39.00 | 120407 | 145831
7 | 32:24.32 | 4:40.10 | 145832 | 166841
8 | 37:04.42 | 3:18.48 | 166842 | 181739
9 | 40:23.15 | 4:24.70 | 181740 | 201609
10 | 44:48.10 | 4:33.42 | 201610 | 222126
11 | 49:21.52 | 5:05.15 | 222127 | 245016
12 | 54:26.67 | 4:24.65 | 245017 | 264881
13 | 58:51.57 | 5:00.60 | 264882 | 287441
14 | 63:52.42 | 4:00.38 | 287442 | 305479
15 | 67:53.05 | 4:56.55 | 305480 | 327734
16 | 72:49.60 | 4:18.32 | 327735 | 347116

Track 1

Filename E:\Documents and Settings\Kev\Desktop\01 - Unbreakable.wav

Pre-gap length 0:00:02.00

Peak level 98.8 %
Track quality 100.0 %
Test CRC 20C00B5A
Copy CRC 20C00B5A
Accurately ripped (confidence 26) [983084BF]
Copy OK

Track 2

Filename E:\Documents and Settings\Kev\Desktop\02 - Heartbreaker.wav

Pre-gap length 0:00:02.65

Peak level 98.8 %
Track quality 100.0 %
Test CRC C0BBFC44
Copy CRC C0BBFC44
Accurately ripped (confidence 27) [073861D7]
Copy OK

Track 3

Filename E:\Documents and Settings\Kev\Desktop\03 - Invincible.wav

Pre-gap length 0:00:02.97

Peak level 98.8 %
Track quality 99.9 %
Test CRC 9DCE7040
Copy CRC 9DCE7040
Accurately ripped (confidence 27) [AA14C5E4]
Copy OK

Track 4

Filename E:\Documents and Settings\Kev\Desktop\04 - Break Of Dawn.wav

Pre-gap length 0:00:02.60

Peak level 98.8 %
Track quality 99.9 %
Test CRC 687266A9
Copy CRC 687266A9
Accurately ripped (confidence 27) [A91FA60D]
Copy OK

Track 5

Filename E:\Documents and Settings\Kev\Desktop\05 - Heaven Can Wait.wav

Pre-gap length 0:00:02.02

Peak level 98.8 %
Track quality 100.0 %
Test CRC AB8C8C2E
Copy CRC AB8C8C2E
Accurately ripped (confidence 26) [C201BC2C]
Copy OK

Track 6

Filename E:\Documents and Settings\Kev\Desktop\06 - You Rock My World.wav

Pre-gap length 0:00:02.66

Peak level 98.8 %
Track quality 100.0 %
Test CRC E3222171
Copy CRC E3222171
Accurately ripped (confidence 27) [6BD6050C]
Copy OK

Track 7

Filename E:\Documents and Settings\Kev\Desktop\07 - Butterflies.wav

Pre-gap length 0:00:02.09

Peak level 98.8 %
Track quality 100.0 %
Test CRC ADDBB57A
Copy CRC ADDBB57A
Accurately ripped (confidence 26) [DA097E2E]
Copy OK

Track 8

Filename E:\Documents and Settings\Kev\Desktop\08 - Speechless.wav

Pre-gap length 0:00:02.50

Peak level 98.8 %
Track quality 100.0 %
Test CRC 955FBCBD
Copy CRC 955FBCBD
Accurately ripped (confidence 26) [4D58905A]
Copy OK

Track 9

Filename E:\Documents and Settings\Kev\Desktop\09 - 2000 Watts.wav

Pre-gap length 0:00:02.82

Peak level 98.8 %
Track quality 100.0 %
Test CRC 8888F8A3
Copy CRC 8888F8A3
Accurately ripped (confidence 26) [4F0919DB]
Copy OK

Track 10

Filename E:\Documents and Settings\Kev\Desktop\10 - You Are My Life.wav

Pre-gap length 0:00:02.26

Peak level 98.8 %
Track quality 100.0 %
Test CRC C47D243E
Copy CRC C47D243E
Accurately ripped (confidence 26) [25C3D0ED]
Copy OK

Track 11

Filename E:\Documents and Settings\Kev\Desktop\11 - Privacy.wav

Pre-gap length 0:00:02.41

Peak level 98.8 %
Track quality 100.0 %
Test CRC 62E980CD
Copy CRC 62E980CD
Accurately ripped (confidence 27) [E84B3AA4]
Copy OK

Track 12

Filename E:\Documents and Settings\Kev\Desktop\12 - Don't Walk Away.wav

Pre-gap length 0:00:02.90

Peak level 98.8 %
Track quality 100.0 %
Test CRC 3C6CC325
Copy CRC 3C6CC325
Accurately ripped (confidence 26) [81891DB0]
Copy OK

Track 13

Filename E:\Documents and Settings\Kev\Desktop\13 - Cry.wav

Pre-gap length 0:00:02.26

Peak level 98.8 %
Track quality 100.0 %
Test CRC 9EFA259B
Copy CRC 9EFA259B
Accurately ripped (confidence 26) [B0194AD2]
Copy OK

Track 14

Filename E:\Documents and Settings\Kev\Desktop\14 - The Lost Children.wav

Pre-gap length 0:00:02.84

Peak level 98.8 %
Track quality 100.0 %
Test CRC BF5A2666
Copy CRC BF5A2666
Accurately ripped (confidence 26) [69407423]
Copy OK

Track 15

Filename E:\Documents and Settings\Kev\Desktop\15 - Whatever Happens.wav

Pre-gap length 0:00:03.69

Peak level 98.8 %
Track quality 100.0 %
Test CRC 70FF2372
Copy CRC 70FF2372
Accurately ripped (confidence 25) [418572F7]
Copy OK

Track 16

Filename E:\Documents and Settings\Kev\Desktop\16 - Threatened.wav

Pre-gap length 0:00:02.77

Peak level 98.8 %
Track quality 100.0 %
Test CRC 7AB2B1B0
Copy CRC 7AB2B1B0
Accurately ripped (confidence 25) [4D7A8243]
Copy OK

All tracks accurately ripped

No errors occurred

End of status report
REM GENRE Pop
REM DATE 2001
REM DISCID 01121410
REM COMMENT "ExactAudioCopy v0.99pb3"
PERFORMER "Michael Jackson"
TITLE "Invincible"
FILE "01 - Unbreakable.wav" WAVE
TRACK 01 AUDIO
TITLE "Unbreakable"
PERFORMER "Michael Jackson"
INDEX 01 00:00:00
TRACK 02 AUDIO
TITLE "Heartbreaker"
PERFORMER "Michael Jackson"
FLAGS DCP
INDEX 00 06:24:21
FILE "02 - Heartbreaker.wav" WAVE
INDEX 01 00:00:00
TRACK 03 AUDIO
TITLE "Invincible"
PERFORMER "Michael Jackson"
FLAGS DCP
INDEX 00 05:06:67
FILE "03 - Invincible.wav" WAVE
INDEX 01 00:00:00
TRACK 04 AUDIO
TITLE "Break Of Dawn"
PERFORMER "Michael Jackson"
FLAGS DCP
INDEX 00 04:43:50
FILE "04 - Break Of Dawn.wav" WAVE
INDEX 01 00:00:00
TRACK 05 AUDIO
TITLE "Heaven Can Wait"
PERFORMER "Michael Jackson"
FLAGS DCP
INDEX 00 05:30:28
FILE "05 - Heaven Can Wait.wav" WAVE
INDEX 01 00:00:00
TRACK 06 AUDIO
TITLE "You Rock My World"
PERFORMER "Michael Jackson"
FLAGS DCP
INDEX 00 04:47:22
FILE "06 - You Rock My World.wav" WAVE
INDEX 01 00:00:00
TRACK 07 AUDIO
TITLE "Butterflies"
PERFORMER "Michael Jackson"
FLAGS DCP
INDEX 00 05:36:68
FILE "07 - Butterflies.wav" WAVE
INDEX 01 00:00:00
TRACK 08 AUDIO
TITLE "Speechless"
PERFORMER "Michael Jackson"
FLAGS DCP
INDEX 00 04:37:47
FILE "08 - Speechless.wav" WAVE
INDEX 01 00:00:00
TRACK 09 AUDIO
TITLE "2000 Watts"
PERFORMER "Michael Jackson"
FLAGS DCP
INDEX 00 03:15:61
FILE "09 - 2000 Watts.wav" WAVE
INDEX 01 00:00:00
TRACK 10 AUDIO
TITLE "You Are My Life"
PERFORMER "Michael Jackson"
FLAGS DCP
INDEX 00 04:22:50
FILE "10 - You Are My Life.wav" WAVE
INDEX 01 00:00:00
TRACK 11 AUDIO
TITLE "Privacy"
PERFORMER "Michael Jackson"
FLAGS DCP
INDEX 00 04:31:11
FILE "11 - Privacy.wav" WAVE
INDEX 01 00:00:00
TRACK 12 AUDIO
TITLE "Don't Walk Away"
PERFORMER "Michael Jackson"
FLAGS DCP
INDEX 00 05:02:22
FILE "12 - Don't Walk Away.wav" WAVE
INDEX 01 00:00:00
TRACK 13 AUDIO
TITLE "Cry"
PERFORMER "Michael Jackson"
FLAGS DCP
INDEX 00 04:22:45
FILE "13 - Cry.wav" WAVE
INDEX 01 00:00:00
TRACK 14 AUDIO
TITLE "The Lost Children"
PERFORMER "Michael Jackson"
FLAGS DCP
INDEX 00 04:57:72
FILE "14 - The Lost Children.wav" WAVE
INDEX 01 00:00:00
TRACK 15 AUDIO
TITLE "Whatever Happens"
PERFORMER "Michael Jackson"
FLAGS DCP
INDEX 00 03:56:61
FILE "15 - Whatever Happens.wav" WAVE
INDEX 01 00:00:00
TRACK 16 AUDIO
TITLE "Threatened"
PERFORMER "Michael Jackson"
FLAGS DCP
INDEX 00 04:53:72
FILE "16 - Threatened.wav" WAVE
INDEX 01 00:00:00
info [Профиль]  [ЛС] 

post 10-Июл-2010 20:07 (спустя 11 минут) [-]0[+]

Топик был перенесен из форума Оформление раздач в форум Зарубежная Поп-музыка (lossless)

Oneguns
 

ksyukaksyu

Пол: Пол:Жен

Стаж: 6 лет 8 месяцев

Сообщений: 116

Россия
Рейтинг

post 11-Июл-2010 23:51 (спустя 1 день 3 часа) [-]0[+]

[Цитировать] 

дискография не полная
советую добавить альбом 2008 года "7even" (seven)
info [Профиль]  [ЛС] 

SilenT

Пол: Пол:Муж

Стаж: 7 лет 8 месяцев

Сообщений: 22

Россия
Рейтинг

post 12-Июл-2010 01:10 (спустя 1 час 18 минут) [-]0[+]

[Цитировать] 

KsyuK писал(а):

дискография не полная
советую добавить альбом 2008 года "7even" (seven)
Это фэйковый альбом .
info [Профиль]  [ЛС] 

Resistance

Пол: Пол:Муж

Стаж: 7 лет 2 месяца

Сообщений: 3639

Россия
Рейтинг

post 12-Июл-2010 09:17 (спустя 8 часов) [-]0[+]

[Цитировать] 

KsyuK
Внимательно прочитайте в википедии статью и на офф сайте.
info [Профиль]  [ЛС] 

Apo1lo

Пол: Пол:Муж

Стаж: 6 лет 1 месяц

Сообщений: 205

Россия
Рейтинг

post 07-Июл-2011 19:14 (спустя 11 месяцев 26 дней) [-]0[+]

[Цитировать] 

Сииидеерыы, вееерниитесь!!
info [Профиль]  [ЛС] 

Rusandel

Стаж: 6 лет 9 месяцев

Сообщений: 49

Россия
Рейтинг

post 08-Янв-2012 12:10 (спустя 6 месяцев) [-]0[+]

[Цитировать] 

Раздайте,плиз!!!!

_________________
info [Профиль]  [ЛС] 

GsmartMS800

Пол: Пол:Муж

Стаж: 6 лет 11 месяцев

Сообщений: 147

Россия
Рейтинг

post 23-Фев-2012 12:14 (спустя 1 месяц 15 дней) [-]0[+]

[Цитировать] 

Почему здесь нету "Blood on the Dancefloor"?

_________________
Intel Core i7™ 2600K 4.4Ghz / Zalman 9900MAX / Asus P8Z68-V LX (3.x) / DDR3 1600Mhz 16Gb (4x4Gb) Corsair / MSI N580GTX-Twin Frozr ll OC 1.5Gb / SSD A-Data 60Gb SATA III HDD 4Tb (2000+1500+500Gb) / 700Вт GIGABYTE ODIN Plus 700 / 27" Samsung SyncMaster SA550 / Windows 8 Pro with WMC
info [Профиль]  [ЛС] 

asphodel07

Пол: Пол:Муж

Стаж: 7 лет 5 месяцев

Сообщений: 28

Предупреждений: 1

Россия
Рейтинг

post 26-Дек-2013 06:29 (спустя 1 год 10 месяцев) [-]0[+]

[Цитировать] 

Спасибо большое! Так держать.

добавлено спустя 38 минут 3 секунды:

Resistance

Здравствуйте! Они не возвращаются! Чтобы я не делал (рисовал пинтограммы и взывал к ввысшей
справедливости, танцевал на льду в гольфах (с 12-00 по 12-30 МСК каждый день, на лестнице
высотного здания без отопления). После того, как я узнал о кнопке позвать всех , я

решился написать вам (надеюсь я доживу до вашего ответа, а то гольфы прохудились и я чувствую,

что слишком много уделяю внимания своим гольфам и совершенно не думаю о своей гангрене).

Моя история вас, наверное , тронула и вам не стоит так сдерживать слезы, я вас не понимаю и
никогда не пойму! Пожайлуста, встаньте на раздачу! Нда... от самого себя тошно.
info [Профиль]  [ЛС] 

g0shezz

Пол: Пол:Муж

Стаж: 7 лет 1 месяц

Сообщений: 130

Россия
Рейтинг

post 10-Июн-2014 01:50 (спустя 5 месяцев 14 дней) [-]0[+]

[Цитировать] 

Оооо, благодарю! Поймал себя на мысли, что надоела вся музыка записанная в контакте - который только для прослушивания её использовал...но тут вспомнил, что есть бессмертные хиты Джексона, но их сложно найти в оригинале, особенно в хорошем качестве! Так что огромное спасибо!

Даже мой дед - оперный певец, педагог подготовивший множество учеников, выступавших даже на мировых конкурсах, отметил из всей музыки, которую я любил слушать(поп, рок, рнб и т.д.) только Джексона, как образец вокала! Смеюсь
info [Профиль]  [ЛС] 

JozhinSky

Пол: Пол:Муж

Стаж: 3 года 7 месяцев

Сообщений: 123

Предупреждений: 1

Россия
Рейтинг

post 18-Дек-2015 19:04 (спустя 1 год 6 месяцев) [-]0[+]

[Цитировать] 

Доброго всем времени суток. Будьте добры, встаньте пожалуйста на раздачу?

_________________
info [Профиль]  [ЛС] 

Timberland

Пол: Пол:Муж

Стаж: 7 лет 8 месяцев

Сообщений: 23

Украина
Рейтинг

post 30-Дек-2015 02:44 (спустя 11 дней) [-]0[+]

[Цитировать] 

всем привет вернитесь кто может на раздачу помогу с раздачаей

_________________
info [Профиль]  [ЛС] 
Показать сообщения:    
Ответить на тему

Текущее время: 09-Дек 07:59

Часовой пояс: GMT + 4



Вы не можете начинать темы
Вы не можете отвечать на сообщения
Вы не можете редактировать свои сообщения
Вы не можете удалять свои сообщения
Вы не можете голосовать в опросах
Вы не можете прикреплять файлы к сообщениям
Вы не можете скачивать файлы