Ошибка

Sonisphere Festival 2010 - The Big 4 - Metallica, Slayer, Megadeth, Anthrax [2010 г., Thrash Metal, HDTVRip 720р]

Ответить на тему
 
Автор Сообщение

ТарасЪ

Пол: Пол:Муж

Стаж: 7 лет 5 месяцев

Сообщений: 1766

Россия
Рейтинг

post 29-Июн-2010 00:52 0[+]

[Цитировать] 

Sonisphere Festival 2010 - The Big 4 - Metallica, Slayer, Megadeth, Anthrax

Год выпуска: 2010
Жанр: Thrash Metal
Происхождение исполнителя: USA
Продолжительность: 03:52:59
Описание: Sonisphere Festival 2010 - The Big 4 22 июня в Болгарии состоялось горячее музыкальное событие лета - фестиваль Sofia Rocks powered by Sonisphere, который собрал на одной сцене гигантов трэш-метала. Большая четверка thrash metal (The Big Four) - группы Anthrax, Megadeth , Slayer, и Metallica. Концерт в прямом эфире транслировался в 800 кинотеатрах по всему миру.
Происхождение видео: HDTVRip 720р
Формат: MKV
Видео кодек: H.264
Данные видео: 1280x720, 25.000 fps, ~4469 kbps
Аудио кодек: AC3
Данные аудио: AC3, 48.0 KHz, 5.1 ch, ~448 kbps
HDTVRip
ANTHRAX
01. Caught in a Mosh
02. Got the Time (Joe Jackson cover)
03. Madhouse
04. Antisocial (Trust cover)
06. Indians
07. Metal Thrashing Mad
08. I Am The Law
MEGADETH
01. Holy Wars... the Punishment Due
02. Hangar 18
03. Headcrusher
04. In My Darkest Hour
05. Skin O' My Teeth
06. Hook In Mouth
07. Sweating Bullets
08. Symphony Of Destruction
09. Peace Sells
SLAYER
01. World Painted Blood
02. War Ensemble
03. Hate Worldwide
04. Dead Skin Mask
05. Angel of Death
06. Mandatory Suicide
07. Chemical Warfare
08. South of Heaven
09. Raining Blood
METALLICA
01. Creeping Death
02. For Whom The Bell Tolls
03. Harvester Of Sorrow
04. Fade To Black
05. Cyanide
06. One
07. Master Of Puppets
08. Nothing Else Matters
09. Enter Sandman
Encore:
16. Am I Evil? (Anthrax, Megadeth, Metallica)
17. Hit The Lights
18. Seek & Destroy

Код:

General
Complete name                    : *\The.BiG.4.Metallica.Slayer.Megadeth.Anthrax.Live.in.Sofia.2010.720p.HDTV.x264.DD5.1-MMJ.mkv
Format                           : Matroska
File size                        : 8.01 GiB
Duration                         : 3h 52mn
Overall bit rate                 : 4 919 Kbps
Encoded date                     : UTC 2010-06-23 12:30:03
Writing application              : mkvmerge v4.0.0 ('The Stars were mine') built on Jun  6 2010 16:18:42
Writing library                  : libebml v1.0.0 + libmatroska v1.0.0
Video
ID                               : 1
Format                           : AVC
Format/Info                      : Advanced Video Codec
Format profile                   : High@L3.1
Format settings, CABAC           : Yes
Format settings, ReFrames        : 4 frames
Muxing mode                      : Container profile=Unknown@3.1
Codec ID                         : V_MPEG4/ISO/AVC
Duration                         : 3h 52mn
Bit rate                         : 4 469 Kbps
Width                            : 1 280 pixels
Height                           : 720 pixels
Display aspect ratio             : 16:9
Frame rate                       : 25.000 fps
Color space                      : YUV
Chroma subsampling               : 4:2:0
Bit depth                        : 8 bits
Scan type                        : Progressive
Bits/(Pixel*Frame)               : 0.194
Stream size                      : 7.12 GiB (89%)
Writing library                  : x264 core 98 r1649 20cbe10
Encoding settings                : cabac=1 / ref=3 / deblock=1:0:0 / analyse=0x3:0x113 / me=hex / subme=7 / psy=1 / psy_rd=1.00:0.00 / mixed_ref=1 / me_range=16 / chroma_me=1 / trellis=1 / 8x8dct=1 / cqm=0 / deadzone=21,11 / fast_pskip=1 / chroma_qp_offset=-2 / threads=6 / sliced_threads=0 / nr=0 / decimate=1 / interlaced=0 / constrained_intra=0 / bframes=3 / b_pyramid=2 / b_adapt=1 / b_bias=0 / direct=1 / weightb=1 / weightp=2 / keyint=250 / keyint_min=25 / scenecut=40 / intra_refresh=0 / rc_lookahead=40 / rc=2pass / mbtree=1 / bitrate=4469 / ratetol=1.0 / qcomp=0.60 / qpmin=10 / qpmax=51 / qpstep=4 / cplxblur=20.0 / qblur=0.5 / ip_ratio=1.40 / aq=1:1.00
Audio
ID                               : 2
Format                           : AC-3
Format/Info                      : Audio Coding 3
Mode extension                   : CM (complete main)
Codec ID                         : A_AC3
Duration                         : 3h 52mn
Bit rate mode                    : Constant
Bit rate                         : 448 Kbps
Channel(s)                       : 6 channels
Channel positions                : Front: L C R, Side: L R, LFE
Sampling rate                    : 48.0 KHz
Stream size                      : 747 MiB (9%)
info [Профиль]  [ЛС] 

maggotfanxxx1

Пол: Пол:Муж

Стаж: 6 лет 11 месяцев

Сообщений: 63

Предупреждений: 1

Украина
Рейтинг

post 29-Июн-2010 18:52 (спустя 17 часов) [-]0[+]

[Цитировать] 

вау афигеть это очень круто!!!!
info [Профиль]  [ЛС] 

A1Lexa46

Пол: Пол:Муж

Стаж: 7 лет 2 месяца

Сообщений: 4

Россия
Рейтинг

post 29-Июн-2010 22:01 (спустя 3 часа) [-]0[+]

[Цитировать] 

Скорости пжлст
info [Профиль]  [ЛС] 

rurik1972

Пол: Пол:Муж

Стаж: 6 лет 8 месяцев

Сообщений: 52

Эстония
Рейтинг

post 29-Июн-2010 22:03 (спустя 2 минуты) [-]0[+]

[Цитировать] 

спасибо,круто!!
info [Профиль]  [ЛС] 

ТарасЪ

Пол: Пол:Муж

Стаж: 7 лет 5 месяцев

Сообщений: 1766

Россия
Рейтинг

post 01-Июл-2010 09:38 (спустя 1 день 11 часов) [-]0[+]

[Цитировать] 

Позолотил на правах Power User'a

_________________
info [Профиль]  [ЛС] 

Benzovorona

Пол: Пол:Жен

Стаж: 6 лет 9 месяцев

Сообщений: 161

Россия
Рейтинг

post 03-Июл-2010 19:26 (спустя 2 дня 9 часов) [-]0[+]

[Цитировать] 

возьму
info [Профиль]  [ЛС] 

maafakka

Пол: Пол:Муж

Стаж: 5 лет 5 месяцев

Сообщений: 2

Предупреждений: 1

Россия
Рейтинг

post 03-Июл-2011 13:01 (спустя 11 месяцев) [-]0[+]

[Цитировать] 

Лююююди, дайте докачать, остался 1 процент - а доступности нету!!!!
info [Профиль]  [ЛС] 
Показать сообщения:    
Ответить на тему

Текущее время: 11-Дек 02:32

Часовой пояс: GMT + 4



Вы не можете начинать темы
Вы не можете отвечать на сообщения
Вы не можете редактировать свои сообщения
Вы не можете удалять свои сообщения
Вы не можете голосовать в опросах
Вы не можете прикреплять файлы к сообщениям
Вы не можете скачивать файлы