Ошибка

Трудно быть Богом / Spin (Джеймин Винанс)[2005, Dance & DJ, DVDRip]

Ответить на тему
 
Автор Сообщение

GODMASK

Пол: Пол:Муж

Стаж: 6 лет 9 месяцев

Сообщений: 402

Украина
Рейтинг

post 08-Апр-2010 12:59 0[+]

[Цитировать] 

Трудно быть Богом / Spin

Год выпуска: 2005
Жанр: Dance & DJ
Происхождение исполнителя: США
Продолжительность: 00:07:33

Режиссер:
  • Джеймин Винанс
В ролях:
  • Рэймонд Эндрю Бэйли, Сизар Беджарано, Брэндон Каррильо, Трой Гарнер, Джейми Гестон, Гэйл Гроув, Jonny Hayz II, Меган Хеффернан, Kerry Knuppe, Pooch
Треклист:
1.Трудно быть Богом / Spin
Описание: Рассказ о судьбе, о предрешённости и одновременно — о непредсказуемости жизни. Некое человекообразное существо падает сверху в проулок. У него чёткая миссия — исправить глупую случайность, которую исправить не возможно. Но, изменив одно, он понимает, что невольно меняет и другое….
Происхождение видео: DVDRip
Формат: AVI
Видео кодек: XviD
Данные видео: 640 х 480, 25.000 fps, 768 Kbps
Аудио кодек: MP3
Данные аудио: 2 channels, 32.0 Kbps, 44.1 KHz
Format : AVI
Format/Info : Audio Video Interleave
File size : 48.8 MiB
Duration : 7mn 33s
Overall bit rate : 902 Kbps
Writing application : MEncoder Sherpya-SVN-r30075-4.2.5
Writing library : MPlayer
Video
Format : MPEG-4 Visual
Format profile : Simple@L3
Format settings, BVOP : No
Format settings, QPel : No
Format settings, GMC : No warppoints
Format settings, Matrix : Default
Codec ID : XVID
Codec ID/Hint : XviD
Duration : 7mn 33s
Bit rate : 768 Kbps
Width : 640 pixels
Height : 480 pixels
Display aspect ratio : 4/3
Frame rate : 25.000 fps
Resolution : 24 bits
Colorimetry : 4:2:0
Scan type : Progressive
Bits/(Pixel*Frame) : 0.100
Stream size : 41.5 MiB (85%)
Writing library : XviD 50
Audio
Format : MPEG Audio
Format version : Version 1
Format profile : Layer 3
Codec ID : 55
Codec ID/Hint : MP3
Duration : 7mn 33s
Bit rate mode : Constant
Bit rate : 32.0 Kbps
Channel(s) : 2 channels
Sampling rate : 44.1 KHz
Resolution : 16 bits
Stream size : 6.56 MiB (13%)
Alignment : Aligned on interleaves
Interleave, duration : 26 ms (0.65 video frame)
Interleave, preload duration : 1120 ms
Writing library : LAME3.98.2
info [Профиль]  [ЛС] 

Solomon2302

Пол: Пол:Муж

Стаж: 7 лет 8 месяцев

Сообщений: 367

Россия
Рейтинг

post 08-Апр-2010 21:57 (спустя 8 часов) [-]0[+]

[Цитировать] 

GODMASK
Если вы посчитали это клипом, то оформите по шаблону музыкального видео и я заберу раздачу в раздел Музыкального видео.
info [Профиль]  [ЛС] 

post 08-Апр-2010 23:32 (спустя 1 час 35 минут) [-]0[+]

Топик был перенесен из форума Оформление раздач (Кинематограф) в форум Оформление раздач (Музыка и Музыкальное видео)

GODMASK
 

post 09-Апр-2010 22:59 (спустя 1 день 1 час) [-]0[+]

Топик был перенесен из форума Оформление раздач (Музыка и Музыкальное видео) в форум Электронная музыка (video)

Solomon2302
 

Alex for Life

Пол: Пол:Муж

Стаж: 6 лет 8 месяцев

Сообщений: 19

Украина
Рейтинг

post 09-Апр-2010 23:40 (спустя 1 день 1 час) [-]0[+]

[Цитировать] 

у меня ето видео есть ВКонтакте )))
Видео супер ,ненаю как вам мне оч понравилось !))))

Сам Диджей.....люблю ето видео ) Класс =)

_________________
info [Профиль]  [ЛС] 
Показать сообщения:    
Ответить на тему

Текущее время: 04-Дек 12:20

Часовой пояс: GMT + 4



Вы не можете начинать темы
Вы не можете отвечать на сообщения
Вы не можете редактировать свои сообщения
Вы не можете удалять свои сообщения
Вы не можете голосовать в опросах
Вы не можете прикреплять файлы к сообщениям
Вы не можете скачивать файлы