Ошибка

(Pop, Dance) Thomas Anders - Strong (подарочное издание Oriflame) - 2010, flac, lossless

Ответить на тему
 
Автор Сообщение

Xatr

Пол: Пол:Муж

Стаж: 6 лет 11 месяцев

Сообщений: 94

Австралия
Рейтинг

post 22-Мар-2010 04:51 0[+]

[Цитировать] 

Thomas Anders - Strong (подарочное издание Oriflame)

Жанр: Pop, Dance
Год издания данного носителя: 2010
Страна-производитель носителя: EU
Тип релиза: image+.cue
Аудио кодек: FLAC
Битрейт аудио: lossless
Продолжительность: 35 : 33

Треклист:
01. Why do you Cry 3:46
02. Make you 3:35
03. Stay with me 3:57
04. Suddenly 3:28
05. Stop 3:46
06. You will be mine 3:58
07. Music Dance 3:57
08. One more chance 3:42
09. Clear Sigh 4:10
10. I Miss you 3:56

Код:

 
Exact Audio Copy V0.99 prebeta 5 from 4. May 2009

Отчёт EAC об извлечении, выполненном 22. марта 2010, 1:58

Thomas Anders / Strong

Дисковод: ASUS    DRW-1814BL   Adapter: 1  ID: 0

Режим чтения                 : Достоверность
Использование точного потока : Да
Отключение кэша аудио        : Да
Использование указателей C2  : Нет

Коррекция смещения при чтении                     : 6
Способность читать области Lead-in и Lead-out     : Нет
Заполнение пропущенных сэмплов тишиной            : Да
Удаление блоков с тишиной в начале и конце        : Нет
При вычислениях CRC использовались нулевые сэмплы : Да
Интерфейс                                         : Встроенный Win32-интерфейс для Win NT/2000

Выходной формат          : Пользовательский кодировщик
Выбранный битрейт        : 768 kBit/s
Качество                 : Высокий
Добавление ID3-тэга      : Нет
Утилита сжатия           : C:\Program Files (x86)\Exact Audio Copy\FLAC\FLAC.EXE
Дополнительные параметры : -6 -V -T "ARTIST=%a" -T "TITLE=%t" -T "ALBUM=%g" -T "DATE=%y" -T "TRACKNUMBER=%n" -T "GENRE=%m" -T "COMMENT=%e" %s -o %d

TOC извлечённого CD

     Трек |   Старт  | Длительность | Начальный сектор | Конечный сектор
    ---------------------------------------------------------------------
       1  |  0:00.00 |    3:40.04   |           0      |      16503     
       2  |  3:40.04 |    3:34.70   |       16504      |      32623     
       3  |  7:14.74 |    3:56.64   |       32624      |      50387     
       4  | 11:11.63 |    3:24.20   |       50388      |      65707     
       5  | 14:36.08 |    3:09.28   |       65708      |      79910     
       6  | 17:45.36 |    4:06.55   |       79911      |      98415     
       7  | 21:52.16 |    3:25.16   |       98416      |     113806     
       8  | 25:17.32 |    3:39.04   |      113807      |     130235     
       9  | 28:56.36 |    3:26.72   |      130236      |     145757     
      10  | 32:23.33 |    3:34.22   |      145758      |     161829     

Характеристики диапазона извлечения и сообщения об ошибках

Выбранный диапазон

     Имя файла C:\Новая папка\Thomas Anders - Strong.wav

     Пиковый уровень 94.0 %
     Качество диапазона 99.9 %
     CRC теста B574BA40
     CRC копии B574BA40
     Копирование... OK

Ошибок не произошло

Конец отчёта

Код:

 
REM GENRE Pop
REM DATE 2010
REM DISCID 89086D0A
REM COMMENT "ExactAudioCopy v0.99pb5"
PERFORMER "Thomas Anders"
TITLE "Strong"
FILE "Thomas Anders - Strong.flac" WAVE
  TRACK 01 AUDIO
    TITLE "Why do you cry"
    PERFORMER "Thomas Anders"
    INDEX 01 00:00:00
  TRACK 02 AUDIO
    TITLE "Make you"
    PERFORMER "Thomas Anders"
    INDEX 00 00:03:65
    INDEX 01 03:40:04
  TRACK 03 AUDIO
    TITLE "Stay with me"
    PERFORMER "Thomas Anders"
    INDEX 00 03:43:69
    INDEX 01 07:14:74
  TRACK 04 AUDIO
    TITLE "Suddenly"
    PERFORMER "Thomas Anders"
    INDEX 00 07:18:64
    INDEX 01 11:11:63
  TRACK 05 AUDIO
    TITLE "Stop"
    PERFORMER "Thomas Anders"
    INDEX 00 11:15:53
    INDEX 01 14:36:08
  TRACK 06 AUDIO
    TITLE "You will be mine"
    PERFORMER "Thomas Anders"
    INDEX 00 14:39:73
    INDEX 01 17:45:36
  TRACK 07 AUDIO
    TITLE "Music Dance"
    PERFORMER "Thomas Anders"
    INDEX 00 17:49:26
    INDEX 01 21:52:16
  TRACK 08 AUDIO
    TITLE "One more Chance"
    PERFORMER "Thomas Anders"
    INDEX 00 21:56:06
    INDEX 01 25:17:32
  TRACK 09 AUDIO
    TITLE "Clear Sigh"
    PERFORMER "Thomas Anders"
    INDEX 00 25:21:22
    INDEX 01 28:56:36
  TRACK 10 AUDIO
    TITLE "I Miss You"
    PERFORMER "Thomas Anders"
    INDEX 00 29:00:26
    INDEX 01 32:23:33
mp3 версия альбома
info [Профиль]  [ЛС] 

Попрыгун

Пол: Пол:Муж

Стаж: 7 лет 8 месяцев

Сообщений: 602

Рейтинг

post 22-Мар-2010 17:15 (спустя 12 часов) [-]0[+]

[Цитировать] 

добавьте лог извлечения в раздачу
info [Профиль]  [ЛС] 

Xatr

Пол: Пол:Муж

Стаж: 6 лет 11 месяцев

Сообщений: 94

Австралия
Рейтинг

post 22-Мар-2010 17:49 (спустя 34 минуты) [-]0[+]

[Цитировать] 

log прицепил.
Могу ещё в mp3 формате выложить, если надо
Нужно для mp3 новую тему создавать или можно в эту добавить?
info [Профиль]  [ЛС] 

FantasticMrFox

Пол: Пол:Муж

Стаж: 7 лет 8 месяцев

Сообщений: 631

Россия
Рейтинг

post 22-Мар-2010 23:18 (спустя 5 часов) [-]0[+]

[Цитировать] 

Xatr писал(а):

Нужно для mp3 новую тему создавать или можно в эту добавить?
Только новую в соответствующем подразделе.
info [Профиль]  [ЛС] 

Solomon2302

Пол: Пол:Муж

Стаж: 7 лет 8 месяцев

Сообщений: 367

Россия
Рейтинг

post 23-Мар-2010 00:51 (спустя 1 час 33 минуты) [-]0[+]

[Цитировать] 

Бггг.... а у меня дома диск лежит))) Это не я!
info [Профиль]  [ЛС] 

YuriY83

Предупреждений: 1

Рейтинг

post 25-Апр-2010 22:21 (спустя 1 месяц 3 дня) [-]0[+]

[Цитировать] 

Тема, мелодии и песенки мелодичные. Через 7.2 просто супер.
 

Xatr

Пол: Пол:Муж

Стаж: 6 лет 11 месяцев

Сообщений: 94

Австралия
Рейтинг

post 27-Авг-2012 22:44 (спустя 2 года 4 месяца) [-]0[+]

[Цитировать] 

Сдох у меня винчестер с этой раздачей.
Могу сриповать 100% копию, если кому нужно. Диск ещё остался...
info [Профиль]  [ЛС] 
Показать сообщения:    
Ответить на тему

Текущее время: 08-Дек 20:09

Часовой пояс: GMT + 4



Вы не можете начинать темы
Вы не можете отвечать на сообщения
Вы не можете редактировать свои сообщения
Вы не можете удалять свои сообщения
Вы не можете голосовать в опросах
Вы не можете прикреплять файлы к сообщениям
Вы не можете скачивать файлы