Ошибка

Eminem - Lose Yourself (VIVA HD) [2002, Hip-Hop, HDTV 1080i]

Ответить на тему
 
Автор Сообщение

F.A.N.T.O.M

Пол: Пол:Муж

Стаж: 6 месяцев 27 дней

Сообщений: 484

Россия
Рейтинг

post 29-Июн-2024 01:14 1[+]

[Цитировать] 

Eminem - Lose Yourself

Жанр: Hip-Hop
Продолжительность: 00:05:17
Год выпуска: 2002
Качество: HDTV 1080i
Контейнер: TS
Видео кодек: H.264
Аудио кодек: MP2, AC3
Видео: AVC, 1920x1080, 8064 Kbps, 25.000 fps
Аудио: MP2, 256 Kbps, 2 channels, 48.0 KHz
Аудио 2: AC3, 192 Kbps, 6 channels, 48.0 KHz
 
General
ID : 95 (0x5F)
Complete name : Eminem - Lose Yourself (VIVA HD 1080i - Djodjara).ts
Format : MPEG-TS
File size : 339 MiB
Duration : 5mn 17s
Overall bit rate mode : Variable
Overall bit rate : 8 959 Kbps

Video
ID : 528 (0x210)
Menu ID : 9067 (0x236B)
Format : AVC
Format/Info : Advanced Video Codec
Format profile : High@L4.0
Format settings, CABAC : Yes
Format settings, ReFrames : 3 frames
Format settings, GOP : M=4, N=24
Codec ID : 27
Duration : 5mn 17s
Bit rate : 8 064 Kbps
Width : 1 920 pixels
Height : 1 080 pixels
Display aspect ratio : 16:9
Frame rate : 25.000 fps
Standard : Component
Color space : YUV
Chroma subsampling : 4:2:0
Bit depth : 8 bits
Scan type : Interlaced
Scan order : Top Field First
Bits/(Pixel*Frame) : 0.156
Stream size : 305 MiB (90%)
Color primaries : BT.709
Transfer characteristics : BT.709
Matrix coefficients : BT.709

Audio #1
ID : 529 (0x211)
Menu ID : 9067 (0x236B)
Format : MPEG Audio
Format version : Version 1
Format profile : Layer 2
Codec ID : 4
Duration : 5mn 17s
Bit rate mode : Constant
Bit rate : 256 Kbps
Channel(s) : 2 channels
Sampling rate : 48.0 KHz
Compression mode : Lossy
Delay relative to video : 112ms
Stream size : 9.69 MiB (3%)
Language : German

Audio #2
ID : 539 (0x21B)
Menu ID : 9067 (0x236B)
Format : AC-3
Format/Info : Audio Coding 3
Mode extension : HI (hearing impaired)
Format settings, Endianness : Big
Codec ID : 6
Duration : 5mn 17s
Bit rate mode : Constant
Bit rate : 192 Kbps
Channel(s) : 2 channels
Channel positions : Front: L R
Sampling rate : 48.0 KHz
Bit depth : 16 bits
Compression mode : Lossy
Delay relative to video : 148ms
Stream size : 7.26 MiB (2%)
Language : German

info [Профиль]  [ЛС] 
Показать сообщения:    
Ответить на тему

Текущее время: 18-Июл 02:20

Часовой пояс: GMT + 4



Вы не можете начинать темы
Вы не можете отвечать на сообщения
Вы не можете редактировать свои сообщения
Вы не можете удалять свои сообщения
Вы не можете голосовать в опросах
Вы не можете прикреплять файлы к сообщениям
Вы не можете скачивать файлы