·

(Rap, Hip-Hop) [CD] DMX - (7 ) - 1998-2021, FLAC (tracks+.cue), lossless

 

F.A.N.T.O.M

: :

: 6 21

: 475


post 24--2024 23:15 1[+]

[] 

DMX -
: Rap, Hip-Hop | : CD | - : EU, Japan | : Baltimore, Maryland, U.S. | : FLAC | : lossless | -: EAC ()
: 07:21:51 | (): | :

Albums

(): Def Jam Recordings, Ruff Ryders
: 558 227-2
: 01:05:20


:
01. Intro (04:10)
02. Ruff Ryders Anthem (03:34)
03. Fuckin Wit D (02:18)
04. The Storm (Skit) (00:58)
05. Look Thru My Eyes (03:53)
06. Get At Me Dog (Feat. Sheek From The Lox) (04:03)
07. Let Me Fly (04:13)
08. X‐Is Coming (04:19)
09. Damien (03:42)
10. Hows It Goin Down (04:43)
11. Mickey (Skit) (00:25)
12. Crime Story (03:48)
13. Stop Being Greedy (03:37)
14. ATF (01:56)
15. For My Dogs (Feat. Big Stan, Loose, Kasino, Dragon) (04:12)
16. I Can Feel It (04:13)
17. Prayer (Skit) (02:32)
18. The Convo (03:34)
19. Niggaz Done Started Something (Feat. The Lox, Mase) (05:10)
 
REM GENRE Rap
REM DATE 1998
REM DISCID 080F4F13
REM COMMENT "ExactAudioCopy v1.6"
PERFORMER "DMX"
TITLE "It's Dark And Hell Is Hot"
REM COMPOSER ""
FILE "01. Intro.wav" WAVE
TRACK 01 AUDIO
TITLE "Intro"
PERFORMER "DMX"
REM COMPOSER "Irv Gotti"
INDEX 01 00:00:00
FILE "02. Ruff Ryders Anthem.wav" WAVE
TRACK 02 AUDIO
TITLE "Ruff Ryders Anthem"
PERFORMER "DMX"
REM COMPOSER "Swizz Beatz"
INDEX 01 00:00:00
FILE "03. Fuckin Wit D.wav" WAVE
TRACK 03 AUDIO
TITLE "Fuckin Wit D"
PERFORMER "DMX"
REM COMPOSER "P Killer Trackz, Dame Grease"
INDEX 01 00:00:00
FILE "04. The Storm (Skit).wav" WAVE
TRACK 04 AUDIO
TITLE "The Storm (Skit)"
PERFORMER "DMX"
REM COMPOSER "Dame Grease"
INDEX 01 00:00:00
FILE "05. Look Thru My Eyes.wav" WAVE
TRACK 05 AUDIO
TITLE "Look Thru My Eyes"
PERFORMER "DMX"
REM COMPOSER "Dame Grease, P Killer Trackz"
INDEX 01 00:00:00
FILE "06. Get At Me Dog (Feat. Sheek From The Lox).wav" WAVE
TRACK 06 AUDIO
TITLE "Get At Me Dog (Feat. Sheek From The Lox)"
PERFORMER "DMX"
REM COMPOSER "P Killer Trackz, Dame Grease"
INDEX 01 00:00:00
FILE "07. Let Me Fly.wav" WAVE
TRACK 07 AUDIO
TITLE "Let Me Fly"
PERFORMER "DMX"
REM COMPOSER "Younglord, Dame Grease"
INDEX 01 00:00:00
FILE "08. X-Is Coming.wav" WAVE
TRACK 08 AUDIO
TITLE "X-Is Coming"
PERFORMER "DMX"
REM COMPOSER "P Killer Trackz"
INDEX 01 00:00:00
TRACK 09 AUDIO
TITLE "Damien"
PERFORMER "DMX"
REM COMPOSER "Dame Grease"
INDEX 00 04:18:41
FILE "09. Damien.wav" WAVE
INDEX 01 00:00:00
TRACK 10 AUDIO
TITLE "Hows It Goin Down"
PERFORMER "DMX"
REM COMPOSER "P Killer Trackz"
INDEX 00 03:42:09
FILE "10. Hows It Goin Down.wav" WAVE
INDEX 01 00:00:00
FILE "11. Mickey (Skit).wav" WAVE
TRACK 11 AUDIO
TITLE "Mickey (Skit)"
PERFORMER "DMX"
REM COMPOSER "Rajah Winn, Waah, P Killer Trackz"
INDEX 01 00:00:00
FILE "12. Crime Story.wav" WAVE
TRACK 12 AUDIO
TITLE "Crime Story"
PERFORMER "DMX"
REM COMPOSER "Irv Gotti, Lil Rob"
INDEX 01 00:00:00
FILE "13. Stop Being Greedy.wav" WAVE
TRACK 13 AUDIO
TITLE "Stop Being Greedy"
PERFORMER "DMX"
REM COMPOSER "Dame Grease, P Killer Trackz"
INDEX 01 00:00:00
FILE "14. ATF.wav" WAVE
TRACK 14 AUDIO
TITLE "ATF"
PERFORMER "DMX"
REM COMPOSER "Dame Grease"
INDEX 01 00:00:00
FILE "15. For My Dogs (Feat. Big Stan, Loose, Kasino, Dragon).wav" WAVE
TRACK 15 AUDIO
TITLE "For My Dogs (Feat. Big Stan, Loose, Kasino, Dragon)"
PERFORMER "DMX"
REM COMPOSER "Dame Grease"
INDEX 01 00:00:00
FILE "16. I Can Feel It.wav" WAVE
TRACK 16 AUDIO
TITLE "I Can Feel It"
PERFORMER "DMX"
REM COMPOSER "Dame Grease"
INDEX 01 00:00:00
FILE "17. Prayer (Skit).wav" WAVE
TRACK 17 AUDIO
TITLE "Prayer (Skit)"
PERFORMER "DMX"
REM COMPOSER "Dame Grease"
INDEX 01 00:00:00
FILE "18. The Convo.wav" WAVE
TRACK 18 AUDIO
TITLE "The Convo"
PERFORMER "DMX"
REM COMPOSER "Dame Grease"
INDEX 01 00:00:00
FILE "19. Niggaz Done Started Something (Feat. The Lox, Mase).wav" WAVE
TRACK 19 AUDIO
TITLE "Niggaz Done Started Something (Feat. The Lox, Mase)"
PERFORMER "DMX"
REM COMPOSER "Dame Grease"
INDEX 01 00:00:00
 
Cue Corrector v. 10.1.7 / b. 2062 (Nov. 07, 2022)
DMX / It's Dark And Hell Is Hot

Folder: (1998) It's Dark And Hell Is Hot
Audio files:
01. Intro.flac [04:09.893; FLAC 799 kbps 16 bit \ 44100 Hz stereo; 23.83 MB (24 987 909 B)]
02. Ruff Ryders Anthem.flac [03:34.440; FLAC 836 kbps 16 bit \ 44100 Hz stereo; 21.38 MB (22 415 068 B)]
03. Fuckin Wit D.flac [02:18.027; FLAC 958 kbps 16 bit \ 44100 Hz stereo; 15.77 MB (16 531 589 B)]
04. The Storm (Skit).flac [00:58.040; FLAC 829 kbps 16 bit \ 44100 Hz stereo; 5.74 MB (6 019 172 B)]
05. Look Thru My Eyes.flac [03:53.227; FLAC 867 kbps 16 bit \ 44100 Hz stereo; 24.11 MB (25 276 719 B)]
06. Get At Me Dog (Feat. Sheek From The Lox).flac [04:03.267; FLAC 831 kbps 16 bit \ 44100 Hz stereo; 24.11 MB (25 285 712 B)]
07. Let Me Fly.flac [04:12.773; FLAC 860 kbps 16 bit \ 44100 Hz stereo; 25.94 MB (27 199 920 B)]
08. X‐Is Coming.flac [04:18.560; FLAC 839 kbps 16 bit \ 44100 Hz stereo; 25.88 MB (27 140 201 B)]
09. Damien.flac [03:42.133; FLAC 824 kbps 16 bit \ 44100 Hz stereo; 21.84 MB (22 903 866 B)]
10. Hows It Goin Down.flac [04:42.907; FLAC 698 kbps 16 bit \ 44100 Hz stereo; 23.57 MB (24 718 782 B)]
11. Mickey (Skit).flac [00:25.000; FLAC 608 kbps 16 bit \ 44100 Hz stereo; 1.81 MB (1 900 036 B)]
12. Crime Story.flac [03:47.693; FLAC 732 kbps 16 bit \ 44100 Hz stereo; 19.88 MB (20 844 546 B)]
13. Stop Being Greedy.flac [03:37.240; FLAC 880 kbps 16 bit \ 44100 Hz stereo; 22.79 MB (23 901 402 B)]
14. ATF.flac [01:55.733; FLAC 821 kbps 16 bit \ 44100 Hz stereo; 11.33 MB (11 879 299 B)]
15. For My Dogs (Feat. Big Stan, Loose, Kasino, Dragon).flac [04:11.827; FLAC 856 kbps 16 bit \ 44100 Hz stereo; 25.70 MB (26 947 672 B)]
16. I Can Feel It.flac [04:13.107; FLAC 815 kbps 16 bit \ 44100 Hz stereo; 24.62 MB (25 812 990 B)]
17. Prayer (Skit).flac [02:31.960; FLAC 483 kbps 16 bit \ 44100 Hz stereo; 8.76 MB (9 187 661 B)]
18. The Convo.flac [03:33.840; FLAC 808 kbps 16 bit \ 44100 Hz stereo; 20.62 MB (21 618 007 B)]
19. Niggaz Done Started Something (Feat. The Lox, Mase).flac [05:09.533; FLAC 836 kbps 16 bit \ 44100 Hz stereo; 30.87 MB (32 370 108 B)]

Accuracy: -m0

File 01. Intro - 99% CDDA [04:09:67]
File 02. Ruff Ryders Anthem - 100% CDDA [03:34:33]
File 03. Fuckin Wit D - 100% CDDA [02:18:02]
File 04. The Storm (Skit) - 100% CDDA [00:58:03]
File 05. Look Thru My Eyes - 100% CDDA [03:53:17]
File 06. Get At Me Dog (Feat. Sheek From The Lox) - 100% CDDA [04:03:20]
File 07. Let Me Fly - 100% CDDA [04:12:58]
File 08. X‐Is Coming - 100% CDDA [04:18:42]
File 09. Damien - 100% CDDA [03:42:10]
File 10. Hows It Goin Down - 100% CDDA [04:42:68]
File 11. Mickey (Skit) - 100% CDDA [00:25:00]
File 12. Crime Story - 100% CDDA [03:47:52]
File 13. Stop Being Greedy - 100% CDDA [03:37:18]
File 14. ATF - 100% CDDA [01:55:55]
File 15. For My Dogs (Feat. Big Stan, Loose, Kasino, Dragon) - 99% CDDA [04:11:62]
File 16. I Can Feel It - 100% CDDA [04:13:08]
File 17. Prayer (Skit) - 100% CDDA [02:31:72]
File 18. The Convo - 100% CDDA [03:33:63]
File 19. Niggaz Done Started Something (Feat. The Lox, Mase) - 100% CDDA [05:09:40]
Summary:
These tracks looks like CDDA with probability 100%.


ANALYZER:
auCDtect: CD records authenticity detector, version 0.8.2
Copyright (c) 2004 Oleg Berngardt. All rights reserved.
Copyright (c) 2004 Alexander Djourik. All rights reserved.

Time elapsed: 1 m 57 s
Log created at August 12, 2023 11:38:46

=== FB15180B4D7D805777DCC9A26BC4C1D6EE9546A829BB3BA828A33A984D140FB3 ===
"Its Dark and Hell is Hot" - DMX, 19 1998 Ruff Ryders Entertainment Def Jam Recordings. : Get at Me Dog, Stop Being Greedy, How's It Goin' Down Ruff Ryders Anthem, . - . 1996 1998 .
(): Def Jam Recordings, B.A.R. Management, Ruff Ryders
: PHCW-1009
: 01:10:01


:
01. My Niggas (Skit) (01:27)
02. Bring Your Whole Crew (03:41)
03. Pac Man (Skit) (00:57)
04. Aint No Way (04:49)
05. We Dont Give A Fuck (Ja Rule Diss) (Feat. Styles P, Jadakiss) (04:08)
06. Keep Your Shit The Hardest (04:48)
07. Coming From (Feat. Mary J. Blige) (05:13)
08. Its All Good (04:17)
09. The Omen (Feat. Marilyn Manson) (04:57)
10. Slippin (05:05)
11. No Love 4 Me (Feat. Swizz Beatz, Drag‐On) (04:00)
12. Dogs For Life (05:32)
13. Blackout (Feat. The LOX, Jay‐Z) (05:00)
14. Flesh Of My Flesh, Blood Of My Blood (04:33)
15. Heat (Feat. Swizz Beatz) (04:08)
16. Prayer II / Ready To Meet Him (07:25)
 
REM GENRE Rap
REM DATE 1998
REM DISCID E5106810
REM COMMENT "ExactAudioCopy v1.6"
PERFORMER "DMX"
TITLE "Flesh Of My Flesh, Blood Of My Blood (Japan Press)"
REM COMPOSER "Swizz Beatz"
FILE "01. My Niggas (skit).wav" WAVE
TRACK 01 AUDIO
TITLE "My Niggas (skit)"
PERFORMER "DMX"
REM COMPOSER "Swizz Beatz"
INDEX 01 00:00:00
FILE "02. Bring Your Whole Crew.wav" WAVE
TRACK 02 AUDIO
TITLE "Bring Your Whole Crew"
PERFORMER "DMX"
REM COMPOSER "P Killer Trackz"
INDEX 01 00:00:00
FILE "03. Pac Man (Skit).wav" WAVE
TRACK 03 AUDIO
TITLE "Pac Man (Skit)"
PERFORMER "DMX"
REM COMPOSER "DMX"
INDEX 01 00:00:00
FILE "04. Aint No Way.wav" WAVE
TRACK 04 AUDIO
TITLE "Aint No Way"
PERFORMER "DMX"
REM COMPOSER "Swizz Beatz"
INDEX 01 00:00:00
FILE "05. We Dont Give A Fuck (Ja Rule Diss) (Feat. Styles P, Jadakiss).wav" WAVE
TRACK 05 AUDIO
TITLE "We Dont Give A Fuck (Ja Rule Diss) (Feat. Styles P, Jadakiss)"
PERFORMER "DMX"
REM COMPOSER "Dat Nigga Reb, Irv Gotti"
INDEX 01 00:00:00
FILE "06. Keep Your Shit The Hardest.wav" WAVE
TRACK 06 AUDIO
TITLE "Keep Your Shit The Hardest"
PERFORMER "DMX"
REM COMPOSER "Swizz Beatz"
INDEX 01 00:00:00
FILE "07. Coming From (Feat. Mary J. Blige).wav" WAVE
TRACK 07 AUDIO
TITLE "Coming From (Feat. Mary J. Blige)"
PERFORMER "DMX"
REM COMPOSER "P Killer Trackz"
INDEX 01 00:00:00
FILE "08. Its All Good.wav" WAVE
TRACK 08 AUDIO
TITLE "Its All Good"
PERFORMER "DMX"
REM COMPOSER "Swizz Beatz"
INDEX 01 00:00:00
FILE "09. The Omen (Feat. Marilyn Manson).wav" WAVE
TRACK 09 AUDIO
TITLE "The Omen (Feat. Marilyn Manson)"
PERFORMER "DMX"
REM COMPOSER "Swizz Beatz"
INDEX 01 00:00:00
FILE "10. Slippin.wav" WAVE
TRACK 10 AUDIO
TITLE "Slippin"
PERFORMER "DMX"
REM COMPOSER "DJ Shok"
INDEX 01 00:00:00
FILE "11. No Love 4 Me (Feat. Swizz Beatz, Drag-On).wav" WAVE
TRACK 11 AUDIO
TITLE "No Love 4 Me (Feat. Swizz Beatz, Drag-On)"
PERFORMER "DMX"
REM COMPOSER "Swizz Beatz"
INDEX 01 00:00:00
FILE "12. Dogs For Life.wav" WAVE
TRACK 12 AUDIO
TITLE "Dogs For Life"
PERFORMER "DMX"
REM COMPOSER "Dame Grease"
INDEX 01 00:00:00
FILE "13. Blackout (Feat. The LOX, Jay-Z).wav" WAVE
TRACK 13 AUDIO
TITLE "Blackout (Feat. The LOX, Jay-Z)"
PERFORMER "DMX"
REM COMPOSER "Swizz Beatz"
INDEX 01 00:00:00
FILE "14. Flesh Of My Flesh, Blood Of My Blood.wav" WAVE
TRACK 14 AUDIO
TITLE "Flesh Of My Flesh, Blood Of My Blood"
PERFORMER "DMX"
REM COMPOSER "Swizz Beatz"
INDEX 01 00:00:00
FILE "15. Heat (Feat. Swizz Beatz).wav" WAVE
TRACK 15 AUDIO
TITLE "Heat (Feat. Swizz Beatz)"
PERFORMER "DMX"
REM COMPOSER "Swizz Beatz"
INDEX 01 00:00:00
FILE "16. Prayer II , Ready To Meet Him.wav" WAVE
TRACK 16 AUDIO
TITLE "Prayer II / Ready To Meet Him"
PERFORMER "DMX"
REM COMPOSER "Swizz Beatz"
INDEX 01 00:00:00
 
Cue Corrector v. 10.1.7 / b. 2062 (Nov. 07, 2022)
DMX / Flesh Of My Flesh, Blood Of My Blood (Japan Press)

Folder: (1998) Flesh Of My Flesh, Blood Of My Blood (Japan Press)
Audio files:
01. My Niggas (skit).flac [01:27.333; FLAC 819 kbps 16 bit \ 44100 Hz stereo; 8.53 MB (8 941 597 B)]
02. Bring Your Whole Crew.flac [03:40.533; FLAC 908 kbps 16 bit \ 44100 Hz stereo; 23.89 MB (25 053 211 B)]
03. Pac Man (Skit).flac [00:56.840; FLAC 606 kbps 16 bit \ 44100 Hz stereo; 4.11 MB (4 312 377 B)]
04. Aint No Way.flac [04:49.160; FLAC 923 kbps 16 bit \ 44100 Hz stereo; 31.84 MB (33 388 718 B)]
05. We Dont Give A Fuck (Ja Rule Diss) (Feat. Styles P, Jadakiss).flac [04:08.173; FLAC 899 kbps 16 bit \ 44100 Hz stereo; 26.62 MB (27 913 514 B)]
06. Keep Your Shit The Hardest.flac [04:48.267; FLAC 898 kbps 16 bit \ 44100 Hz stereo; 30.87 MB (32 370 135 B)]
07. Coming From (Feat. Mary J. Blige).flac [05:13.400; FLAC 845 kbps 16 bit \ 44100 Hz stereo; 31.60 MB (33 130 143 B)]
08. Its All Good.flac [04:17.360; FLAC 902 kbps 16 bit \ 44100 Hz stereo; 27.68 MB (29 026 050 B)]
09. The Omen (Feat. Marilyn Manson).flac [04:56.573; FLAC 741 kbps 16 bit \ 44100 Hz stereo; 26.21 MB (27 482 471 B)]
10. Slippin.flac [05:05.467; FLAC 930 kbps 16 bit \ 44100 Hz stereo; 33.88 MB (35 528 224 B)]
11. No Love 4 Me (Feat. Swizz Beatz, Drag‐On).flac [04:00.267; FLAC 902 kbps 16 bit \ 44100 Hz stereo; 25.86 MB (27 111 583 B)]
12. Dogs For Life.flac [05:31.893; FLAC 868 kbps 16 bit \ 44100 Hz stereo; 34.35 MB (36 023 739 B)]
13. Blackout (Feat. The LOX, Jay‐Z).flac [05:00.173; FLAC 943 kbps 16 bit \ 44100 Hz stereo; 33.76 MB (35 403 719 B)]
14. Flesh Of My Flesh, Blood Of My Blood.flac [04:32.667; FLAC 946 kbps 16 bit \ 44100 Hz stereo; 30.76 MB (32 254 594 B)]
15. Heat (Feat. Swizz Beatz).flac [04:07.933; FLAC 915 kbps 16 bit \ 44100 Hz stereo; 27.06 MB (28 374 321 B)]
16. Prayer II , Ready To Meet Him.flac [07:24.627; FLAC 735 kbps 16 bit \ 44100 Hz stereo; 39.00 MB (40 892 560 B)]

Accuracy: -m0

File 01. My Niggas (skit) - 100% CDDA [01:27:25]
File 02. Bring Your Whole Crew - 100% CDDA [03:40:40]
File 03. Pac Man (Skit) - 100% CDDA [00:56:63]
File 04. Aint No Way - 100% CDDA [04:49:12]
File 05. We Dont Give A Fuck (Ja Rule Diss) (Feat. Styles P, Jadakiss) - 100% CDDA [04:08:13]
File 06. Keep Your Shit The Hardest - 99% CDDA [04:48:20]
File 07. Coming From (Feat. Mary J. Blige) - 100% CDDA [05:13:30]
File 08. Its All Good - 100% CDDA [04:17:27]
File 09. The Omen (Feat. Marilyn Manson) - 99% CDDA [04:56:43]
File 10. Slippin - 100% CDDA [05:05:35]
File 11. No Love 4 Me (Feat. Swizz Beatz, Drag‐On) - 100% CDDA [04:00:20]
File 12. Dogs For Life - 100% CDDA [05:31:67]
File 13. Blackout (Feat. The LOX, Jay‐Z) - 100% CDDA [05:00:13]
File 14. Flesh Of My Flesh, Blood Of My Blood - 99% CDDA [04:32:50]
File 15. Heat (Feat. Swizz Beatz) - 100% CDDA [04:07:70]
File 16. Prayer II , Ready To Meet Him - 100% CDDA [07:24:47]
Summary:
These tracks looks like CDDA with probability 100%.


ANALYZER:
auCDtect: CD records authenticity detector, version 0.8.2
Copyright (c) 2004 Oleg Berngardt. All rights reserved.
Copyright (c) 2004 Alexander Djourik. All rights reserved.

Time elapsed: 2 m 03 s
Log created at August 14, 2023 21:25:32

=== 115F8D9E975133B915B837559F82410914FE4F95B2DF9FA952407DF08559CD4B ===
"Flesh of My Flesh, Blood of My Blood" - DMX, 1998 . ( ) 670 000 . 15 2000 RIAA. Flesh of My Flesh, Blood of My Blood DMX, Its Dark and Hell Is Hot, DMX , ( 1996 All Eyez On Me The Don Killuminati: The 7 Day Theory).
(): Def Jam Recordings, Ruff Ryders
: 546 933-2
: 01:00:20


:
01. The Kennel (Skit) (00:36)
02. One More Road To Cross (04:20)
03. The Professional (03:35)
04. Fame (03:37)
05. Alot To Learn (Skit) (00:40)
06. Here We Go Again (03:53)
07. Party Up (Up In Here) (04:29)
08. Make A Move (03:34)
09. What These Bitches Want (Feat. Sisqó) (04:13)
10. Whats My Name? (03:52)
11. More 2 A Song (03:42)
12. Dont You Ever (03:48)
13. The Shakedown (Skit) (00:35)
14. D‐X‐L (Hard White) (Feat. The Lox, Drag‐On) (04:22)
15. Comin For Ya (04:02)
16. Prayer III (02:00)
17. Angel (Feat. Regina Bell) (05:07)
18. Good Girls, Bad Guys (Feat. Dyme) (03:53)
 
REM GENRE Rap
REM DATE 1999
REM DISCID FD0E2312
REM COMMENT "ExactAudioCopy v1.6"
PERFORMER "DMX"
TITLE "...And Then There Was X"
REM COMPOSER ""
FILE "01. The Kennel (Skit).wav" WAVE
TRACK 01 AUDIO
TITLE "The Kennel (Skit)"
PERFORMER "DMX"
REM COMPOSER ""
INDEX 01 00:00:00
FILE "02. One More Road To Cross.wav" WAVE
TRACK 02 AUDIO
TITLE "One More Road To Cross"
PERFORMER "DMX"
REM COMPOSER "Swizz Beatz"
INDEX 01 00:00:00
FILE "03. The Professional.wav" WAVE
TRACK 03 AUDIO
TITLE "The Professional"
PERFORMER "DMX"
REM COMPOSER "P Killer Trackz"
INDEX 01 00:00:00
FILE "04. Fame.wav" WAVE
TRACK 04 AUDIO
TITLE "Fame"
PERFORMER "DMX"
REM COMPOSER "Dame Grease"
INDEX 01 00:00:00
FILE "05. Alot To Learn (Skit).wav" WAVE
TRACK 05 AUDIO
TITLE "Alot To Learn (Skit)"
PERFORMER "DMX"
REM COMPOSER ""
INDEX 01 00:00:00
FILE "06. Here We Go Again.wav" WAVE
TRACK 06 AUDIO
TITLE "Here We Go Again"
PERFORMER "DMX"
REM COMPOSER "DJ Shok"
INDEX 01 00:00:00
FILE "07. Party Up (Up in Here).wav" WAVE
TRACK 07 AUDIO
TITLE "Party Up (Up in Here)"
PERFORMER "DMX"
REM COMPOSER "Swizz Beatz"
INDEX 01 00:00:00
FILE "08. Make A Move.wav" WAVE
TRACK 08 AUDIO
TITLE "Make A Move"
PERFORMER "DMX"
REM COMPOSER "P Killer Trackz"
INDEX 01 00:00:00
FILE "09. What These Bitches Want (Feat. Sisqó).wav" WAVE
TRACK 09 AUDIO
TITLE "What These Bitches Want (Feat. Sisqó)"
PERFORMER "DMX"
REM COMPOSER "Nokio The N-Tity"
INDEX 01 00:00:00
FILE "10. Whats My Name.wav" WAVE
TRACK 10 AUDIO
TITLE "Whats My Name?"
PERFORMER "DMX"
REM COMPOSER "Self Service, Irv Gotti"
INDEX 01 00:00:00
FILE "11. More 2 A Song.wav" WAVE
TRACK 11 AUDIO
TITLE "More 2 A Song"
PERFORMER "DMX"
REM COMPOSER "P Killer Trackz"
INDEX 01 00:00:00
FILE "12. Dont You Ever.wav" WAVE
TRACK 12 AUDIO
TITLE "Dont You Ever"
PERFORMER "DMX"
REM COMPOSER "Swizz Beatz"
INDEX 01 00:00:00
FILE "13. The Shakedown (Skit).wav" WAVE
TRACK 13 AUDIO
TITLE "The Shakedown (Skit)"
PERFORMER "DMX"
REM COMPOSER ""
INDEX 01 00:00:00
FILE "14. D-X-L (Hard White) (Feat. The Lox, Drag-On).wav" WAVE
TRACK 14 AUDIO
TITLE "D-X-L (Hard White) (Feat. The Lox, Drag-On)"
PERFORMER "DMX"
REM COMPOSER "Dame Grease"
INDEX 01 00:00:00
FILE "15. Comin For Ya.wav" WAVE
TRACK 15 AUDIO
TITLE "Comin For Ya"
PERFORMER "DMX"
REM COMPOSER "Swizz Beatz"
INDEX 01 00:00:00
TRACK 16 AUDIO
TITLE "Prayer III"
PERFORMER "DMX"
REM COMPOSER ""
INDEX 00 04:00:18
FILE "16. Prayer III.wav" WAVE
INDEX 01 00:00:00
FILE "17. Angel (Feat. Regina Bell).wav" WAVE
TRACK 17 AUDIO
TITLE "Angel (Feat. Regina Bell)"
PERFORMER "DMX"
REM COMPOSER "Irv Gotti"
INDEX 01 00:00:00
TRACK 18 AUDIO
TITLE "Good Girls, Bad Guys (Feat. Dyme)"
PERFORMER "DMX"
REM COMPOSER "Shuga Bear, P Killer Trackz"
INDEX 00 05:05:08
FILE "18. Good Girls, Bad Guys (Feat. Dyme).wav" WAVE
INDEX 01 00:00:00
 
Cue Corrector v. 10.1.7 / b. 2062 (Nov. 07, 2022)
DMX / And Then There Was X

Folder: (1999) ...And Then There Was X
Audio files:
01. The Kennel (Skit).flac [00:36.160; FLAC 676 kbps 16 bit \ 44100 Hz stereo; 2.92 MB (3 058 768 B)]
02. One More Road To Cross.flac [04:20.440; FLAC 963 kbps 16 bit \ 44100 Hz stereo; 29.92 MB (31 377 022 B)]
03. The Professional.flac [03:35.293; FLAC 984 kbps 16 bit \ 44100 Hz stereo; 25.26 MB (26 486 325 B)]
04. Fame.flac [03:37.440; FLAC 997 kbps 16 bit \ 44100 Hz stereo; 25.87 MB (27 122 569 B)]
05. Alot To Learn (Skit).flac [00:39.560; FLAC 887 kbps 16 bit \ 44100 Hz stereo; 4.19 MB (4 388 372 B)]
06. Here We Go Again.flac [03:52.933; FLAC 907 kbps 16 bit \ 44100 Hz stereo; 25.19 MB (26 412 104 B)]
07. Party Up (Up in Here).flac [04:28.867; FLAC 1013 kbps 16 bit \ 44100 Hz stereo; 32.49 MB (34 073 087 B)]
08. Make A Move.flac [03:33.640; FLAC 986 kbps 16 bit \ 44100 Hz stereo; 25.13 MB (26 347 014 B)]
09. What These Bitches Want (Feat. Sisqó).flac [04:13.027; FLAC 954 kbps 16 bit \ 44100 Hz stereo; 28.79 MB (30 185 280 B)]
10. Whats My Name.flac [03:52.333; FLAC 1052 kbps 16 bit \ 44100 Hz stereo; 29.15 MB (30 570 403 B)]
11. More 2 A Song.flac [03:42.240; FLAC 982 kbps 16 bit \ 44100 Hz stereo; 26.02 MB (27 285 005 B)]
12. Dont You Ever.flac [03:48.333; FLAC 1032 kbps 16 bit \ 44100 Hz stereo; 28.11 MB (29 478 373 B)]
13. The Shakedown (Skit).flac [00:35.200; FLAC 646 kbps 16 bit \ 44100 Hz stereo; 2.71 MB (2 845 366 B)]
14. D‐X‐L (Hard White) (Feat. The Lox, Drag‐On).flac [04:21.893; FLAC 1026 kbps 16 bit \ 44100 Hz stereo; 32.03 MB (33 588 130 B)]
15. Comin For Ya.flac [04:02.200; FLAC 970 kbps 16 bit \ 44100 Hz stereo; 28.01 MB (29 370 649 B)]
16. Prayer III.flac [01:59.800; FLAC 565 kbps 16 bit \ 44100 Hz stereo; 8.07 MB (8 461 014 B)]
17. Angel (Feat. Regina Bell).flac [05:07.067; FLAC 925 kbps 16 bit \ 44100 Hz stereo; 33.89 MB (35 537 056 B)]
18. Good Girls, Bad Guys (Feat. Dyme).flac [03:53.373; FLAC 1004 kbps 16 bit \ 44100 Hz stereo; 27.95 MB (29 311 771 B)]

Accuracy: -m0

File 01. The Kennel (Skit) - 100% CDDA [00:36:12]
File 02. One More Road To Cross - 100% CDDA [04:20:33]
File 03. The Professional - 100% CDDA [03:35:22]
File 04. Fame - 100% CDDA [03:37:33]
File 05. Alot To Learn (Skit) - 99% CDDA [00:39:42]
File 06. Here We Go Again - 99% CDDA [03:52:70]
File 07. Party Up (Up in Here) - 99% CDDA [04:28:65]
File 08. Make A Move - 100% CDDA [03:33:48]
File 09. What These Bitches Want (Feat. Sisqó) - 100% CDDA [04:13:02]
File 10. Whats My Name - 100% CDDA [03:52:25]
File 11. More 2 A Song - 100% CDDA [03:42:18]
File 12. Dont You Ever - 100% CDDA [03:48:25]
File 13. The Shakedown (Skit) - 100% CDDA [00:35:15]
File 14. D‐X‐L (Hard White) (Feat. The Lox, Drag‐On) - 100% CDDA [04:21:67]
File 15. Comin For Ya - 99% CDDA [04:02:15]
File 16. Prayer III - 100% CDDA [01:59:60]
File 17. Angel (Feat. Regina Bell) - 100% CDDA [05:07:05]
File 18. Good Girls, Bad Guys (Feat. Dyme) - 100% CDDA [03:53:28]
Summary:
These tracks looks like CDDA with probability 100%.


ANALYZER:
auCDtect: CD records authenticity detector, version 0.8.2
Copyright (c) 2004 Oleg Berngardt. All rights reserved.
Copyright (c) 2004 Alexander Djourik. All rights reserved.

Time elapsed: 1 m 48 s
Log created at August 19, 2023 19:44:04

=== 651F63FDB19FA625B99E3E8AD10A85171E78C1B1C2DD19C7EBD5BB378B09B678 ===
"And Then There Was X" - DMX, 21 1999 Ruff Ryders Entertainment Def Jam Recordings.
(): Def Jam Recordings, Ruff Ryders
: 0602498608968
: 01:18:20


:
01. Dog Intro (03:33)
02. My Life (Feat. Chinky) (03:09)
03. Where The Hood At (04:46)
04. Dogs Out (04:04)
05. Get It On The Floor (Feat. Swizz Beatz) (04:22)
06. Come Prepared (Skit) (00:36)
07. Shot Down (Feat. 50 Cent, Styles P.) (03:42)
08. Bring The Noize (03:30)
09. Untouchable (Feat. Sheek, Syleena Johnson, Infa-Red, Cross, Drag-On) (06:05)
10. Fuck Yall (03:44)
11. Ruff Radio (Skit) (00:43)
12. Were Back (Feat. Eve, Jadakiss) (04:25)
13. Ruff Radio 2 (Skit) (00:18)
14. Rob All Night (If Im Gonna Rob) (03:28)
15. We Go Hard (Feat. Camron) (03:37)
16. We Bout To Blow (Feat. Big Stan) (03:31)
17. The Rain (03:28)
18. Gotta Go (Skit) (01:08)
19. Dont Gotta Go Home (Feat. Monica) (04:17)
20. AYo Kato (Feat. Majic, Val) (03:47)
21. Thank You (Feat. Patti LaBelle) (03:02)
22. The Prayer V (01:48)
23. On Top (Feat. Big Stan) (03:36)
24. X Gon Give It To Ya (03:40)
 
REM GENRE Rap
REM DATE 2003
REM DISCID 5C125B18
REM COMMENT "ExactAudioCopy v1.6"
PERFORMER "DMX"
TITLE "Grand Champ"
REM COMPOSER ""
FILE "01. Dog Intro.wav" WAVE
TRACK 01 AUDIO
TITLE "Dog Intro"
PERFORMER "DMX"
REM COMPOSER "Darold ôPopö Trotter"
INDEX 01 00:00:00
FILE "02. My Life (Feat. Chinky).wav" WAVE
TRACK 02 AUDIO
TITLE "My Life (Feat. Chinky)"
PERFORMER "DMX"
REM COMPOSER "Dart La"
INDEX 01 00:00:00
FILE "03. Where The Hood At.wav" WAVE
TRACK 03 AUDIO
TITLE "Where The Hood At"
PERFORMER "DMX"
REM COMPOSER "Tuneheadz"
INDEX 01 00:00:00
FILE "04. Dogs Out.wav" WAVE
TRACK 04 AUDIO
TITLE "Dogs Out"
PERFORMER "DMX"
REM COMPOSER "Kanye West"
INDEX 01 00:00:00
FILE "05. Get It On The Floor (Feat. Swizz Beatz).wav" WAVE
TRACK 05 AUDIO
TITLE "Get It On The Floor (Feat. Swizz Beatz)"
PERFORMER "DMX"
REM COMPOSER "Swizz Beatz"
INDEX 01 00:00:00
FILE "06. Come Prepared (Skit).wav" WAVE
TRACK 06 AUDIO
TITLE "Come Prepared (Skit)"
PERFORMER "DMX"
REM COMPOSER ""
INDEX 01 00:00:00
FILE "07. Shot Down (Feat. 50 Cent, Styles P.).wav" WAVE
TRACK 07 AUDIO
TITLE "Shot Down (Feat. 50 Cent, Styles P.)"
PERFORMER "DMX"
REM COMPOSER "DJ Salam Wreck"
INDEX 01 00:00:00
FILE "08. Bring The Noize.wav" WAVE
TRACK 08 AUDIO
TITLE "Bring The Noize"
PERFORMER "DMX"
REM COMPOSER "Tuneheadz"
INDEX 01 00:00:00
FILE "09. Untouchable (Feat. Sheek, Syleena Johnson, Infa-Red, Cross, Drag-On).wav" WAVE
TRACK 09 AUDIO
TITLE "Untouchable (Feat. Sheek, Syleena Johnson, Infa-Red, Cross, Drag-On)"
PERFORMER "DMX"
REM COMPOSER "Tony Pizarro"
INDEX 01 00:00:00
FILE "10. Fuck YÆall.wav" WAVE
TRACK 10 AUDIO
TITLE "Fuck YÆall"
PERFORMER "DMX"
REM COMPOSER "Ron Browz"
INDEX 01 00:00:00
FILE "11. Ruff Radio (Skit).wav" WAVE
TRACK 11 AUDIO
TITLE "Ruff Radio (Skit)"
PERFORMER "DMX"
REM COMPOSER "Waah, Icepick"
INDEX 01 00:00:00
FILE "12. WeÆre Back (Feat. Eve, Jadakiss).wav" WAVE
TRACK 12 AUDIO
TITLE "WeÆre Back (Feat. Eve, Jadakiss)"
PERFORMER "DMX"
REM COMPOSER "Tuneheadz"
INDEX 01 00:00:00
FILE "13. Ruff Radio 2 (Skit).wav" WAVE
TRACK 13 AUDIO
TITLE "Ruff Radio 2 (Skit)"
PERFORMER "DMX"
REM COMPOSER "Waah, Icepick"
INDEX 01 00:00:00
FILE "14. Rob All Night (If IÆm Gonna Rob).wav" WAVE
TRACK 14 AUDIO
TITLE "Rob All Night (If IÆm Gonna Rob)"
PERFORMER "DMX"
REM COMPOSER "Rockwilder"
INDEX 01 00:00:00
FILE "15. We Go Hard (Feat. CamÆron).wav" WAVE
TRACK 15 AUDIO
TITLE "We Go Hard (Feat. CamÆron)"
PERFORMER "DMX"
REM COMPOSER "No I.D."
INDEX 01 00:00:00
FILE "16. We ÆBout To Blow (Feat. Big Stan).wav" WAVE
TRACK 16 AUDIO
TITLE "We ÆBout To Blow (Feat. Big Stan)"
PERFORMER "DMX"
REM COMPOSER "Dame Grease"
INDEX 01 00:00:00
FILE "17. The Rain.wav" WAVE
TRACK 17 AUDIO
TITLE "The Rain"
PERFORMER "DMX"
REM COMPOSER "DJ Scratch"
INDEX 01 00:00:00
FILE "18. Gotta Go (Skit).wav" WAVE
TRACK 18 AUDIO
TITLE "Gotta Go (Skit)"
PERFORMER "DMX"
REM COMPOSER "Waah, Icepick"
INDEX 01 00:00:00
FILE "19. DonÆt Gotta Go Home (Feat. Monica).wav" WAVE
TRACK 19 AUDIO
TITLE "DonÆt Gotta Go Home (Feat. Monica)"
PERFORMER "DMX"
REM COMPOSER "Antoine ôBamö Macon, Ryan Bowser"
INDEX 01 00:00:00
FILE "20. AÆYo Kato (Feat. Majic, Val).wav" WAVE
TRACK 20 AUDIO
TITLE "AÆYo Kato (Feat. Majic, Val)"
PERFORMER "DMX"
REM COMPOSER "Swizz Beatz"
INDEX 01 00:00:00
FILE "21. Thank You (Feat. Patti LaBelle).wav" WAVE
TRACK 21 AUDIO
TITLE "Thank You (Feat. Patti LaBelle)"
PERFORMER "DMX"
REM COMPOSER "Ron H, Nemo, DMX"
INDEX 01 00:00:00
FILE "22. The Prayer V.wav" WAVE
TRACK 22 AUDIO
TITLE "The Prayer V"
PERFORMER "DMX"
REM COMPOSER "DMX"
INDEX 01 00:00:00
TRACK 23 AUDIO
TITLE "On Top (Feat. Big Stan)"
PERFORMER "DMX"
REM COMPOSER "Mac G"
INDEX 00 01:45:73
FILE "23. On Top (Feat. Big Stan).wav" WAVE
INDEX 01 00:00:00
TRACK 24 AUDIO
TITLE "X GonÆ Give It To Ya"
PERFORMER "DMX"
REM COMPOSER "Shatek"
INDEX 00 03:34:36
FILE "24. X GonÆ Give It To Ya.wav" WAVE
INDEX 01 00:00:00
 
CUE Corrector v. 8.4.2 / b. 1055 (Sep. 22, 2021)
DMX / Grand Champ

Folder: (2003) Grand Champ
Audio files:
01. Dog Intro.flac [03:32.867; FLAC 737 kbps 16 bit \ 44100 Hz stereo; 18,72 MB (19 633 305 B)]
02. My Life (Feat. Chinky).flac [03:09.333; FLAC 978 kbps 16 bit \ 44100 Hz stereo; 22,08 MB (23 155 001 B)]
03. Where The Hood At.flac [04:46.267; FLAC 999 kbps 16 bit \ 44100 Hz stereo; 34,11 MB (35 770 878 B)]
04. Dogs Out.flac [04:03.827; FLAC 888 kbps 16 bit \ 44100 Hz stereo; 25,84 MB (27 093 606 B)]
05. Get It On The Floor (Feat. Swizz Beatz).flac [04:22.133; FLAC 942 kbps 16 bit \ 44100 Hz stereo; 29,44 MB (30 873 824 B)]
06. Come Prepared (Skit).flac [00:35.867; FLAC 681 kbps 16 bit \ 44100 Hz stereo; 2,91 MB (3 055 378 B)]
07. Shot Down (Feat. 50 Cent, Styles P.).flac [03:42.373; FLAC 882 kbps 16 bit \ 44100 Hz stereo; 23,39 MB (24 526 826 B)]
08. Bring The Noize.flac [03:30.200; FLAC 1060 kbps 16 bit \ 44100 Hz stereo; 26,57 MB (27 862 103 B)]
09. Untouchable (Feat. Sheek, Syleena Johnson, Infa-Red, Cross, Drag‐On).flac [06:05.400; FLAC 1000 kbps 16 bit \ 44100 Hz stereo; 43,60 MB (45 715 225 B)]
10. Fuck Yall.flac [03:43.693; FLAC 930 kbps 16 bit \ 44100 Hz stereo; 24,80 MB (26 009 117 B)]
11. Ruff Radio (Skit).flac [00:43.467; FLAC 836 kbps 16 bit \ 44100 Hz stereo; 4,34 MB (4 547 198 B)]
12. Were Back (Feat. Eve, Jadakiss).flac [04:25.173; FLAC 1075 kbps 16 bit \ 44100 Hz stereo; 33,99 MB (35 641 889 B)]
13. Ruff Radio 2 (Skit).flac [00:18.333; FLAC 756 kbps 16 bit \ 44100 Hz stereo; 1,65 MB (1 734 786 B)]
14. Rob All Night (If Im Gonna Rob).flac [03:27.933; FLAC 1020 kbps 16 bit \ 44100 Hz stereo; 25,29 MB (26 516 681 B)]
15. We Go Hard (Feat. Camron).flac [03:36.827; FLAC 907 kbps 16 bit \ 44100 Hz stereo; 23,45 MB (24 590 490 B)]
16. We Bout To Blow (Feat. Big Stan).flac [03:31.267; FLAC 974 kbps 16 bit \ 44100 Hz stereo; 24,53 MB (25 724 052 B)]
17. The Rain.flac [03:27.573; FLAC 954 kbps 16 bit \ 44100 Hz stereo; 23,61 MB (24 760 645 B)]
18. Gotta Go (Skit).flac [01:07.733; FLAC 478 kbps 16 bit \ 44100 Hz stereo; 3,86 MB (4 048 424 B)]
19. Dont Gotta Go Home (Feat. Monica).flac [04:17.133; FLAC 893 kbps 16 bit \ 44100 Hz stereo; 27,38 MB (28 705 203 B)]
20. AYo Kato (Feat. Majic, Val).flac [03:46.733; FLAC 917 kbps 16 bit \ 44100 Hz stereo; 24,79 MB (25 990 111 B)]
21. Thank You (Feat. Patti LaBelle).flac [03:01.760; FLAC 1032 kbps 16 bit \ 44100 Hz stereo; 22,37 MB (23 454 002 B)]
22. The Prayer V.flac [01:47.707; FLAC 971 kbps 16 bit \ 44100 Hz stereo; 12,48 MB (13 084 387 B)]
23. On Top (Feat. Big Stan).flac [03:36.467; FLAC 983 kbps 16 bit \ 44100 Hz stereo; 25,39 MB (26 622 729 B)]
24. X Gon Give It To Ya.flac [03:39.733; FLAC 933 kbps 16 bit \ 44100 Hz stereo; 24,44 MB (25 630 134 B)]

Accuracy: -m0

File 01. Dog Intro - 100% CDDA [03:32:65]
File 02. My Life (Feat. Chinky) - 100% CDDA [03:09:25]
File 03. Where The Hood At - 100% CDDA [04:46:20]
File 04. Dogs Out - 100% CDDA [04:03:62]
File 05. Get It On The Floor (Feat. Swizz Beatz) - 99% CDDA [04:22:10]
File 06. Come Prepared (Skit) - 100% CDDA [00:35:65]
File 07. Shot Down (Feat. 50 Cent, Styles P.) - 100% CDDA [03:42:28]
File 08. Bring The Noize - 100% CDDA [03:30:15]
File 09. Untouchable (Feat. Sheek, Syleena Johnson, Infa-Red, Cross, Drag‐On) - 100% CDDA [06:05:30]
File 10. Fuck Yall - 100% CDDA [03:43:52]
File 11. Ruff Radio (Skit) - 100% CDDA [00:43:35]
File 12. Were Back (Feat. Eve, Jadakiss) - 100% CDDA [04:25:13]
File 13. Ruff Radio 2 (Skit) - 100% CDDA [00:18:25]
File 14. Rob All Night (If Im Gonna Rob) - 100% CDDA [03:27:70]
File 15. We Go Hard (Feat. Camron) - 100% CDDA [03:36:62]
File 16. We Bout To Blow (Feat. Big Stan) - 100% CDDA [03:31:20]
File 17. The Rain - 100% CDDA [03:27:43]
File 18. Gotta Go (Skit) - 100% CDDA [01:07:55]
File 19. Dont Gotta Go Home (Feat. Monica) - 100% CDDA [04:17:10]
File 20. AYo Kato (Feat. Majic, Val) - 100% CDDA [03:46:55]
File 21. Thank You (Feat. Patti LaBelle) - 100% CDDA [03:01:57]
File 22. The Prayer V - 100% CDDA [01:47:53]
File 23. On Top (Feat. Big Stan) - 100% CDDA [03:36:35]
File 24. X Gon Give It To Ya - 100% CDDA [03:39:55]
Summary:
These tracks looks like CDDA with probability 100%.


ANALYZER:
auCDtect: CD records authenticity detector, version 0.8.2
Copyright (c) 2004 Oleg Berngardt. All rights reserved.
Copyright (c) 2004 Alexander Djourik. All rights reserved.

Time elapsed: 2 m 44 s
Log created at October 08, 2022 16:10:56

=== 4E8AEC249DAE6F26928E932B1E3EC26AAE498AD9226F863F77129C44ACAE2085 ===
"Grand Champ" - -- DMX, 16 2003 . : Where The Hood At Get It On The Floor. 312 000 , 1- Billboard 200. 7 2003 RIAA DMX , 1- .
(): Sony Urban Music, Columbia, Ruff Ryders, Sony BMG Music Entertainment
: 82876 87886 2
: 00:54:18


:
01. Intro (01:33)
02. We In Here (Feat. Swizz Beatz) (03:55)
03. I Run Shit (Feat. Big Stan) (03:57)
04. Come Thru (Move) (Feat. Busta Rhymes, Swizz Beatz) (03:42)
05. It's Personal (Feat. Styles P, Jadakiss) (03:44)
06. Baby Motha (04:41)
07. Dog Love (Feat. Amerie, Janyce) (03:43)
08. Wrong Or Right (I'm Tired) (Feat. Bzr Royale) (05:25)
09. Give 'Em What They Want (02:47)
10. Walk These Dogs (Feat. Kashmir) (02:57)
11. Blown Away (Feat. Jinx Da Juvy, Janyce) (04:03)
12. Goodbye (04:50)
13. Life Be My Song (04:02)
14. The Prayer VI (01:31)
15. Lord Give Me A Sign (03:28)
 
REM GENRE Rap
REM DATE 2006
REM DISCID C70CB90F
REM COMMENT "ExactAudioCopy v1.6"
PERFORMER "DMX"
TITLE "Year Of The Dog... Again"
REM COMPOSER ""
FILE "01. Intro.wav" WAVE
TRACK 01 AUDIO
TITLE "Intro"
PERFORMER "DMX"
REM COMPOSER "Dame Grease"
INDEX 01 00:00:00
FILE "02. We In Here (Feat. Swizz Beatz).wav" WAVE
TRACK 02 AUDIO
TITLE "We In Here (Feat. Swizz Beatz)"
PERFORMER "DMX"
REM COMPOSER "Swizz Beatz"
INDEX 01 00:00:00
FILE "03. I Run Shit (Feat. Big Stan).wav" WAVE
TRACK 03 AUDIO
TITLE "I Run Shit (Feat. Big Stan)"
PERFORMER "DMX"
REM COMPOSER "Swizz Beatz"
INDEX 01 00:00:00
FILE "04. Come Thru (Move) (Feat. Busta Rhymes, Swizz Beatz).wav" WAVE
TRACK 04 AUDIO
TITLE "Come Thru (Move) (Feat. Busta Rhymes, Swizz Beatz)"
PERFORMER "DMX"
REM COMPOSER "Swizz Beatz"
INDEX 01 00:00:00
FILE "05. It's Personal (Feat. Styles P, Jadakiss).wav" WAVE
TRACK 05 AUDIO
TITLE "It's Personal (Feat. Styles P, Jadakiss)"
PERFORMER "DMX"
REM COMPOSER "Tuneheadz"
INDEX 01 00:00:00
FILE "06. Baby Motha.wav" WAVE
TRACK 06 AUDIO
TITLE "Baby Motha "
PERFORMER "DMX"
REM COMPOSER "Swizz Beatz"
INDEX 01 00:00:00
FILE "07. Dog Love (Feat. Amerie, Janyce).wav" WAVE
TRACK 07 AUDIO
TITLE "Dog Love (Feat. Amerie, Janyce)"
PERFORMER "DMX"
REM COMPOSER "Eddie Timmons, Chad Elliott"
INDEX 01 00:00:00
FILE "08. Wrong Or Right (I'm Tired) (Feat. Bzr Royale).wav" WAVE
TRACK 08 AUDIO
TITLE "Wrong Or Right (I'm Tired) (Feat. Bzr Royale)"
PERFORMER "DMX"
REM COMPOSER "Elite"
INDEX 01 00:00:00
FILE "09. Give 'Em What They Want.wav" WAVE
TRACK 09 AUDIO
TITLE "Give 'Em What They Want "
PERFORMER "DMX"
REM COMPOSER "Scott Storch"
INDEX 01 00:00:00
FILE "10. Walk These Dogs (Feat. Kashmir).wav" WAVE
TRACK 10 AUDIO
TITLE "Walk These Dogs (Feat. Kashmir)"
PERFORMER "DMX"
REM COMPOSER "Dame Grease"
INDEX 01 00:00:00
FILE "11. Blown Away (Feat. Jinx Da Juvy, Janyce).wav" WAVE
TRACK 11 AUDIO
TITLE "Blown Away (Feat. Jinx Da Juvy, Janyce)"
PERFORMER "DMX"
REM COMPOSER "Divine Bars"
INDEX 01 00:00:00
FILE "12. Goodbye.wav" WAVE
TRACK 12 AUDIO
TITLE "Goodbye "
PERFORMER "DMX"
REM COMPOSER "Da Gutta Fam"
INDEX 01 00:00:00
FILE "13. Life Be My Song.wav" WAVE
TRACK 13 AUDIO
TITLE "Life Be My Song "
PERFORMER "DMX"
REM COMPOSER "Dame Grease"
INDEX 01 00:00:00
FILE "14. The Prayer VI.wav" WAVE
TRACK 14 AUDIO
TITLE "The Prayer VI"
PERFORMER "DMX"
REM COMPOSER "DMX"
INDEX 01 00:00:00
FILE "15. Lord Give Me A Sign.wav" WAVE
TRACK 15 AUDIO
TITLE "Lord Give Me A Sign"
PERFORMER "DMX"
REM COMPOSER "Scott Storch"
INDEX 01 00:00:00
 
Cue Corrector v. 10.2.3 / b. 2100 (Oct. 27, 2023)
DMX / Year Of The Dog... Again

Folder: (2006) DMX - Year Of The Dog... Again (FLAC)
Audio files:
01. Intro.flac [01:32.960; FLAC 894 kbps 16 bit \ 44100 Hz stereo; 9.92 MB (10 399 692 B)]
02. We In Here (Feat. Swizz Beatz).flac [03:54.707; FLAC 952 kbps 16 bit \ 44100 Hz stereo; 26.66 MB (27 953 667 B)]
03. I Run Shit (Feat. Big Stan).flac [03:56.760; FLAC 972 kbps 16 bit \ 44100 Hz stereo; 27.46 MB (28 791 570 B)]
04. Come Thru (Move) (Feat. Busta Rhymes, Swizz Beatz).flac [03:42.000; FLAC 927 kbps 16 bit \ 44100 Hz stereo; 24.53 MB (25 725 628 B)]
05. It's Personal (Feat. Styles P, Jadakiss).flac [03:44.267; FLAC 911 kbps 16 bit \ 44100 Hz stereo; 24.36 MB (25 544 041 B)]
06. Baby Motha.flac [04:41.307; FLAC 995 kbps 16 bit \ 44100 Hz stereo; 33.40 MB (35 021 528 B)]
07. Dog Love (Feat. Amerie, Janyce).flac [03:42.960; FLAC 954 kbps 16 bit \ 44100 Hz stereo; 25.36 MB (26 594 925 B)]
08. Wrong Or Right (I'm Tired) (Feat. Bzr Royale).flac [05:24.507; FLAC 810 kbps 16 bit \ 44100 Hz stereo; 31.35 MB (32 868 022 B)]
09. Give 'Em What They Want.flac [02:46.693; FLAC 954 kbps 16 bit \ 44100 Hz stereo; 18.96 MB (19 882 323 B)]
10. Walk These Dogs (Feat. Kashmir).flac [02:56.640; FLAC 1058 kbps 16 bit \ 44100 Hz stereo; 22.30 MB (23 382 142 B)]
11. Blown Away (Feat. Jinx Da Juvy, Janyce).flac [04:02.893; FLAC 972 kbps 16 bit \ 44100 Hz stereo; 28.15 MB (29 514 322 B)]
12. Goodbye.flac [04:50.107; FLAC 1034 kbps 16 bit \ 44100 Hz stereo; 35.77 MB (37 508 730 B)]
13. Life Be My Song.flac [04:02.427; FLAC 969 kbps 16 bit \ 44100 Hz stereo; 28.03 MB (29 389 642 B)]
14. The Prayer VI.flac [01:30.800; FLAC 697 kbps 16 bit \ 44100 Hz stereo; 7.55 MB (7 921 589 B)]
15. Lord Give Me A Sign.flac [03:28.467; FLAC 957 kbps 16 bit \ 44100 Hz stereo; 23.80 MB (24 955 756 B)]

Accuracy: -m0

File 01. Intro - 100% CDDA [01:32:72]
File 02. We In Here (Feat. Swizz Beatz) - 100% CDDA [03:54:53]
File 03. I Run Shit (Feat. Big Stan) - 99% CDDA [03:56:57]
File 04. Come Thru (Move) (Feat. Busta Rhymes, Swizz Beatz) - 95% MPEG [03:42:00]
File 05. It's Personal (Feat. Styles P, Jadakiss) - 100% CDDA [03:44:20]
File 06. Baby Motha - 99% CDDA [04:41:23]
File 07. Dog Love (Feat. Amerie, Janyce) - 100% CDDA [03:42:72]
File 08. Wrong Or Right (I'm Tired) (Feat. Bzr Royale) - 100% CDDA [05:24:38]
File 09. Give 'Em What They Want - 100% CDDA [02:46:52]
File 10. Walk These Dogs (Feat. Kashmir) - 100% CDDA [02:56:48]
File 11. Blown Away (Feat. Jinx Da Juvy, Janyce) - 100% CDDA [04:02:67]
File 12. Goodbye - 100% CDDA [04:50:08]
File 13. Life Be My Song - 100% CDDA [04:02:32]
File 14. The Prayer VI - 100% CDDA [01:30:60]
File 15. Lord Give Me A Sign - 100% CDDA [03:28:35]
Summary:
These tracks looks like CDDA with probability 100%.


ANALYZER:
auCDtect: CD records authenticity detector, version 0.8.2
Copyright (c) 2004 Oleg Berngardt. All rights reserved.
Copyright (c) 2004 Alexander Djourik. All rights reserved.

Time elapsed: 1 m 12 s
Log created at February 10, 2024 16:00:43

=== 648D9F261B30B8396A3A76AE66746EBC62FE175506114F80CB22C1F7AC87C5F6 ===
"Year Of The Dog Again" - DMX, 1 2006 . We In Here Lord Give Me a Sign. 125 000 , Billboard 200 -.[1] DMX, Def Jam, , Billboard 200 ( DMX ). DMX , . Pump Ya Fist (feat. Swizz Beatz) , - , .
(): Def Jam Recordings, Bloodline Records, Ruff Ryders
: 00602438299041
: 00:39:49


:
01. Thats My Dog (Feat. The LOX, Swizz Beatz) (05:06)
02. Bath Salts (Feat. Jay-Z, Nas) (03:00)
03. Dogs Out (Feat. Lil Wayne, Swizz Beatz) (02:46)
04. Money Money Money (Feat. Moneybagg Yo) (02:09)
05. Hold Me Down (Feat. Alicia Keys) (03:39)
06. Skyscrapers (Feat. Bono) (03:25)
07. Stick Up (Skit) (Feat. Cross, INFRARED, Icepick) (00:47)
08. Hood Blues (Feat. Westside Gunn, Benny The Butcher, Conway The Machine) (04:36)
09. Take Control (Feat. Snoop Dogg) (03:51)
10. Walking In The Rain (Feat. Nas, Exodus Simmons, dEnAuN) (04:00)
11. Exodus (Skit) (00:21)
12. Letter To My Son (Call Your Father) (Feat. Usher, Brian King Joseph) (04:05)
13. Prayer (02:02)
 
REM GENRE Rap
REM DATE 2021
REM DISCID 8E09540D
REM COMMENT "ExactAudioCopy v1.6"
PERFORMER "DMX"
TITLE "Exodus"
REM COMPOSER ""
FILE "01. Thats My Dog (Feat. The LOX, Swizz Beatz).wav" WAVE
TRACK 01 AUDIO
TITLE "Thats My Dog (Feat. The LOX, Swizz Beatz)"
PERFORMER "DMX"
REM COMPOSER "AraabMUZIK, Swizz Beatz"
FLAGS DCP
INDEX 01 00:00:00
FILE "02. Bath Salts (Feat. Jay-Z, Nas).wav" WAVE
TRACK 02 AUDIO
TITLE "Bath Salts (Feat. Jay-Z, Nas)"
PERFORMER "DMX"
REM COMPOSER "Prime Maximus, Swizz Beatz"
FLAGS DCP
INDEX 01 00:00:00
FILE "03. Dogs Out (Feat. Lil Wayne, Swizz Beatz).wav" WAVE
TRACK 03 AUDIO
TITLE "Dogs Out (Feat. Lil Wayne, Swizz Beatz)"
PERFORMER "DMX"
REM COMPOSER "AraabMUZIK, Swizz Beatz"
FLAGS DCP
INDEX 01 00:00:00
FILE "04. Money Money Money (Feat. Moneybagg Yo).wav" WAVE
TRACK 04 AUDIO
TITLE "Money Money Money (Feat. Moneybagg Yo)"
PERFORMER "DMX"
REM COMPOSER "Swizz Beatz"
FLAGS DCP
INDEX 01 00:00:00
FILE "05. Hold Me Down (Feat. Alicia Keys).wav" WAVE
TRACK 05 AUDIO
TITLE "Hold Me Down (Feat. Alicia Keys)"
PERFORMER "DMX"
REM COMPOSER "Swizz Beatz"
FLAGS DCP
INDEX 01 00:00:00
FILE "06. Skyscrapers (Feat. Bono).wav" WAVE
TRACK 06 AUDIO
TITLE "Skyscrapers (Feat. Bono)"
PERFORMER "DMX"
REM COMPOSER "Musicman Ty, Jerry Duplessis, Arden Altino, Swizz Beatz"
FLAGS DCP
INDEX 01 00:00:00
FILE "07. Stick Up (Skit) (Feat. Cross, INFRARED, Icepick).wav" WAVE
TRACK 07 AUDIO
TITLE "Stick Up (Skit) (Feat. Cross, INFRARED, Icepick)"
PERFORMER "DMX"
REM COMPOSER "Swizz Beatz"
FLAGS DCP
INDEX 01 00:00:00
FILE "08. Hood Blues (Feat. Westside Gunn, Benny The Butcher, Conway The Machine).wav" WAVE
TRACK 08 AUDIO
TITLE "Hood Blues (Feat. Westside Gunn, Benny The Butcher, Conway The Machine)"
PERFORMER "DMX"
REM COMPOSER "Avenue Beatz, Swizz Beatz"
FLAGS DCP
INDEX 01 00:00:00
FILE "09. Take Control (Feat. Snoop Dogg).wav" WAVE
TRACK 09 AUDIO
TITLE "Take Control (Feat. Snoop Dogg)"
PERFORMER "DMX"
REM COMPOSER ".dEnAun, Swizz Beatz"
FLAGS DCP
INDEX 01 00:00:00
FILE "10. Walking In The Rain (Feat. Nas, Exodus Simmons, dEnAuN).wav" WAVE
TRACK 10 AUDIO
TITLE "Walking In The Rain (Feat. Nas, Exodus Simmons, dEnAuN)"
PERFORMER "DMX"
REM COMPOSER "SHROOM, Swizz Beatz, .dEnAun"
FLAGS DCP
INDEX 01 00:00:00
FILE "11. Exodus (Skit).wav" WAVE
TRACK 11 AUDIO
TITLE "Exodus (Skit)"
PERFORMER "DMX"
REM COMPOSER "Swizz Beatz"
FLAGS DCP
INDEX 01 00:00:00
FILE "12. Letter To My Son (Call Your Father) (Feat. Usher, Brian King Joseph).wav" WAVE
TRACK 12 AUDIO
TITLE "Letter To My Son (Call Your Father) (Feat. Usher, Brian King Joseph)"
PERFORMER "DMX"
REM COMPOSER "Musicman Ty, Swizz Beatz"
FLAGS DCP
INDEX 01 00:00:00
FILE "13. Prayer.wav" WAVE
TRACK 13 AUDIO
TITLE "Prayer"
PERFORMER "DMX"
REM COMPOSER "BoogzDaBeast, Fonzworth Bentley, Kanye West"
FLAGS DCP
INDEX 01 00:00:00
 
CUE Corrector v. 8.4.2 / b. 1055 (Sep. 22, 2021)
DMX / Exodus

Folder: (2021) Exodus
Audio files:
01. Thats My Dog (Feat. The LOX, Swizz Beatz).flac [05:06.480; FLAC 911 kbps 16 bit \ 44100 Hz stereo; 33,32 MB (34 935 096 B)]
02. Bath Salts (Feat. Jay‐Z, Nas).flac [03:00.013; FLAC 846 kbps 16 bit \ 44100 Hz stereo; 18,18 MB (19 058 223 B)]
03. Dogs Out (Feat. Lil Wayne, Swizz Beatz).flac [02:45.813; FLAC 960 kbps 16 bit \ 44100 Hz stereo; 18,98 MB (19 900 752 B)]
04. Money Money Money (Feat. Moneybagg Yo).flac [02:08.893; FLAC 985 kbps 16 bit \ 44100 Hz stereo; 15,14 MB (15 874 918 B)]
05. Hold Me Down (Feat. Alicia Keys).flac [03:39.200; FLAC 976 kbps 16 bit \ 44100 Hz stereo; 25,52 MB (26 756 345 B)]
06. Skyscrapers (Feat. Bono).flac [03:25.187; FLAC 1012 kbps 16 bit \ 44100 Hz stereo; 24,76 MB (25 967 739 B)]
07. Stick Up (Skit) (Feat. Cross, INFRARED, Icepick).flac [00:47.160; FLAC 853 kbps 16 bit \ 44100 Hz stereo; 4,80 MB (5 031 812 B)]
08. Hood Blues (Feat. Westside Gunn, Benny The Butcher, Conway The Machine).flac [04:36.213; FLAC 835 kbps 16 bit \ 44100 Hz stereo; 27,52 MB (28 858 315 B)]
09. Take Control (Feat. Snoop Dogg).flac [03:51.213; FLAC 883 kbps 16 bit \ 44100 Hz stereo; 24,34 MB (25 526 071 B)]
10. Walking In The Rain (Feat. Nas, Exodus Simmons, dEnAuN).flac [03:59.693; FLAC 925 kbps 16 bit \ 44100 Hz stereo; 26,45 MB (27 737 304 B)]
11. Exodus (Skit).flac [00:20.707; FLAC 586 kbps 16 bit \ 44100 Hz stereo; 1,45 MB (1 517 364 B)]
12. Letter To My Son (Call Your Father) (Feat. Usher, Brian King Joseph).flac [04:05.293; FLAC 818 kbps 16 bit \ 44100 Hz stereo; 23,94 MB (25 105 292 B)]
13. Prayer.flac [02:02.160; FLAC 487 kbps 16 bit \ 44100 Hz stereo; 7,10 MB (7 444 974 B)]

Accuracy: -m0

File 01. Thats My Dog (Feat. The LOX, Swizz Beatz) - 100% CDDA [05:06:36]
File 02. Bath Salts (Feat. Jay‐Z, Nas) - 100% CDDA [03:00:01]
File 03. Dogs Out (Feat. Lil Wayne, Swizz Beatz) - 100% CDDA [02:45:61]
File 04. Money Money Money (Feat. Moneybagg Yo) - 100% CDDA [02:08:67]
File 05. Hold Me Down (Feat. Alicia Keys) - 100% CDDA [03:39:15]
File 06. Skyscrapers (Feat. Bono) - 100% CDDA [03:25:14]
File 07. Stick Up (Skit) (Feat. Cross, INFRARED, Icepick) - 100% CDDA [00:47:12]
File 08. Hood Blues (Feat. Westside Gunn, Benny The Butcher, Conway The Machine) - 100% CDDA [04:36:16]
File 09. Take Control (Feat. Snoop Dogg) - 100% CDDA [03:51:16]
File 10. Walking In The Rain (Feat. Nas, Exodus Simmons, dEnAuN) - 100% CDDA [03:59:52]
File 11. Exodus (Skit) - 89% MPEG [00:20:53]
File 12. Letter To My Son (Call Your Father) (Feat. Usher, Brian King Joseph) - 100% CDDA [04:05:22]
File 13. Prayer - 89% MPEG [02:02:12]
Summary:
These tracks looks like CDDA with probability 100%.


ANALYZER:
auCDtect: CD records authenticity detector, version 0.8.2
Copyright (c) 2004 Oleg Berngardt. All rights reserved.
Copyright (c) 2004 Alexander Djourik. All rights reserved.

Time elapsed: 1 m 31 s
Log created at October 13, 2022 22:58:54

=== 976AC3168D2F130CFED4461FD3D12F30B42CBA1765137DCD0607442E5570116C ===
"Exodus" - DMX. 28 2021 Def Jam Recordings. DMX, Undisputed, 2012 . , Def Jam Grand Champ 2003

Original Soundtrack

(): Bloodline Records
: UICD 6064
: 01:13:46


:
01. DMX - X Gon Give It To Ya (03:39)
02. Eminem - Go To Sleep (Feat. DMX, Obie Trice) (04:42)
03. Bazaar Royale - Whats It All For? (03:50)
04. G‐Unit - Follow Me Gangster (03:31)
05. Capone-N-Noreaga - Stompdashitoutu (Feat. M.O.P.) (03:04)
06. Comp - Do Sumptin (04:08)
07. Foxy Brown - My Life (Cradle 2 The Grave) (Feat. Althea) (04:15)
08. Drag‐On - Fireman (02:57)
09. Joe Budden - Drop Drop (04:17)
10. Clipse - Im Serious (04:13)
11. DMX - Right/Wrong (03:46)
12. Jinx & Loose - It's Gon Be What Its Gon Be (03:01)
13. Big Stan - Hand That Rocks The Cradle (04:13)
14. Baby - Wont Be Coming Back (Feat. Lac, Mannie Fresh) (04:11)
15. Fat Joe - C2G (Feat. Youngn' Restless) (04:13)
16. Kashmir - Focus (03:57)
17. Profit - Slangin Dem Thangs (04:40)
18. Jinx Da Juvy - Off The Hook (04:09)
19. DMX - Getting Down (Feat. Bazaar Royale, Kashmir, Big Stan) (02:57)
 
REM GENRE "Original Soundtrack"
REM DATE 2003
REM DISCID F1114913
REM COMMENT "ExactAudioCopy v1.6"
PERFORMER ""
TITLE "Cradle 2 The Grave"
REM COMPOSER ""
FILE "01. DMX - X Gon Give It To Ya.wav" WAVE
TRACK 01 AUDIO
TITLE "X Gon Give It To Ya"
PERFORMER "DMX"
REM COMPOSER "Shatek"
INDEX 01 00:00:00
FILE "02. Eminem - Go To Sleep (Feat. DMX, Obie Trice).wav" WAVE
TRACK 02 AUDIO
TITLE "Go To Sleep (Feat. DMX, Obie Trice)"
PERFORMER "Eminem"
REM COMPOSER "Eminem"
INDEX 01 00:00:00
FILE "03. Bazaar Royale - Whats It All For.wav" WAVE
TRACK 03 AUDIO
TITLE "Whats It All For?"
PERFORMER "Bazaar Royale"
REM COMPOSER "Shatek"
INDEX 01 00:00:00
FILE "04. G-Unit - Follow Me Gangster.wav" WAVE
TRACK 04 AUDIO
TITLE "Follow Me Gangster"
PERFORMER "G-Unit"
REM COMPOSER "Steven Lost Spirit Dorsian, Kareem Reemo Frazier"
INDEX 01 00:00:00
FILE "05. Capone-N-Noreaga - Stompdashitoutu (Feat. M.O.P.).wav" WAVE
TRACK 05 AUDIO
TITLE "Stompdashitoutu (Feat. M.O.P.)"
PERFORMER "Capone-N-Noreaga"
REM COMPOSER "Tony Pizarro & Flip Matrix"
INDEX 01 00:00:00
FILE "06. Comp - Do Sumptin.wav" WAVE
TRACK 06 AUDIO
TITLE "Do Sumptin"
PERFORMER "Comp"
REM COMPOSER "Leroy Austin, Jay Funk"
INDEX 01 00:00:00
FILE "07. Foxy Brown - My Life (Cradle 2 The Grave) (Feat. Althea).wav" WAVE
TRACK 07 AUDIO
TITLE "My Life (Cradle 2 The Grave) (Feat. Althea)"
PERFORMER "Foxy Brown"
REM COMPOSER "Pretty Boy"
INDEX 01 00:00:00
FILE "08. Drag-On - Fireman.wav" WAVE
TRACK 08 AUDIO
TITLE "Fireman"
PERFORMER "Drag-On"
REM COMPOSER "Elite"
INDEX 01 00:00:00
TRACK 09 AUDIO
TITLE "Drop Drop"
PERFORMER "Joe Budden"
REM COMPOSER "Whiteboy"
INDEX 00 02:55:39
FILE "09. Joe Budden - Drop Drop.wav" WAVE
INDEX 01 00:00:00
FILE "10. Clipse - Im Serious.wav" WAVE
TRACK 10 AUDIO
TITLE "Im Serious"
PERFORMER "Clipse"
REM COMPOSER "Paperchase Inc"
INDEX 01 00:00:00
FILE "11. DMX - Right,Wrong.wav" WAVE
TRACK 11 AUDIO
TITLE "Right/Wrong"
PERFORMER "DMX"
REM COMPOSER "MONO, DJ Envy"
INDEX 01 00:00:00
FILE "12. Jinx & Loose - It's Gon Be What Its Gon Be.wav" WAVE
TRACK 12 AUDIO
TITLE "It's Gon Be What Its Gon Be"
PERFORMER "Jinx & Loose"
REM COMPOSER "Konkrete Kaos"
INDEX 01 00:00:00
FILE "13. Big Stan - Hand That Rocks The Cradle.wav" WAVE
TRACK 13 AUDIO
TITLE "Hand That Rocks The Cradle"
PERFORMER "Big Stan"
REM COMPOSER "Dame Grease"
INDEX 01 00:00:00
FILE "14. Baby - Wont Be Coming Back (Feat. Lac, Mannie Fresh).wav" WAVE
TRACK 14 AUDIO
TITLE "Wont Be Coming Back (Feat. Lac, Mannie Fresh)"
PERFORMER "Baby"
REM COMPOSER "Mannie Fresh"
INDEX 01 00:00:00
FILE "15. Fat Joe - C2G (Feat. Youngn' Restless).wav" WAVE
TRACK 15 AUDIO
TITLE "C2G (Feat. Youngn' Restless)"
PERFORMER "Fat Joe"
REM COMPOSER "Shatek"
INDEX 01 00:00:00
FILE "16. Kashmir - Focus.wav" WAVE
TRACK 16 AUDIO
TITLE "Focus"
PERFORMER "Kashmir"
REM COMPOSER "Mac G"
INDEX 01 00:00:00
FILE "17. Profit - Slangin Dem Thangs.wav" WAVE
TRACK 17 AUDIO
TITLE "Slangin Dem Thangs"
PERFORMER "Profit"
REM COMPOSER "Kato"
INDEX 01 00:00:00
FILE "18. Jinx Da Juvy - Off The Hook.wav" WAVE
TRACK 18 AUDIO
TITLE "Off The Hook"
PERFORMER "Jinx Da Juvy"
REM COMPOSER "The Architechs"
INDEX 01 00:00:00
TRACK 19 AUDIO
TITLE "Getting Down (Feat. Bazaar Royale, Kashmir, Big Stan)"
PERFORMER "DMX"
REM COMPOSER "MONO, DJ Envy"
INDEX 00 04:07:74
FILE "19. DMX - Getting Down (Feat. Bazaar Royale, Kashmir, Big Stan).wav" WAVE
INDEX 01 00:00:00
 
Cue Corrector v. 10.2.3 / b. 2100 (Oct. 27, 2023)
Various Artists / Cradle 2 The Grave

Folder: VA - Cradle 2 The Grave (Original Motion Picture Soundtrack) (2003) (FLAC)
Audio files:
01. DMX - X Gon Give It To Ya.flac [03:39.027; FLAC 940 kbps 16 bit \ 44100 Hz stereo; 24.57 MB (25 761 547 B)]
02. Eminem - Go To Sleep (Feat. DMX, Obie Trice).flac [04:42.040; FLAC 902 kbps 16 bit \ 44100 Hz stereo; 30.33 MB (31 807 506 B)]
03. Bazaar Royale - Whats It All For.flac [03:50.293; FLAC 1065 kbps 16 bit \ 44100 Hz stereo; 29.26 MB (30 677 008 B)]
04. G‐Unit - Follow Me Gangster.flac [03:31.373; FLAC 918 kbps 16 bit \ 44100 Hz stereo; 23.14 MB (24 267 319 B)]
05. Capone-N-Noreaga - Stompdashitoutu (Feat. M.O.P.).flac [03:03.693; FLAC 992 kbps 16 bit \ 44100 Hz stereo; 21.74 MB (22 791 728 B)]
06. Comp - Do Sumptin.flac [04:08.240; FLAC 910 kbps 16 bit \ 44100 Hz stereo; 26.93 MB (28 238 018 B)]
07. Foxy Brown - My Life (Cradle 2 The Grave) (Feat. Althea).flac [04:15.027; FLAC 986 kbps 16 bit \ 44100 Hz stereo; 30.00 MB (31 452 708 B)]
08. Drag‐On - Fireman.flac [02:56.933; FLAC 967 kbps 16 bit \ 44100 Hz stereo; 20.40 MB (21 393 974 B)]
09. Joe Budden - Drop Drop.flac [04:17.173; FLAC 944 kbps 16 bit \ 44100 Hz stereo; 28.94 MB (30 347 189 B)]
10. Clipse - Im Serious.flac [04:12.827; FLAC 1007 kbps 16 bit \ 44100 Hz stereo; 30.36 MB (31 839 394 B)]
11. DMX - Right,Wrong.flac [03:46.240; FLAC 1020 kbps 16 bit \ 44100 Hz stereo; 27.52 MB (28 852 612 B)]
12. Jinx & Loose - It's Gon Be What Its Gon Be.flac [03:01.360; FLAC 871 kbps 16 bit \ 44100 Hz stereo; 18.85 MB (19 765 377 B)]
13. Big Stan - Hand That Rocks The Cradle.flac [04:13.400; FLAC 920 kbps 16 bit \ 44100 Hz stereo; 27.81 MB (29 157 580 B)]
14. Baby - Wont Be Coming Back (Feat. Lac, Mannie Fresh).flac [04:10.907; FLAC 850 kbps 16 bit \ 44100 Hz stereo; 25.44 MB (26 672 326 B)]
15. Fat Joe - C2G (Feat. Youngn' Restless).flac [04:13.267; FLAC 941 kbps 16 bit \ 44100 Hz stereo; 28.43 MB (29 808 995 B)]
16. Kashmir - Focus.flac [03:56.933; FLAC 928 kbps 16 bit \ 44100 Hz stereo; 26.21 MB (27 486 209 B)]
17. Profit - Slangin Dem Thangs.flac [04:40.160; FLAC 997 kbps 16 bit \ 44100 Hz stereo; 33.31 MB (34 923 749 B)]
18. Jinx Da Juvy - Off The Hook.flac [04:09.467; FLAC 1027 kbps 16 bit \ 44100 Hz stereo; 30.55 MB (32 035 872 B)]
19. DMX - Getting Down (Feat. Bazaar Royale, Kashmir, Big Stan).flac [02:57.000; FLAC 1049 kbps 16 bit \ 44100 Hz stereo; 22.15 MB (23 224 982 B)]

Accuracy: -m0

File 01. DMX - X Gon Give It To Ya - 100% CDDA [03:39:02]
File 02. Eminem - Go To Sleep (Feat. DMX, Obie Trice) - 100% CDDA [04:42:03]
File 03. Bazaar Royale - Whats It All For - 100% CDDA [03:50:22]
File 04. G‐Unit - Follow Me Gangster - 100% CDDA [03:31:28]
File 05. Capone-N-Noreaga - Stompdashitoutu (Feat. M.O.P.) - 100% CDDA [03:03:52]
File 06. Comp - Do Sumptin - 100% CDDA [04:08:18]
File 07. Foxy Brown - My Life (Cradle 2 The Grave) (Feat. Althea) - 95% MPEG [04:15:02]
File 08. Drag‐On - Fireman - 100% CDDA [02:56:70]
File 09. Joe Budden - Drop Drop - 100% CDDA [04:17:13]
File 10. Clipse - Im Serious - 100% CDDA [04:12:62]
File 11. DMX - Right,Wrong - 100% CDDA [03:46:18]
File 12. Jinx & Loose - It's Gon Be What Its Gon Be - 100% CDDA [03:01:27]
File 13. Big Stan - Hand That Rocks The Cradle - 100% CDDA [04:13:30]
File 14. Baby - Wont Be Coming Back (Feat. Lac, Mannie Fresh) - 99% CDDA [04:10:68]
File 15. Fat Joe - C2G (Feat. Youngn' Restless) - 99% CDDA [04:13:20]
File 16. Kashmir - Focus - 100% CDDA [03:56:70]
File 17. Profit - Slangin Dem Thangs - 100% CDDA [04:40:12]
File 18. Jinx Da Juvy - Off The Hook - 100% CDDA [04:09:35]
File 19. DMX - Getting Down (Feat. Bazaar Royale, Kashmir, Big Stan) - 100% CDDA [02:57:00]
Summary:
These tracks looks like CDDA with probability 100%.


ANALYZER:
auCDtect: CD records authenticity detector, version 0.8.2
Copyright (c) 2004 Oleg Berngardt. All rights reserved.
Copyright (c) 2004 Alexander Djourik. All rights reserved.

Time elapsed: 1 m 53 s
Log created at February 11, 2024 23:42:15

=== 8817D0B163A0F880BDCF228DD79B36EDE11A35703C5B054D05DBCA8FF2C15FB4 ===
́ ́ (. Cradle 2 the Grave) - , DMX. 28 2003 .

- "It's Dark And Hell Is Hot", "Flesh Of My Flesh, Blood Of My Blood" , "...And Then There Was X";
- ;
- 121 .
- "Year Of The Dog... Again";
- 64 .
- "Cradle 2 the Grave" ;
- 30 .
Download

( )!

  ·   torrent ()  ·  

info []  [] 
:    

: 12- 16:00

: GMT + 4