Ошибка

(Rap, Hip-Hop) [CD] Big L - Lifestylez Ov Da Poor & Dangerous - 1995, FLAC (tracks+.cue), lossless

Ответить на тему
 
Автор Сообщение

F.A.N.T.O.M

Пол: Пол:Муж

Стаж: 6 месяцев 21 день

Сообщений: 475

Россия
Рейтинг

post 24-Июн-2024 23:12 0[+]

[Цитировать] 

Big L - Lifestylez Ov Da Poor & Dangerous

Жанр: Rap, Hip-Hop
Носитель: CD
Страна-производитель диска: Mexico
Год издания: 1995
Издатель (лейбл): Columbia
Номер по каталогу: CK 53795
Страна: New York City, U.S.
Аудиокодек: FLAC (*.flac)
Кодек: tracks+.cue
Битрейт: lossless
Продолжительность: 00:48:49
Источник (релизер): Собственный рип
Наличие сканов в содержимом раздачи: да
Треклист:
01. Put It On (Feat. Kid Capri) (03:38)
02. M.V.P. (03:39)
03. No Endz, No Skinz (Feat. Show) (03:29)
04. 8 Iz Enuff (Feat. Cam’ron, McGruff, Terra, Buddah Bless, Big Twan, Trooper J, Mike Boogie) (04:59)
05. All Black (04:21)
06. Danger Zone (Feat. McGruff) (03:37)
07. Street Struck (04:10)
08. Da Graveyard (Feat. Jay-Z, Lord Finesse, Grand Daddy I.U., Microphone Nut, Party Arty) (05:24)
09. Lifestylez Ov Da Poor & Dangerous (03:21)
10. I Don’t Understand It (04:21)
11. Fed Up With The Bullshit (03:52)
12. Let ’Em Have It “L” (03:58)
 
Exact Audio Copy V1.6 from 23. October 2020

Отчёт EAC об извлечении, выполненном 29. января 2023, 14:27

Big L / Lifestylez Ov Da Poor & Dangerous

Дисковод: ASUS DRW-24D5MT Adapter: 1 ID: 0

Режим чтения : Достоверность
Использование точного потока : Да
Отключение кэша аудио : Да
Использование указателей C2 : Нет

Коррекция смещения при чтении : 6
Способность читать области Lead-in и Lead-out : Нет
Заполнение пропущенных сэмплов тишиной : Да
Удаление блоков с тишиной в начале и конце : Нет
При вычислениях CRC использовались нулевые сэмплы : Да
Интерфейс : Встроенный Win32-интерфейс для Win NT/2000
Обработка зазоров : Добавлено к предыдущему треку

Выходной формат : Пользовательский кодировщик
Выбранный битрейт : 768 kBit/s
Качество : Высокий
Добавление ID3-тега : Нет
Утилита сжатия : D:\Program Files (x86)\foobar2000\encoders\flac.exe
Дополнительные параметры : -V -8 -T "ARTIST=%artist%" -T "TITLE=%title%" -T "ALBUM=%albumtitle%" -T "DATE=%year%" -T "TRACKNUMBER=%tracknr%" -T "GENRE=%genre%" -T "BAND=%albuminterpret%" -T "ALBUMARTIST=%albuminterpret%" -T "COMPOSER=%composer%" %haslyrics%--tag-from-file=LYRICS="%lyricsfile%"%haslyrics% -T "DISCNUMBER=%cdnumber%" -T "TOTALDISCS=%totalcds%" -T "TOTALTRACKS=%numtracks%" %hascover%--picture="%coverfile%"%hascover% %source% -o %dest%

TOC извлечённого CD

Трек | Старт | Длительность | Начальный сектор | Конечный сектор
---------------------------------------------------------------------
1 | 0:00.00 | 3:37.72 | 0 | 16346
2 | 3:37.72 | 3:39.18 | 16347 | 32789
3 | 7:17.15 | 3:29.12 | 32790 | 48476
4 | 10:46.27 | 4:58.63 | 48477 | 70889
5 | 15:45.15 | 4:21.02 | 70890 | 90466
6 | 20:06.17 | 3:37.28 | 90467 | 106769
7 | 23:43.45 | 4:09.65 | 106770 | 125509
8 | 27:53.35 | 5:23.57 | 125510 | 149791
9 | 33:17.17 | 3:21.18 | 149792 | 164884
10 | 36:38.35 | 4:20.45 | 164885 | 184429
11 | 40:59.05 | 3:52.05 | 184430 | 201834
12 | 44:51.10 | 3:57.60 | 201835 | 219669

Трек 1

Имя файла D:\Мои Рипы\(1995) Big L - Lifestylez Ov Da Poor & Dangerous (FLAC)\01. Put It On (Feat. Kid Capri).wav

Длина предзазора 0:00:02.00

Пиковый уровень 99.4 %
Скорость извлечения 4.5 X
Качество трека 100.0 %
CRC теста 7D174FEB
CRC копии 7D174FEB
Точное извлечение (достоверность 10) [CAD22A4A] (AR v2)
Копирование... OK

Трек 2

Имя файла D:\Мои Рипы\(1995) Big L - Lifestylez Ov Da Poor & Dangerous (FLAC)\02. M.V.P..wav

Длина предзазора 0:00:00.25

Пиковый уровень 99.4 %
Скорость извлечения 4.9 X
Качество трека 100.0 %
CRC теста 719625C0
CRC копии 719625C0
Точное извлечение (достоверность 10) [FB8FE397] (AR v2)
Копирование... OK

Трек 3

Имя файла D:\Мои Рипы\(1995) Big L - Lifestylez Ov Da Poor & Dangerous (FLAC)\03. No Endz, No Skinz (Feat. Show).wav

Длина предзазора 0:00:00.28

Пиковый уровень 96.8 %
Скорость извлечения 4.6 X
Качество трека 99.9 %
CRC теста 49501F7D
CRC копии 49501F7D
Точное извлечение (достоверность 10) [E9979875] (AR v2)
Копирование... OK

Трек 4

Имя файла D:\Мои Рипы\(1995) Big L - Lifestylez Ov Da Poor & Dangerous (FLAC)\04. 8 Iz Enuff (Feat. Cam’ron, McGruff, Terra, Buddah Bless, Big Twan, Trooper J, Mike Boogie).wav

Длина предзазора 0:00:00.32

Пиковый уровень 98.4 %
Скорость извлечения 6.0 X
Качество трека 100.0 %
CRC теста 17DBCDAC
CRC копии 17DBCDAC
Точное извлечение (достоверность 10) [B4ACBEF2] (AR v2)
Копирование... OK

Трек 5

Имя файла D:\Мои Рипы\(1995) Big L - Lifestylez Ov Da Poor & Dangerous (FLAC)\05. All Black.wav

Пиковый уровень 96.8 %
Скорость извлечения 6.3 X
Качество трека 100.0 %
CRC теста 188A23D0
CRC копии 188A23D0
Точное извлечение (достоверность 10) [DA5DF3E5] (AR v2)
Копирование... OK

Трек 6

Имя файла D:\Мои Рипы\(1995) Big L - Lifestylez Ov Da Poor & Dangerous (FLAC)\06. Danger Zone (Feat. McGruff).wav

Длина предзазора 0:00:00.17

Пиковый уровень 99.4 %
Скорость извлечения 6.5 X
Качество трека 100.0 %
CRC теста FC127117
CRC копии FC127117
Точное извлечение (достоверность 10) [D0AC69D2] (AR v2)
Копирование... OK

Трек 7

Имя файла D:\Мои Рипы\(1995) Big L - Lifestylez Ov Da Poor & Dangerous (FLAC)\07. Street Struck.wav

Длина предзазора 0:00:00.58

Пиковый уровень 91.7 %
Скорость извлечения 6.9 X
Качество трека 100.0 %
CRC теста CA538B6F
CRC копии CA538B6F
Точное извлечение (достоверность 10) [38D0B518] (AR v2)
Копирование... OK

Трек 8

Имя файла D:\Мои Рипы\(1995) Big L - Lifestylez Ov Da Poor & Dangerous (FLAC)\08. Da Graveyard (Feat. Jay-Z, Lord Finesse, Grand Daddy I.U., Microphone Nut, Party Arty).wav

Длина предзазора 0:00:00.18

Пиковый уровень 99.0 %
Скорость извлечения 7.5 X
Качество трека 100.0 %
CRC теста 2742A4A4
CRC копии 2742A4A4
Точное извлечение (достоверность 10) [8DEE4D2B] (AR v2)
Копирование... OK

Трек 9

Имя файла D:\Мои Рипы\(1995) Big L - Lifestylez Ov Da Poor & Dangerous (FLAC)\09. Lifestylez Ov Da Poor & Dangerous.wav

Пиковый уровень 97.7 %
Скорость извлечения 7.4 X
Качество трека 100.0 %
CRC теста 4C7C99A5
CRC копии 4C7C99A5
Точное извлечение (достоверность 10) [D734C2B2] (AR v2)
Копирование... OK

Трек 10

Имя файла D:\Мои Рипы\(1995) Big L - Lifestylez Ov Da Poor & Dangerous (FLAC)\10. I Don’t Understand It.wav

Пиковый уровень 95.8 %
Скорость извлечения 7.1 X
Качество трека 99.9 %
CRC теста EC2FD13A
CRC копии EC2FD13A
Точное извлечение (достоверность 10) [0E987DC2] (AR v2)
Копирование... OK

Трек 11

Имя файла D:\Мои Рипы\(1995) Big L - Lifestylez Ov Da Poor & Dangerous (FLAC)\11. Fed Up With The Bullshit.wav

Длина предзазора 0:00:00.28

Пиковый уровень 94.4 %
Скорость извлечения 7.1 X
Качество трека 99.9 %
CRC теста 9ACF1EB3
CRC копии 9ACF1EB3
Точное извлечение (достоверность 10) [351E1287] (AR v2)
Копирование... OK

Трек 12

Имя файла D:\Мои Рипы\(1995) Big L - Lifestylez Ov Da Poor & Dangerous (FLAC)\12. Let ’Em Have It “L”.wav

Пиковый уровень 96.5 %
Скорость извлечения 8.3 X
Качество трека 100.0 %
CRC теста FE99553F
CRC копии FE99553F
Точное извлечение (достоверность 10) [BA1B6826] (AR v2)
Копирование... OK

Все треки извлечены точно

Ошибок не произошло

Конец отчёта

---- CUETools DB Plugin V2.1.6

[CTDB TOCID: h9jVyCwXO72NS_2LhNsqbE10aL0-] found
Submit result: h9jVyCwXO72NS_2LhNsqbE10aL0- has been confirmed
Track | CTDB Status
1 | (50/50) Accurately ripped
2 | (50/50) Accurately ripped
3 | (50/50) Accurately ripped
4 | (50/50) Accurately ripped
5 | (50/50) Accurately ripped
6 | (50/50) Accurately ripped
7 | (50/50) Accurately ripped
8 | (50/50) Accurately ripped
9 | (50/50) Accurately ripped
10 | (49/50) Accurately ripped
11 | (49/50) Accurately ripped
12 | (50/50) Accurately ripped

==== Контрольная сумма отчёта F8B04ADFFC4027496B84D82472494A6E43C73CB3A33C1DA77A2DB9644394A790 ====
 
REM GENRE Rap
REM DATE 1995
REM DISCID AF0B700C
REM COMMENT "ExactAudioCopy v1.6"
PERFORMER "Big L"
TITLE "Lifestylez Ov Da Poor & Dangerous"
REM COMPOSER ""
FILE "01. Put It On (Feat. Kid Capri).wav" WAVE
TRACK 01 AUDIO
TITLE "Put It On (Feat. Kid Capri)"
PERFORMER "Big L"
REM COMPOSER "Buckwild"
INDEX 01 00:00:00
TRACK 02 AUDIO
TITLE "M.V.P."
PERFORMER "Big L"
REM COMPOSER "Lord Finesse"
INDEX 00 03:37:47
FILE "02. M.V.P..wav" WAVE
INDEX 01 00:00:00
TRACK 03 AUDIO
TITLE "No Endz, No Skinz (Feat. Show)"
PERFORMER "Big L"
REM COMPOSER "Show"
INDEX 00 03:38:65
FILE "03. No Endz, No Skinz (Feat. Show).wav" WAVE
INDEX 01 00:00:00
TRACK 04 AUDIO
TITLE "8 Iz Enuff (Feat. Cam’ron, McGruff, Terra, Buddah Bless, Big Twan, Trooper J,..."
PERFORMER "Big L"
REM COMPOSER "Buckwild"
INDEX 00 03:28:55
FILE "04. 8 Iz Enuff (Feat. Cam’ron, McGruff, Terra, Buddah Bless, Big Twan, Trooper J, Mike Boogie).wav" WAVE
INDEX 01 00:00:00
FILE "05. All Black.wav" WAVE
TRACK 05 AUDIO
TITLE "All Black"
PERFORMER "Big L"
REM COMPOSER "Lord Finesse"
INDEX 01 00:00:00
TRACK 06 AUDIO
TITLE "Danger Zone (Feat. McGruff)"
PERFORMER "Big L"
REM COMPOSER "Buckwild"
INDEX 00 04:20:60
FILE "06. Danger Zone (Feat. McGruff).wav" WAVE
INDEX 01 00:00:00
TRACK 07 AUDIO
TITLE "Street Struck"
PERFORMER "Big L"
REM COMPOSER "Lord Finesse"
INDEX 00 03:36:45
FILE "07. Street Struck.wav" WAVE
INDEX 01 00:00:00
TRACK 08 AUDIO
TITLE "Da Graveyard (Feat. Jay-Z, Lord Finesse, Grand Daddy I.U., Microphone Nut, Pa..."
PERFORMER "Big L"
REM COMPOSER "Buckwild"
INDEX 00 04:09:47
FILE "08. Da Graveyard (Feat. Jay-Z, Lord Finesse, Grand Daddy I.U., Microphone Nut, Party Arty).wav" WAVE
INDEX 01 00:00:00
FILE "09. Lifestylez Ov Da Poor & Dangerous.wav" WAVE
TRACK 09 AUDIO
TITLE "Lifestylez Ov Da Poor & Dangerous"
PERFORMER "Big L"
REM COMPOSER "Lord Finesse"
INDEX 01 00:00:00
FILE "10. I Don’t Understand It.wav" WAVE
TRACK 10 AUDIO
TITLE "I Don’t Understand It"
PERFORMER "Big L"
REM COMPOSER "Show"
INDEX 01 00:00:00
TRACK 11 AUDIO
TITLE "Fed Up With The Bullshit"
PERFORMER "Big L"
REM COMPOSER "Lord Finesse"
INDEX 00 04:20:17
FILE "11. Fed Up With The Bullshit.wav" WAVE
INDEX 01 00:00:00
FILE "12. Let ’Em Have It “L”.wav" WAVE
TRACK 12 AUDIO
TITLE "Let ’Em Have It “L”"
PERFORMER "Big L"
REM COMPOSER "Craig Boogie"
INDEX 01 00:00:00
 
Cue Corrector v. 10.1.7 / b. 2062 (Nov. 07, 2022)
————————————————————————————————————————————————————————————————————————
Big L / Lifestylez Ov Da Poor & Dangerous

Folder: (1995) Big L - Lifestylez Ov Da Poor & Dangerous (FLAC)
Audio files:
01. Put It On (Feat. Kid Capri).flac [03:37.960; FLAC • 828 kbps • 16 bit \ 44100 Hz • stereo; 21.53 MB (22 575 080 B)]
02. M.V.P..flac [03:39.240; FLAC • 804 kbps • 16 bit \ 44100 Hz • stereo; 21.04 MB (22 060 448 B)]
03. No Endz, No Skinz (Feat. Show).flac [03:29.160; FLAC • 742 kbps • 16 bit \ 44100 Hz • stereo; 18.53 MB (19 425 564 B)]
04. 8 Iz Enuff (Feat. Cam’ron, McGruff, Terra, Buddah Bless, Big Twan, Trooper J, Mike Boogie).flac [04:58.840; FLAC • 732 kbps • 16 bit \ 44100 Hz • stereo; 26.09 MB (27 357 071 B)]
05. All Black.flac [04:21.027; FLAC • 862 kbps • 16 bit \ 44100 Hz • stereo; 26.83 MB (28 133 463 B)]
06. Danger Zone (Feat. McGruff).flac [03:37.373; FLAC • 743 kbps • 16 bit \ 44100 Hz • stereo; 19.26 MB (20 194 102 B)]
07. Street Struck.flac [04:09.867; FLAC • 783 kbps • 16 bit \ 44100 Hz • stereo; 23.35 MB (24 480 495 B)]
08. Da Graveyard (Feat. Jay-Z, Lord Finesse, Grand Daddy I.U., Microphone Nut, Party Arty).flac [05:23.760; FLAC • 813 kbps • 16 bit \ 44100 Hz • stereo; 31.38 MB (32 905 010 B)]
09. Lifestylez Ov Da Poor & Dangerous.flac [03:21.240; FLAC • 827 kbps • 16 bit \ 44100 Hz • stereo; 19.86 MB (20 820 808 B)]
10. I Don’t Understand It.flac [04:20.600; FLAC • 766 kbps • 16 bit \ 44100 Hz • stereo; 23.81 MB (24 962 721 B)]
11. Fed Up With The Bullshit.flac [03:52.067; FLAC • 773 kbps • 16 bit \ 44100 Hz • stereo; 21.41 MB (22 448 003 B)]
12. Let ’Em Have It “L”.flac [03:57.800; FLAC • 839 kbps • 16 bit \ 44100 Hz • stereo; 23.80 MB (24 952 736 B)]

Accuracy: -m0

File 01. Put It On (Feat. Kid Capri) - 100% CDDA [03:37:72]
File 02. M.V.P. - 100% CDDA [03:39:18]
File 03. No Endz, No Skinz (Feat. Show) - 100% CDDA [03:29:12]
File 04. 8 Iz Enuff (Feat. Cam’ron, McGruff, Terra, Buddah Bless, Big Twan, Trooper J, Mike Boogie) - 100% CDDA [04:58:63]
File 05. All Black - 100% CDDA [04:21:02]
File 06. Danger Zone (Feat. McGruff) - 100% CDDA [03:37:28]
File 07. Street Struck - 95% MPEG [04:09:65]
File 08. Da Graveyard (Feat. Jay-Z, Lord Finesse, Grand Daddy I.U., Microphone Nut, Party Arty) - 100% CDDA [05:23:57]
File 09. Lifestylez Ov Da Poor & Dangerous - 100% CDDA [03:21:18]
File 10. I Don’t Understand It - 100% CDDA [04:20:45]
File 11. Fed Up With The Bullshit - 100% CDDA [03:52:05]
File 12. Let ’Em Have It “L” - 99% CDDA [03:57:60]
————— Summary: —————
These tracks looks like CDDA with probability 100%.
————————————————————————————————————————————————————————————————————————

ANALYZER:
auCDtect: CD records authenticity detector, version 0.8.2
Copyright (c) 2004 Oleg Berngardt. All rights reserved.
Copyright (c) 2004 Alexander Djourik. All rights reserved.

Time elapsed: 1 m 54 s
Log created at January 29, 2023 17:33:50

=== C8A74F6E29276150DE0DCA39782558148E8F7D56BF2F53D3DAB28EF0B0FA1EB4 ===
Ламонт Коулман (англ. Lamont Coleman); 30 мая 1974, Гарлем, Нью-Йорк — 15 февраля 1999, Нью-Йорк, Нью-Йорк), более известный под сценическим псевдонимом Big L - американский рэпер и автор песен, а также участник рэп-групп Children of the Corn и Diggin' in the Crates Crew.
Появившись в районе Восточный Гарлем в Нью-Йорке в первой половине 1990-х годов, Коулман стал хорошо известен среди андеграундных хип-хоп фанатов благодаря своей способности к фристайлу и в конце концов был подписан на лейбл Columbia Records, где в 1995 году он выпустил свой дебютный альбом, Lifestylez ov da Poor & Dangerous, который в настоящее время многие фанаты считают классическим. 15 февраля 1999 года неизвестный выстрелил в Коулмана девять раз в его родном Восточном Гарлеме. Он умер от полученных ран.
Он известен своей игрой слов, многие авторы в AllMusic, HipHopDX и The Source высоко ценили Коулмана за его лирический талант, и он также был описан как «один из самых многообещающих рассказчиков в истории хип-хопа».[/b][/i]
info [Профиль]  [ЛС] 
Показать сообщения:    
Ответить на тему

Текущее время: 12-Июл 15:11

Часовой пояс: GMT + 4



Вы не можете начинать темы
Вы не можете отвечать на сообщения
Вы не можете редактировать свои сообщения
Вы не можете удалять свои сообщения
Вы не можете голосовать в опросах
Вы не можете прикреплять файлы к сообщениям
Вы не можете скачивать файлы