Ошибка

(Hip-Hop) [WEB] Arrested Development - Bullets In The Chamber - 2024, FLAC (tracks), lossless

Ответить на тему
 
Автор Сообщение

F.A.N.T.O.M

Пол: Пол:Муж

Стаж: 6 месяцев 27 дней

Сообщений: 484

Россия
Рейтинг

post 21-Июн-2024 18:36 0[+]

[Цитировать] 

Arrested Development
Bullets In The Chamber
• Жанр: Hip-Hop
• Носитель: WEB
• Год издания: 2024
• Страна: USA
• Аудиокодек: FLAC (*.flac)
• Тип рипа: tracks
• Продолжительность: 01:07:39
• Источник:
• Наличие сканов: front

[align=center]
01 - Hello (00:03:29)
02 - Classy (00:04:00)
03 - Overachiever (00:02:57)
04 - Crowd Surf (00:04:02)
05 - Hour Glass (00:04:17)
06 - Still Fired Up (00:04:05)
07 - And This I Know (00:05:10)
08 - For Free (00:03:49)
09 - We Want This (To Be Ruled) (00:04:15)
10 - Ride (00:04:04)
11 - Hip Hop Saves Lives (00:03:39)
12 - Arrogance (00:03:42)
13 - Ain't Got Much To Say No More (00:03:18)
14 - Fire (00:03:56)
15 - The Meek (00:03:00)
16 - Turn The Speakers Up (00:04:41)
17 - God Bless You (00:05:09)

 
foobar2000 1.6.11 / Dynamic Range Meter 1.1.1
log date: 2024-01-16 09:22:29

--------------------------------------------------------------------------------
Analyzed: Arrested Development & April So Lyrical & Configa & Speech / Bullets In The Chamber (1)
Arrested Development & Canibus & Diana King & Skyzoo & Chris Pelcer & Configa & Speech / Bullets In The Chamber (2)
Arrested Development & Chuck D & Grandmaster Caz & Configa & Speech / Bullets In The Chamber (3)
Arrested Development & Configa & Speech & 1 Love / Bullets In The Chamber (4)
Arrested Development & Configa & Speech / Bullets In The Chamber (5-6)
Arrested Development & Doitall & 1 Love & Fareedah & Dee Wiz & Configa & Speech / Bullets In The Chamber (7)
Arrested Development & Fenixprod & Speech / Bullets In The Chamber (8)
Arrested Development & Montsho-eshe & Will Montgomery & Speech / Bullets In The Chamber (9-10)
Arrested Development & O'hene Savànt & Speech & Montsho-eshe / Bullets In The Chamber (11)
Arrested Development & Ras Kass & 1 Love & Configa & Speech / Bullets In The Chamber (12)
Arrested Development & Rasa Don & Configa & Speech / Bullets In The Chamber (13)
Arrested Development & Sol Messiah & Sa-roc & Speech & April So Lyrical & Michael Raymond Williams & 1 Love / Bullets In The Chamber (14)
Arrested Development & Sol Messiah & Speech & Mrk Sx & Twan Mack / Bullets In The Chamber (15)
Arrested Development & Speech & Configa & Kamonzi / Bullets In The Chamber (16)
Arrested Development & Speech & Configa / Bullets In The Chamber (17)
--------------------------------------------------------------------------------

DR Peak RMS Duration Track
--------------------------------------------------------------------------------
DR6 -0.10 dB -7.86 dB 3:50 08-For Free
DR8 -0.20 dB -8.69 dB 4:18 05-Hour Glass
DR7 -0.10 dB -8.31 dB 3:40 11-Hip Hop Saves Lives
DR8 -0.10 dB -8.46 dB 4:41 16-Turn The Speakers Up
DR9 -0.10 dB -9.99 dB 3:19 13-Ain't Got Much To Say No More
DR7 -0.20 dB -8.84 dB 3:56 14-Fire
DR7 -0.20 dB -8.09 dB 4:03 04-Crowd Surf
DR7 -0.07 dB -8.83 dB 3:00 15-The Meek
DR6 -0.08 dB -7.85 dB 2:58 03-Overachiever
DR6 -0.05 dB -7.18 dB 4:05 06-Still Fired Up
DR5 -0.10 dB -6.66 dB 3:43 12-Arrogance
DR7 -0.10 dB -8.51 dB 3:29 01-Hello
DR7 -0.10 dB -8.46 dB 4:00 02-Classy
DR4 -2.50 dB -8.09 dB 5:09 17-God Bless You
DR5 -0.13 dB -6.05 dB 5:10 07-And This I Know
DR6 -0.21 dB -8.65 dB 4:15 09-We Want This (To Be Ruled)
DR8 -0.10 dB -9.58 dB 4:05 10-Ride
--------------------------------------------------------------------------------

Number of tracks: 17
Official DR value: DR7

Samplerate: 44100 Hz
Channels: 2
Bits per sample: 16
Bitrate: 969 kbps
Codec: FLAC
================================================================================

 
-----------------------

DON'T MODIFY THIS FILE

-----------------------

PERFORMER: auCDtect Task Manager, ver. 1.6.0 RC1 build 1.6.0.1
Copyright (c) 2008-2010 y-soft. All rights reserved
http://y-soft.org

ANALYZER: auCDtect: CD records authenticity detector, version 0.8.2
Copyright (c) 2004 Oleg Berngardt. All rights reserved.
Copyright (c) 2004 Alexander Djourik. All rights reserved.

FILE: 17 - God Bless You.flac
Size: 34598694 Hash: 868C58634A14FE73E1C75EFFECFD56E1 Accuracy: -m40
Conclusion: CDDA 99%
Signature: 2C5E6AE862CA61D7179A254B16626AD9F97A088A
FILE: 16 - Turn The Speakers Up.flac
Size: 32256784 Hash: D2CDCE346A156B5B9E1A751B2EF3BC48 Accuracy: -m40
Conclusion: CDDA 99%
Signature: 952D44C084B2393572F086DCDCF64F3ECFE5EC87
FILE: 15 - The Meek.flac
Size: 19074373 Hash: C982E1A79E65149E809BDE83C7BAE7E8 Accuracy: -m40
Conclusion: CDDA 100%
Signature: EF1AE7A702EEBC292DBDDF9FE9CCAB77243D7F26
FILE: 14 - Fire.flac
Size: 25309223 Hash: 20A93B7DE0D9B0C715CE2FCE0AF50391 Accuracy: -m40
Conclusion: CDDA 100%
Signature: 02731AB3A7FE5A29ADE151C12AB6DEDC4A90373C
FILE: 13 - Ain't Got Much To Say No More.flac
Size: 21836115 Hash: 9F8B1BDE13ECDFFE05D4BA10CB114851 Accuracy: -m40
Conclusion: CDDA 99%
Signature: 7AB3EEAA11C9C5B588D4B31405F2A78CA920914D
FILE: 12 - Arrogance.flac
Size: 20121731 Hash: 1A1A76F53271E2FC403B2AB447C34DF2 Accuracy: -m40
Conclusion: CDDA 99%
Signature: 73CFB0E405E1CBB12036A1049A8D97920300B827
FILE: 11 - Hip Hop Saves Lives.flac
Size: 23910845 Hash: 81C1837BA052124BD0757D66133AF316 Accuracy: -m40
Conclusion: CDDA 100%
Signature: 49DAFBBA68064DA6F90AFCDA4E1F78CC9C3041E7
FILE: 10 - Ride.flac
Size: 29884949 Hash: D280282130EFD63D3BE0FD7DAD247AA9 Accuracy: -m40
Conclusion: CDDA 100%
Signature: 2224F786BB7642418B1AB236729D274E05BD5DFE
FILE: 09 - We Want This (To Be Ruled).flac
Size: 31784321 Hash: 332B19BAD0489EA4E501426963EAC169 Accuracy: -m40
Conclusion: CDDA 100%
Signature: 554325E2E9DCF314D32A0A0E0F9603D65367339E
FILE: 08 - For Free.flac
Size: 23922898 Hash: CE550B5AC404972D7B5A74F11FDE72C3 Accuracy: -m40
Conclusion: CDDA 100%
Signature: AB13F4CC0EF7A33E86A8E383EFC1AD3B2A098693
FILE: 07 - And This I Know.flac
Size: 35094358 Hash: EABDF291C0B8BBA9929E3210575D704B Accuracy: -m40
Conclusion: CDDA 100%
Signature: 177C57C6CE306A9BF5618E35CE415C97AF48E018
FILE: 06 - Still Fired Up.flac
Size: 27007571 Hash: FABA8884F8CFE6BDD2CC83D64805B271 Accuracy: -m40
Conclusion: CDDA 99%
Signature: D9645067A4A80E844979470A288ADA7E5C8B4801
FILE: 05 - Hour Glass.flac
Size: 28661579 Hash: 042B3448A049F6EAF42798325337702A Accuracy: -m40
Conclusion: CDDA 100%
Signature: B0294B14D65E4F1A2D890DBC45F06EF65B4776A8
FILE: 04 - Crowd Surf.flac
Size: 26830894 Hash: 3CE582919C0F3057415CF7C3E932F7EF Accuracy: -m40
Conclusion: CDDA 100%
Signature: A64A765E078B6ECDD7669DEF0A026F7B7D432546
FILE: 03 - Overachiever.flac
Size: 19501310 Hash: 7B81D454E406A1888725CDD653609952 Accuracy: -m40
Conclusion: CDDA 100%
Signature: D5F27769AC29C682BE84D322CFBB309309EEF363
FILE: 02 - Classy.flac
Size: 29073830 Hash: D85E886C498ABCB874C1559C9E94365D Accuracy: -m40
Conclusion: CDDA 100%
Signature: E8B57851975AFF9F6C8397122A0EB50808B789BB
FILE: 01 - Hello.flac
Size: 24804651 Hash: 3D748D047B049168B13CBFC0D31A4B6D Accuracy: -m40
Conclusion: CDDA 100%
Signature: E3F7E03D58D34C004BC9EC9805575B9DE5A3E030

info [Профиль]  [ЛС] 
Показать сообщения:    
Ответить на тему

Текущее время: 18-Июл 03:47

Часовой пояс: GMT + 4



Вы не можете начинать темы
Вы не можете отвечать на сообщения
Вы не можете редактировать свои сообщения
Вы не можете удалять свои сообщения
Вы не можете голосовать в опросах
Вы не можете прикреплять файлы к сообщениям
Вы не можете скачивать файлы