Ошибка

(Rap | Hip Hop) [WEB] NxWorries - Why Lawd? - 2024, FLAC (tracks), lossless

Ответить на тему
 
Автор Сообщение

F.A.N.T.O.M

Пол: Пол:Муж

Стаж: 6 месяцев 27 дней

Сообщений: 484

Россия
Рейтинг

post 21-Июн-2024 18:00 0[+]

[Цитировать] 

NxWorries
Why Lawd?
• Жанр: Rap | Hip Hop
• Носитель: WEB
• Год издания: 2024
• Страна: USA
• Аудиокодек: FLAC (*.flac)
• Тип рипа: tracks
• Продолжительность: 00:44:18
• Источник: Deezer HiFi
• Наличие сканов: front

[align=center]
01 - ThankU (00:00:50)
02 - 86Sentra (00:01:36)
03 - MoveOn (00:02:47)
04 - KeepHer (00:04:14)
05 - Distractions (00:01:49)
06 - Lookin' (00:00:54)
07 - Where I Go (00:03:18)
08 - Daydreaming (00:03:01)
09 - FromHere (00:04:01)
10 - FallThru (00:02:21)
11 - Battlefield (00:03:38)
12 - HereIAm (00:01:34)
13 - OutTheWay (00:03:26)
14 - SheUsed (00:02:36)
15 - MoreOfIt (00:01:12)
16 - NVR.RMX (00:01:18)
17 - DistantSpace (00:01:23)
18 - WalkOnBy (00:03:47)
19 - EvnMore (00:00:25)

 
foobar2000 1.6.11 / Dynamic Range Meter 1.1.1
log date: 2024-06-19 08:40:25

--------------------------------------------------------------------------------
Analyzed: Nxworries & Anderson .paak & H.e.r. & Knxwledge / Why Lawd? (1)
Nxworries & Anderson .paak & Knxwledge & Charlie Wilson / Why Lawd? (2)
Nxworries & Anderson .paak & Knxwledge & Dave Chappelle / Why Lawd? (3)
Nxworries & Anderson .paak & Knxwledge & Earl Sweatshirt & Rae Khalil / Why Lawd? (4)
Nxworries & Anderson .paak & Knxwledge & Rae Khalil / Why Lawd? (5)
Nxworries & Anderson .paak & Knxwledge & Snoop Dogg & October London / Why Lawd? (6)
Nxworries & Anderson .paak & Knxwledge & The Last Artful, Dodgr / Why Lawd? (7)
Nxworries & Anderson .paak & Knxwledge & Thundercat / Why Lawd? (8)
Nxworries & Anderson .paak & Knxwledge / Why Lawd? (9-19)
--------------------------------------------------------------------------------

DR Peak RMS Duration Track
--------------------------------------------------------------------------------
DR8 0.00 dB -9.45 dB 3:18 07-Where I Go
DR7 0.00 dB -8.06 dB 1:19 16-NVR.RMX
DR11 -3.74 dB -15.09 dB 0:51 01-ThankU
DR9 0.00 dB -9.53 dB 3:47 18-WalkOnBy
DR8 0.00 dB -8.57 dB 3:26 13-OutTheWay
DR8 0.00 dB -9.18 dB 4:02 09-FromHere
DR9 0.00 dB -9.80 dB 1:23 17-DistantSpace
DR9 0.00 dB -9.05 dB 4:14 04-KeepHer
DR8 0.00 dB -8.37 dB 1:36 02-86Sentra
DR8 0.00 dB -8.90 dB 2:48 03-MoveOn
DR9 0.00 dB -9.99 dB 1:49 05-Distractions
DR9 -2.49 dB -12.33 dB 0:55 06-Lookin’
DR8 0.00 dB -9.40 dB 3:02 08-Daydreaming
DR7 0.00 dB -8.33 dB 2:21 10-FallThru
DR9 0.00 dB -9.22 dB 3:38 11-Battlefield
DR9 0.00 dB -10.06 dB 1:34 12-HereIAm
DR9 0.00 dB -10.49 dB 2:37 14-SheUsed
DR9 0.00 dB -10.10 dB 1:12 15-MoreOfIt
DR7 0.00 dB -12.34 dB 0:26 19-EvnMore
--------------------------------------------------------------------------------

Number of tracks: 19
Official DR value: DR8

Samplerate: 44100 Hz
Channels: 2
Bits per sample: 16
Bitrate: 620 kbps
Codec: FLAC
================================================================================

 
-----------------------

DON'T MODIFY THIS FILE

-----------------------

PERFORMER: auCDtect Task Manager, ver. 1.6.0 RC1 build 1.6.0.1
Copyright (c) 2008-2010 y-soft. All rights reserved
http://y-soft.org

ANALYZER: auCDtect: CD records authenticity detector, version 0.8.2
Copyright (c) 2004 Oleg Berngardt. All rights reserved.
Copyright (c) 2004 Alexander Djourik. All rights reserved.

FILE: 19 - EvnMore.flac
Size: 2236992 Hash: BC40737F02B78E347BD06126446BC41A Accuracy: -m40
Conclusion: MPEG 100%
Signature: 3E09351A3D3E0582742E66D1B3C6469F77FADB59
FILE: 18 - WalkOnBy.flac
Size: 24758449 Hash: 9F50D816096C26F44BA288BE2575BD80 Accuracy: -m40
Conclusion: CDDA 100%
Signature: 2A538D82916FD485FF0D2E35A35412B4AA7B872D
FILE: 17 - DistantSpace.flac
Size: 8925195 Hash: B147A0DEBAC1F0B723BEDF4BE459FB06 Accuracy: -m40
Conclusion: CDDA 100%
Signature: 33CAEB6C4C2BA3FA57C9329913C289E42BD3913A
FILE: 16 - NVR.RMX.flac
Size: 8468876 Hash: 2CB0B1ED11DF22BEE5C983C7198F9A06 Accuracy: -m40
Conclusion: CDDA 85%
Signature: D60D4D7F3E3529EC6A903A069B872978ED94C0D2
FILE: 15 - MoreOfIt.flac
Size: 7855137 Hash: 54A5C52259AC6809609B1D317B265B35 Accuracy: -m40
Conclusion: CDDA 100%
Signature: D16911CF5BD1A495EA25D425E5AA773A52C1391E
FILE: 14 - SheUsed.flac
Size: 16023489 Hash: 86377A3B897B4B378391B910D228810D Accuracy: -m40
Conclusion: CDDA 100%
Signature: 16900CAAEA9437B6010AA77473497AAF99208492
FILE: 13 - OutTheWay.flac
Size: 23151054 Hash: 41FAE494AC02FB7D44B53758879BE00D Accuracy: -m40
Conclusion: CDDA 100%
Signature: D5373EA6A06A56B2088FA24CC58AE635A7A703DC
FILE: 12 - HereIAm.flac
Size: 9745406 Hash: 41125009884F4F59EE11F9C9DCE4412E Accuracy: -m40
Conclusion: CDDA 99%
Signature: ADFBC0AA9675D23985DB2E0F80E130EB74595021
FILE: 11 - Battlefield.flac
Size: 23402870 Hash: 7A9943650472CB2ED1C048C206BF93C5 Accuracy: -m40
Conclusion: CDDA 100%
Signature: CF1A5D82D79A1D9DC4AFFF73F30F652AB17152E3
FILE: 10 - FallThru.flac
Size: 14857430 Hash: D5D1EB6A48C5292C046F7A66F0F746F0 Accuracy: -m40
Conclusion: CDDA 100%
Signature: AC0526625095B03DE59EFE19F68D464DD35F0A03
FILE: 09 - FromHere.flac
Size: 25835160 Hash: 4538650E0D4E33F3A7EFBFCE0C676725 Accuracy: -m40
Conclusion: CDDA 100%
Signature: 6D90905F5016064AF663DFBF7AE1CA24D5481366
FILE: 08 - Daydreaming.flac
Size: 19334696 Hash: 04D5EB8EA459F43611985A8471C7D3E0 Accuracy: -m40
Conclusion: CDDA 100%
Signature: 0F10AFD98CE63B5619A2B2F01A7D104766A20634
FILE: 07 - Where I Go.flac
Size: 20593072 Hash: 1DF278AB7131CBCC6A3E5F32F6C3C0CD Accuracy: -m40
Conclusion: CDDA 99%
Signature: 605371C5ACFC31A108E2C4228923B0BD78C8DF90
FILE: 06 - Lookin'.flac
Size: 4265119 Hash: 6958EB7A70FD77AC2BD3B03702E78A0B Accuracy: -m40
Conclusion: CDDA 87%
Signature: 5C2D19B6159AE3437E39F77E12BD18229B56E28D
FILE: 05 - Distractions.flac
Size: 11836138 Hash: CD06440F69A562D32B928A16946E83A8 Accuracy: -m40
Conclusion: CDDA 100%
Signature: 1C2C77DC9A893591831F74924F651F3642A74C91
FILE: 04 - KeepHer.flac
Size: 25494537 Hash: 4F605F2D55CF61090CB9B1D386812C69 Accuracy: -m40
Conclusion: CDDA 99%
Signature: D4B3E454C72F17BA36D7E2D1029CF358E3AA7B6A
FILE: 03 - MoveOn.flac
Size: 18444487 Hash: BD00816A8AB6E09087A4998D79A3BAF6 Accuracy: -m40
Conclusion: CDDA 100%
Signature: E42ADA6A06EDF12FDD06DB483E9C993886FC9060
FILE: 02 - 86Sentra.flac
Size: 9137828 Hash: 2F7C6A68A0A13CC2E830D32C101F66DC Accuracy: -m40
Conclusion: CDDA 100%
Signature: 64A53E6F827CB4D348D0212E73EEF7CF817CA863
FILE: 01 - ThankU.flac
Size: 4806642 Hash: C09E306D4B9F196E72031C9A54194549 Accuracy: -m40
Conclusion: CDDA 100%
Signature: A677BA4D95E0C97FEC6BA05B78C4509387236E2A

info [Профиль]  [ЛС] 
Показать сообщения:    
Ответить на тему

Текущее время: 18-Июл 03:34

Часовой пояс: GMT + 4



Вы не можете начинать темы
Вы не можете отвечать на сообщения
Вы не можете редактировать свои сообщения
Вы не можете удалять свои сообщения
Вы не можете голосовать в опросах
Вы не можете прикреплять файлы к сообщениям
Вы не можете скачивать файлы