Ошибка

(Classical / Vocal) Luciano Pavarotti - The Ultimate Collection - 2007, FLAC (tracks+.cue) lossless

Ответить на тему
 
Автор Сообщение

F.A.N.T.O.M

Пол: Пол:Муж

Стаж: 6 месяцев 27 дней

Сообщений: 484

Россия
Рейтинг

post 13-Июн-2024 16:15 0[+]

[Цитировать] 

Pavarotti
The Ultimate Collection

Жанр: Classical, Vocal
Носитель: CD
Страна-производитель диска: UK
Год издания диска: 2007
Издатель (лейбл): Decca & Universal Music Group
Номер по каталогу: 984 272-3
Дата записи: 1970-1993
Аудиокодек: FLAC
Тип рипа: tracks+.cue
Битрейт аудио: lossless
Продолжительность: 01:17:14
Источник: скачано из сети
Наличие сканов: да
Giacomo Puccini
01. Turandot, Act 3: «Nessun dorma!» (02:59)
Recorded 1972-08-25, Kingsway Hall, London

Giuseppe Verdi
02. La traviata, Act 1: Brindisi («Libiamo ne'lieti calici») (02:50)
Recorded 1979-11-10, Kingsway Hall, London

Eduardo di Capua and Alfredo Mazzucchi
03. O sole mio (arr. Chiaramello) (03:21)
Recorded 1979-03-06, Kingsway Hall, London

Giuseppe Verdi
04. La traviata, Act 1: Brindisi («Libiamo ne'lieti calici») (02:21)
Recorded 1971-06-28, Kingsway Hall, London

Domenico Modugno
05. Volare (04:33)
Recorded 1987-07, Chiesa di San Giorgio Poppiale, Bologna

César Franck
06. Panis angelicus, Op. 12/V (04:01)
Recorded 1976-01-29, All Saints' Church, Petersham, Surrey

Lucio Dalla
07. Caruso (05:20)
Recorded 1988, Italy

Ernesto de Curtis
08. Non ti scordar di me (arr. Mancini) (02:55)
09. Torna a Surriento (arr. Chiaramello) (04:22)
Recorded 1979-03-06, Kingsway Hall, London

Luigi Denza
10. Funiculì, funiculà (02:40)
Recorded 1977-07, Bologna

Gaetano Donizetti
11. L'elisir d'amore, Act 2: «Una furtiva lagrima» (04:47)
Recorded 1970-07-10, Kingsway Hall, London

Franz Schubert
12. Ave Maria, D839 (04:48)
Recorded 1976-01-29, All Saints' Church, Petersham, Surrey

Agustín Lara
13. Granada (03:07)
Recorded 1993-09, Piazza Grande, Modena

Salvatore Cardillo
14. Core n'grato (arr. Chiaramello) (04:54)
Recorded 1985-07, Church of San Giorgio, Poggiale

Giacomo Puccini
15. La bohème, Act 1: «Che gelida manina» (04:38)
Recorded 1972-10-13, Jesus-Christus-Kirche, Berlin

Cesare Andrea Bixio
16. Mamma (arr. Mancini) (03:33)
Recorded 1984-05-29, Grand Casino, Noga Hilton, Geneva

Traditional
17. Santa Lucia (arr. Courage) (01:30)
Recorded 1982-02, 20th Century Fox Studios

Ruggero Leoncavallo
18. Mattinata (orch. Faris) (01:58)
Recorded 1977-04-24, Kingsway Hall, London

Giacomo Puccini
19. Tosca, Act 3: «E lucevan le stelle» (03:12)
Recorded 1972-04-05, Kingsway Hall, London

Giuseppe Verdi
20. Aida, Act 1: Recitativo «Se quel guerrier io fossi!» – Romanza «Celeste Aida» (04:06)
Recorded 1985-12-16, Sala Abanella, Milan

BONUS TRACK:
Elton John & Bernie Taupin
21. Live like horses (05:12)
Luciano Pavarotti (tenor)
Dame Joan Sutherland (soprano) [2]
Henry Mancini [16]
David Romano (baritone) [17]
Elton John [21]

Wandsworth School Boys’ Choir [1, 6]
John Alldis Choir [1]
London Philharmonic Orchestra, conductor Zubin Mehta [1]
The London Opera Chorus [2]
National Philharmonic Orchestra (London), conductors: Richard Bonynge [2], Giancarlo Chiaramello [3, 9], Kurt Herbert Adler [6, 12]
London Symphony Orchestra, conductor Richard Bonynge [4]
Orchestra del Teatro Comunale di Bologna [7], conductors: Henry Mancini [5], Anton Guadagno [10], Giancarlo Chiaramello [14]
Coro del Teatro Comunale di Bologna, conductor Anton Guadagno [10]
English Chamber Orchestra, conductorм Richard Bonynge [11]
Royal Philharmonic Orchestra, conductors: Maurizio Benini [13], Leone Magiera [19]
Berliner Philharmoniker, conductor Herbert von Karajan [15]
Orchestra, conductor Emerson Buckley [17]
Philharmonia Orchestra (London), conductor Piero Gamba [18]
Orchestra del Teatro alla Scala di Milano, conductor Lorin Maazel [20]
 
Exact Audio Copy V1.6 from 23. October 2020

EAC extraction logfile from 3. September 2021, 19:52

Luciano Pavarotti / The Ultimate Collection

Used drive : HL-DT-STDVDRAM GT30N Adapter: 1 ID: 0

Read mode : Secure
Utilize accurate stream : Yes
Defeat audio cache : Yes
Make use of C2 pointers : No

Read offset correction : 103
Overread into Lead-In and Lead-Out : No
Fill up missing offset samples with silence : Yes
Delete leading and trailing silent blocks : No
Null samples used in CRC calculations : Yes
Used interface : Native Win32 interface for Win NT & 2000
Gap handling : Appended to previous track

Used output format : User Defined Encoder
Selected bitrate : 1024 kBit/s
Quality : High
Add ID3 tag : No
Command line compressor : C:\Program Files (x86)\Exact Audio Copy\Flac\flac.exe
Additional command line options : -8 -V -T "ARTIST=%artist%" -T "TITLE=%title%" -T "ALBUM=%albumtitle%" -T "DATE=%year%" -T "TRACKNUMBER=%tracknr%" -T "GENRE=%genre%" -T "PERFORMER=%albuminterpret%" -T "COMPOSER=%composer%" -T "ALBUMARTIST=%albumartist%" -T "DISCNUMBER=%cdnumber%" -T "TOTALDISCS=%totalcds%" -T "TOTALTRACKS=%numtracks%" -T "COMMENT=%comment%" %source% -o %dest%

TOC of the extracted CD

Track | Start | Length | Start sector | End sector
---------------------------------------------------------
1 | 0:00.00 | 2:59.10 | 0 | 13434
2 | 2:59.10 | 2:50.28 | 13435 | 26212
3 | 5:49.38 | 3:21.32 | 26213 | 41319
4 | 9:10.70 | 2:21.25 | 41320 | 51919
5 | 11:32.20 | 4:33.08 | 51920 | 72402
6 | 16:05.28 | 4:01.50 | 72403 | 90527
7 | 20:07.03 | 5:20.23 | 90528 | 114550
8 | 25:27.26 | 2:55.03 | 114551 | 127678
9 | 28:22.29 | 4:22.50 | 127679 | 147378
10 | 32:45.04 | 2:40.55 | 147379 | 159433
11 | 35:25.59 | 4:47.34 | 159434 | 180992
12 | 40:13.18 | 4:48.05 | 180993 | 202597
13 | 45:01.23 | 3:07.72 | 202598 | 216694
14 | 48:09.20 | 4:54.00 | 216695 | 238744
15 | 53:03.20 | 4:38.16 | 238745 | 259610
16 | 57:41.36 | 3:33.15 | 259611 | 275600
17 | 61:14.51 | 1:30.39 | 275601 | 282389
18 | 62:45.15 | 1:58.33 | 282390 | 291272
19 | 64:43.48 | 3:12.15 | 291273 | 305687
20 | 67:55.63 | 4:06.18 | 305688 | 324155
21 | 72:02.06 | 5:12.11 | 324156 | 347566

Track 1

Filename D:\redacted\eacrips\Pavarotti – The Ultimate Collection (2007) [FLAC] {984 272-3}\01 - Luciano Pavarotti - Nessun dorma!.wav

Pre-gap length 0:00:02.00

Peak level 100.0 %
Extraction speed 1.2 X
Track quality 100.0 %
Test CRC 0FA3889A
Copy CRC 0FA3889A
Accurately ripped (confidence 28) [1EC2896A] (AR v2)
Copy OK

Track 2

Filename D:\redacted\eacrips\Pavarotti – The Ultimate Collection (2007) [FLAC] {984 272-3}\02 - Luciano Pavarotti - Brindisi.wav

Peak level 98.8 %
Extraction speed 1.3 X
Track quality 100.0 %
Test CRC 889C51E1
Copy CRC 889C51E1
Accurately ripped (confidence 28) [712BAFD8] (AR v2)
Copy OK

Track 3

Filename D:\redacted\eacrips\Pavarotti – The Ultimate Collection (2007) [FLAC] {984 272-3}\03 - Luciano Pavarotti - O sole mio.wav

Pre-gap length 0:00:00.01

Peak level 89.5 %
Extraction speed 1.4 X
Track quality 100.0 %
Test CRC 44A8828B
Copy CRC 44A8828B
Accurately ripped (confidence 28) [24E95A2B] (AR v2)
Copy OK

Track 4

Filename D:\redacted\eacrips\Pavarotti – The Ultimate Collection (2007) [FLAC] {984 272-3}\04 - Luciano Pavarotti - La donna é mobile.wav

Pre-gap length 0:00:00.01

Peak level 87.9 %
Extraction speed 1.4 X
Track quality 100.0 %
Test CRC 214B273F
Copy CRC 214B273F
Accurately ripped (confidence 28) [952C4F91] (AR v2)
Copy OK

Track 5

Filename D:\redacted\eacrips\Pavarotti – The Ultimate Collection (2007) [FLAC] {984 272-3}\05 - Luciano Pavarotti - Volare.wav

Pre-gap length 0:00:00.01

Peak level 98.6 %
Extraction speed 1.6 X
Track quality 100.0 %
Test CRC D6A59D08
Copy CRC D6A59D08
Accurately ripped (confidence 28) [3E984E1D] (AR v2)
Copy OK

Track 6

Filename D:\redacted\eacrips\Pavarotti – The Ultimate Collection (2007) [FLAC] {984 272-3}\06 - Luciano Pavarotti - Panis angelicus.wav

Pre-gap length 0:00:00.01

Peak level 89.9 %
Extraction speed 1.5 X
Track quality 99.9 %
Test CRC 74C502D1
Copy CRC 74C502D1
Accurately ripped (confidence 28) [AE9AF0F4] (AR v2)
Copy OK

Track 7

Filename D:\redacted\eacrips\Pavarotti – The Ultimate Collection (2007) [FLAC] {984 272-3}\07 - Luciano Pavarotti - Caruso.wav

Pre-gap length 0:00:00.01

Peak level 91.6 %
Extraction speed 1.9 X
Track quality 100.0 %
Test CRC 7E944357
Copy CRC 7E944357
Accurately ripped (confidence 28) [D5AF3433] (AR v2)
Copy OK

Track 8

Filename D:\redacted\eacrips\Pavarotti – The Ultimate Collection (2007) [FLAC] {984 272-3}\08 - Luciano Pavarotti - Non ti scordar di me.wav

Pre-gap length 0:00:00.01

Peak level 98.0 %
Extraction speed 1.8 X
Track quality 100.0 %
Test CRC F9003BA4
Copy CRC F9003BA4
Accurately ripped (confidence 28) [D0AB5E28] (AR v2)
Copy OK

Track 9

Filename D:\redacted\eacrips\Pavarotti – The Ultimate Collection (2007) [FLAC] {984 272-3}\09 - Luciano Pavarotti - Torna a Surriento.wav

Pre-gap length 0:00:00.01

Peak level 100.0 %
Extraction speed 2.0 X
Track quality 100.0 %
Test CRC 87736710
Copy CRC 87736710
Accurately ripped (confidence 28) [682374F6] (AR v2)
Copy OK

Track 10

Filename D:\redacted\eacrips\Pavarotti – The Ultimate Collection (2007) [FLAC] {984 272-3}\10 - Luciano Pavarotti - Funiculì, funiculà.wav

Pre-gap length 0:00:00.01

Peak level 99.1 %
Extraction speed 1.9 X
Track quality 100.0 %
Test CRC 188C83D5
Copy CRC 188C83D5
Accurately ripped (confidence 28) [678C9931] (AR v2)
Copy OK

Track 11

Filename D:\redacted\eacrips\Pavarotti – The Ultimate Collection (2007) [FLAC] {984 272-3}\11 - Luciano Pavarotti - Una furtiva lagrima.wav

Peak level 69.6 %
Extraction speed 2.1 X
Track quality 100.0 %
Test CRC 2535E6ED
Copy CRC 2535E6ED
Accurately ripped (confidence 28) [FA581D1C] (AR v2)
Copy OK

Track 12

Filename D:\redacted\eacrips\Pavarotti – The Ultimate Collection (2007) [FLAC] {984 272-3}\12 - Luciano Pavarotti - Ave Maria.wav

Pre-gap length 0:00:00.01

Peak level 92.6 %
Extraction speed 2.2 X
Track quality 100.0 %
Test CRC E925B189
Copy CRC E925B189
Accurately ripped (confidence 28) [D0841FD4] (AR v2)
Copy OK

Track 13

Filename D:\redacted\eacrips\Pavarotti – The Ultimate Collection (2007) [FLAC] {984 272-3}\13 - Luciano Pavarotti - Granada.wav

Pre-gap length 0:00:00.01

Peak level 100.0 %
Extraction speed 2.2 X
Track quality 100.0 %
Test CRC 8F5E40B7
Copy CRC 8F5E40B7
Accurately ripped (confidence 28) [B4C23F6B] (AR v2)
Copy OK

Track 14

Filename D:\redacted\eacrips\Pavarotti – The Ultimate Collection (2007) [FLAC] {984 272-3}\14 - Luciano Pavarotti - Core n'grato.wav

Pre-gap length 0:00:00.01

Peak level 95.7 %
Extraction speed 2.4 X
Track quality 100.0 %
Test CRC 764A1EAF
Copy CRC 764A1EAF
Accurately ripped (confidence 28) [CD1CC72C] (AR v2)
Copy OK

Track 15

Filename D:\redacted\eacrips\Pavarotti – The Ultimate Collection (2007) [FLAC] {984 272-3}\15 - Luciano Pavarotti - Che gelida manina.wav

Pre-gap length 0:00:00.01

Peak level 100.0 %
Extraction speed 2.2 X
Track quality 99.9 %
Test CRC D5F380F5
Copy CRC D5F380F5
Accurately ripped (confidence 28) [C642FE2A] (AR v2)
Copy OK

Track 16

Filename D:\redacted\eacrips\Pavarotti – The Ultimate Collection (2007) [FLAC] {984 272-3}\16 - Luciano Pavarotti - Mamma.wav

Pre-gap length 0:00:00.01

Peak level 98.1 %
Extraction speed 2.4 X
Track quality 100.0 %
Test CRC 6BF0E1C0
Copy CRC 6BF0E1C0
Accurately ripped (confidence 28) [CC3C11EB] (AR v2)
Copy OK

Track 17

Filename D:\redacted\eacrips\Pavarotti – The Ultimate Collection (2007) [FLAC] {984 272-3}\17 - Luciano Pavarotti - Santa Lucia.wav

Pre-gap length 0:00:00.01

Peak level 66.4 %
Extraction speed 2.0 X
Track quality 100.0 %
Test CRC 29F4BEE7
Copy CRC 29F4BEE7
Accurately ripped (confidence 28) [0766A83F] (AR v2)
Copy OK

Track 18

Filename D:\redacted\eacrips\Pavarotti – The Ultimate Collection (2007) [FLAC] {984 272-3}\18 - Luciano Pavarotti - Mattinata.wav

Pre-gap length 0:00:00.01

Peak level 78.0 %
Extraction speed 2.2 X
Track quality 100.0 %
Test CRC DA8B70B0
Copy CRC DA8B70B0
Accurately ripped (confidence 28) [C1C1ED19] (AR v2)
Copy OK

Track 19

Filename D:\redacted\eacrips\Pavarotti – The Ultimate Collection (2007) [FLAC] {984 272-3}\19 - Luciano Pavarotti - E lucevan le stelle.wav

Pre-gap length 0:00:00.01

Peak level 81.7 %
Extraction speed 2.1 X
Track quality 99.9 %
Test CRC 75C8306B
Copy CRC 75C8306B
Accurately ripped (confidence 28) [D0AC496F] (AR v2)
Copy OK

Track 20

Filename D:\redacted\eacrips\Pavarotti – The Ultimate Collection (2007) [FLAC] {984 272-3}\20 - Luciano Pavarotti - Celeste Aida.wav

Pre-gap length 0:00:00.01

Peak level 89.5 %
Extraction speed 2.6 X
Track quality 100.0 %
Test CRC 77ECC6F9
Copy CRC 77ECC6F9
Accurately ripped (confidence 28) [316E7343] (AR v2)
Copy OK

Track 21

Filename D:\redacted\eacrips\Pavarotti – The Ultimate Collection (2007) [FLAC] {984 272-3}\21 - Luciano Pavarotti feat. Elton John - Live Like Horses.wav

Pre-gap length 0:00:00.01

Peak level 85.4 %
Extraction speed 2.8 X
Track quality 100.0 %
Test CRC A91D4373
Copy CRC A91D4373
Accurately ripped (confidence 26) [D202726E] (AR v2)
Copy OK

All tracks accurately ripped

No errors occurred

End of status report

---- CUETools DB Plugin V2.1.6

[CTDB TOCID: b6HU1TFg.erHzBohKBSwAW5Y.cw-] found
Submit result: b6HU1TFg.erHzBohKBSwAW5Y.cw- has been confirmed
Track | CTDB Status
1 | (75/75) Accurately ripped
2 | (75/75) Accurately ripped
3 | (75/75) Accurately ripped
4 | (75/75) Accurately ripped
5 | (74/75) Accurately ripped
6 | (74/75) Accurately ripped
7 | (74/75) Accurately ripped
8 | (74/75) Accurately ripped
9 | (75/75) Accurately ripped
10 | (75/75) Accurately ripped
11 | (75/75) Accurately ripped
12 | (75/75) Accurately ripped
13 | (75/75) Accurately ripped
14 | (75/75) Accurately ripped
15 | (74/75) Accurately ripped
16 | (75/75) Accurately ripped
17 | (75/75) Accurately ripped
18 | (75/75) Accurately ripped
19 | (75/75) Accurately ripped
20 | (74/75) Accurately ripped
21 | (72/75) Accurately ripped

==== Log checksum 9E11EEDE0233F7CB3D888A69419A262653D4A6AC24AF44BD13284F5C77BE809D ====
 
REM DATE 2007
REM DISCID 48121A15
REM COMMENT "ExactAudioCopy v1.6"
FILE "01 - Luciano Pavarotti - Nessun dorma!.wav" WAVE
TRACK 01 AUDIO
INDEX 01 00:00:00
FILE "02 - Luciano Pavarotti - Brindisi.wav" WAVE
TRACK 02 AUDIO
INDEX 01 00:00:00
TRACK 03 AUDIO
INDEX 00 02:50:27
FILE "03 - Luciano Pavarotti - O sole mio.wav" WAVE
INDEX 01 00:00:00
TRACK 04 AUDIO
INDEX 00 03:21:31
FILE "04 - Luciano Pavarotti - La donna й mobile.wav" WAVE
INDEX 01 00:00:00
TRACK 05 AUDIO
INDEX 00 02:21:24
FILE "05 - Luciano Pavarotti - Volare.wav" WAVE
INDEX 01 00:00:00
TRACK 06 AUDIO
INDEX 00 04:33:07
FILE "06 - Luciano Pavarotti - Panis angelicus.wav" WAVE
INDEX 01 00:00:00
TRACK 07 AUDIO
INDEX 00 04:01:49
FILE "07 - Luciano Pavarotti - Caruso.wav" WAVE
INDEX 01 00:00:00
TRACK 08 AUDIO
INDEX 00 05:20:22
FILE "08 - Luciano Pavarotti - Non ti scordar di me.wav" WAVE
INDEX 01 00:00:00
TRACK 09 AUDIO
INDEX 00 02:55:02
FILE "09 - Luciano Pavarotti - Torna a Surriento.wav" WAVE
INDEX 01 00:00:00
TRACK 10 AUDIO
INDEX 00 04:22:49
FILE "10 - Luciano Pavarotti - Funiculм, funiculа.wav" WAVE
INDEX 01 00:00:00
FILE "11 - Luciano Pavarotti - Una furtiva lagrima.wav" WAVE
TRACK 11 AUDIO
INDEX 01 00:00:00
TRACK 12 AUDIO
INDEX 00 04:47:33
FILE "12 - Luciano Pavarotti - Ave Maria.wav" WAVE
INDEX 01 00:00:00
TRACK 13 AUDIO
INDEX 00 04:48:04
FILE "13 - Luciano Pavarotti - Granada.wav" WAVE
INDEX 01 00:00:00
TRACK 14 AUDIO
INDEX 00 03:07:71
FILE "14 - Luciano Pavarotti - Core n'grato.wav" WAVE
INDEX 01 00:00:00
TRACK 15 AUDIO
INDEX 00 04:53:74
FILE "15 - Luciano Pavarotti - Che gelida manina.wav" WAVE
INDEX 01 00:00:00
TRACK 16 AUDIO
INDEX 00 04:38:15
FILE "16 - Luciano Pavarotti - Mamma.wav" WAVE
INDEX 01 00:00:00
TRACK 17 AUDIO
INDEX 00 03:33:14
FILE "17 - Luciano Pavarotti - Santa Lucia.wav" WAVE
INDEX 01 00:00:00
TRACK 18 AUDIO
INDEX 00 01:30:38
FILE "18 - Luciano Pavarotti - Mattinata.wav" WAVE
INDEX 01 00:00:00
TRACK 19 AUDIO
INDEX 00 01:58:32
FILE "19 - Luciano Pavarotti - E lucevan le stelle.wav" WAVE
INDEX 01 00:00:00
TRACK 20 AUDIO
INDEX 00 03:12:14
FILE "20 - Luciano Pavarotti - Celeste Aida.wav" WAVE
INDEX 01 00:00:00
TRACK 21 AUDIO
INDEX 00 04:06:17
FILE "21 - Luciano Pavarotti feat. Elton John - Live Like Horses.wav" WAVE
INDEX 01 00:00:00
 
REM GENRE Classical
REM DATE 2007
REM COMMENT "CUE Corrector v. 8.4.2 / b. 1047 (Aug. 05, 2021)"
REM DISCNUMBER 1
PERFORMER "Luciano Pavarotti"
TITLE "The Ultimate Collection"
REM COMPOSER "Various composers"
FILE "01 - Luciano Pavarotti - Nessun dorma!.flac" WAVE
TRACK 01 AUDIO
TITLE "G. Puccini - Turandot, Act 3: «Nessun dorma!»"
PERFORMER "Luciano Pavarotti & Wandsworth School Boys’ Choir, London Philharmonic Orchestra, John Alldis Choir, cond. Zubin Mehta"
REM COMPOSER "Giacomo Puccini"
INDEX 01 00:00:00
FILE "02 - Luciano Pavarotti - Brindisi.flac" WAVE
TRACK 02 AUDIO
TITLE "G. Verdi - La traviata, Act 1: Brindisi («Libiamo ne'lieti calici»)"
PERFORMER "Luciano Pavarotti, Dame Joan Sutherland & The London Opera Chorus, National Philharmonic Orchestra (London), cond. Richard Bonynge"
REM COMPOSER "Giuseppe Verdi"
INDEX 01 00:00:00
FILE "03 - Luciano Pavarotti - O sole mio.flac" WAVE
TRACK 03 AUDIO
TITLE "E. di Capua, A. Mazzucchi - O sole mio (arr. Chiaramello)"
PERFORMER "Luciano Pavarotti & National Philharmonic Orchestra (London), cond. Giancarlo Chiaramello"
REM COMPOSER "Eduardo di Capua, Alfredo Mazzucchi"
INDEX 01 00:00:00
FILE "04 - Luciano Pavarotti - La donna é mobile.flac" WAVE
TRACK 04 AUDIO
TITLE "G. Verdi - Rigoletto, Act 3: «La donna è mobile»"
PERFORMER "Luciano Pavarotti & London Symphony Orchestra, cond. Richard Bonynge"
REM COMPOSER "Giuseppe Verdi"
INDEX 01 00:00:00
FILE "05 - Luciano Pavarotti - Volare.flac" WAVE
TRACK 05 AUDIO
TITLE "D. Modugno - Volare"
PERFORMER "Luciano Pavarotti, Orchestra del Teatro Comunale di Bologna, cond. Henry Mancini"
REM COMPOSER "Domenico Modugno"
INDEX 01 00:00:00
FILE "06 - Luciano Pavarotti - Panis angelicus.flac" WAVE
TRACK 06 AUDIO
TITLE "C. Franck - Panis angelicus, Op. 12/V"
PERFORMER "Luciano Pavarotti & Wandsworth School Boys’ Choir, National Philharmonic Orchestra (London), cond. Kurt Herbert Adler"
REM COMPOSER "César Franck"
INDEX 01 00:00:00
FILE "07 - Luciano Pavarotti - Caruso.flac" WAVE
TRACK 07 AUDIO
TITLE "L. Dalla - Caruso"
PERFORMER "Luciano Pavarotti & Orchestra del Teatro Comunale di Bologna"
REM COMPOSER "Lucio Dalla"
INDEX 01 00:00:00
FILE "08 - Luciano Pavarotti - Non ti scordar di me.flac" WAVE
TRACK 08 AUDIO
TITLE "E. de Curtis - Non ti scordar di me (arr. Mancini)"
PERFORMER "Luciano Pavarotti"
REM COMPOSER "Ernesto de Curtis"
INDEX 01 00:00:00
FILE "09 - Luciano Pavarotti - Torna a Surriento.flac" WAVE
TRACK 09 AUDIO
TITLE "E. de Curtis - Torna a Surriento (arr. Chiaramello)"
PERFORMER "Luciano Pavarotti & National Philharmonic Orchestra (London), cond. Giancarlo Chiaramello"
REM COMPOSER "Ernesto de Curtis"
INDEX 01 00:00:00
FILE "10 - Luciano Pavarotti - Funiculì, funiculà.flac" WAVE
TRACK 10 AUDIO
TITLE "L. Denza - Funiculì, funiculà"
PERFORMER "Luciano Pavarotti & Coro and Orchestra del Teatro Comunale di Bologna, cond. Anton Guadagno"
REM COMPOSER "Luigi Denza"
INDEX 01 00:00:00
FILE "11 - Luciano Pavarotti - Una furtiva lagrima.flac" WAVE
TRACK 11 AUDIO
TITLE "G. Donizetti - L'elisir d'amore, Act 2: «Una furtiva lagrima»"
PERFORMER "Luciano Pavarotti & English Chamber Orchestra, cond. Richard Bonynge"
REM COMPOSER "Gaetano Donizetti"
INDEX 01 00:00:00
FILE "12 - Luciano Pavarotti - Ave Maria.flac" WAVE
TRACK 12 AUDIO
TITLE "Franz Schubert - Ave Maria, D839"
PERFORMER "Luciano Pavarotti & National Philharmonic Orchestra (London), cond. Kurt Herbert Adler"
REM COMPOSER "Franz Schubert"
INDEX 01 00:00:00
FILE "13 - Luciano Pavarotti - Granada.flac" WAVE
TRACK 13 AUDIO
TITLE "A. Lara - Granada"
PERFORMER "Luciano Pavarotti & Royal Philharmonic Orchestra, cond. Maurizio Benini"
REM COMPOSER "Agustín Lara"
INDEX 01 00:00:00
FILE "14 - Luciano Pavarotti - Core n'grato.flac" WAVE
TRACK 14 AUDIO
TITLE "S. Cardillo - Core n'grato (arr. Chiaramello)"
PERFORMER "Luciano Pavarotti & Orchestra del Teatro Comunale di Bologna, cond. Giancarlo Chiaramello"
REM COMPOSER "Salvatore Cardillo"
INDEX 01 00:00:00
FILE "15 - Luciano Pavarotti - Che gelida manina.flac" WAVE
TRACK 15 AUDIO
TITLE "G. Puccini - La bohème, Act 1: «Che gelida manina»"
PERFORMER "Luciano Pavarotti & Berliner Philharmoniker, cond. Herbert von Karajan"
REM COMPOSER "Giacomo Puccini"
INDEX 01 00:00:00
FILE "16 - Luciano Pavarotti - Mamma.flac" WAVE
TRACK 16 AUDIO
TITLE "C. Bixio - Mamma (arr. Mancini)"
PERFORMER "Luciano Pavarotti, Henry Mancini"
REM COMPOSER "Cesare Andrea Bixio"
INDEX 01 00:00:00
FILE "17 - Luciano Pavarotti - Santa Lucia.flac" WAVE
TRACK 17 AUDIO
TITLE "Santa Lucia (traditional, arr. Courage)"
PERFORMER "Luciano Pavarotti, David Romano & Orchestra, cond. Emerson Buckley"
REM COMPOSER "(Traditional)"
INDEX 01 00:00:00
FILE "18 - Luciano Pavarotti - Mattinata.flac" WAVE
TRACK 18 AUDIO
TITLE "R. Leoncavallo - Mattinata (orch. Faris)"
PERFORMER "Luciano Pavarotti & Philharmonia Orchestra (London), cond. Piero Gamba"
REM COMPOSER "Ruggero Leoncavallo"
INDEX 01 00:00:00
FILE "19 - Luciano Pavarotti - E lucevan le stelle.flac" WAVE
TRACK 19 AUDIO
TITLE "G. Puccini - Tosca, Act 3: «E lucevan le stelle»"
PERFORMER "Luciano Pavarotti & Royal Philharmonic Orchestra, cond. Leone Magiera"
REM COMPOSER "Giacomo Puccini"
INDEX 01 00:00:00
FILE "20 - Luciano Pavarotti - Celeste Aida.flac" WAVE
TRACK 20 AUDIO
TITLE "G. Verdi - Aida, Act 1: Recitativo «Se quel guerrier io fossi!» – Romanza «Celeste Aida»"
PERFORMER "Luciano Pavarotti & Orchestra del Teatro alla Scala di Milano, cond. Lorin Maazel"
REM COMPOSER "Giuseppe Verdi"
INDEX 01 00:00:00
FILE "21 - Luciano Pavarotti feat. Elton John - Live Like Horses.flac" WAVE
TRACK 21 AUDIO
TITLE "Elton John & Bernie Taupin: Live like horses"
PERFORMER "Luciano Pavarotti feat. Elton John"
REM COMPOSER "Elton John"
INDEX 01 00:00:00
 
CUE Corrector v. 8.4.2 / b. 1047 (Aug. 05, 2021)
————————————————————————————————————————————————————————————————————————
Luciano Pavarotti / The Ultimate Collection

Folder: Pavarotti – The Ultimate Collection (2007) [FLAC] {984 272-3}
Audio files:
01 - Luciano Pavarotti - Nessun dorma!.flac [02:59.133; FLAC • 668 kbps • 16 bit \ 44100 Hz • stereo; 14,28 MB (14 971 627 B)]
02 - Luciano Pavarotti - Brindisi.flac [02:50.373; FLAC • 631 kbps • 16 bit \ 44100 Hz • stereo; 12,83 MB (13 455 874 B)]
03 - Luciano Pavarotti - O sole mio.flac [03:21.427; FLAC • 725 kbps • 16 bit \ 44100 Hz • stereo; 17,42 MB (18 266 260 B)]
04 - Luciano Pavarotti - La donna é mobile.flac [02:21.333; FLAC • 662 kbps • 16 bit \ 44100 Hz • stereo; 11,16 MB (11 699 253 B)]
05 - Luciano Pavarotti - Volare.flac [04:33.107; FLAC • 641 kbps • 16 bit \ 44100 Hz • stereo; 20,88 MB (21 889 897 B)]
06 - Luciano Pavarotti - Panis angelicus.flac [04:01.667; FLAC • 641 kbps • 16 bit \ 44100 Hz • stereo; 18,49 MB (19 389 647 B)]
07 - Luciano Pavarotti - Caruso.flac [05:20.307; FLAC • 705 kbps • 16 bit \ 44100 Hz • stereo; 26,94 MB (28 246 188 B)]
08 - Luciano Pavarotti - Non ti scordar di me.flac [02:55.040; FLAC • 728 kbps • 16 bit \ 44100 Hz • stereo; 15,20 MB (15 941 579 B)]
09 - Luciano Pavarotti - Torna a Surriento.flac [04:22.667; FLAC • 684 kbps • 16 bit \ 44100 Hz • stereo; 21,44 MB (22 482 347 B)]
10 - Luciano Pavarotti - Funiculì, funiculà.flac [02:40.733; FLAC • 680 kbps • 16 bit \ 44100 Hz • stereo; 13,03 MB (13 665 577 B)]
11 - Luciano Pavarotti - Una furtiva lagrima.flac [04:47.453; FLAC • 533 kbps • 16 bit \ 44100 Hz • stereo; 18,28 MB (19 172 400 B)]
12 - Luciano Pavarotti - Ave Maria.flac [04:48.067; FLAC • 627 kbps • 16 bit \ 44100 Hz • stereo; 21,56 MB (22 602 723 B)]
13 - Luciano Pavarotti - Granada.flac [03:07.960; FLAC • 801 kbps • 16 bit \ 44100 Hz • stereo; 17,96 MB (18 836 942 B)]
14 - Luciano Pavarotti - Core n'grato.flac [04:54.000; FLAC • 676 kbps • 16 bit \ 44100 Hz • stereo; 23,70 MB (24 855 080 B)]
15 - Luciano Pavarotti - Che gelida manina.flac [04:38.213; FLAC • 649 kbps • 16 bit \ 44100 Hz • stereo; 21,53 MB (22 575 716 B)]
16 - Luciano Pavarotti - Mamma.flac [03:33.200; FLAC • 751 kbps • 16 bit \ 44100 Hz • stereo; 19,10 MB (20 027 072 B)]
17 - Luciano Pavarotti - Santa Lucia.flac [01:30.520; FLAC • 716 kbps • 16 bit \ 44100 Hz • stereo; 7,73 MB (8 104 906 B)]
18 - Luciano Pavarotti - Mattinata.flac [01:58.440; FLAC • 700 kbps • 16 bit \ 44100 Hz • stereo; 9,88 MB (10 364 879 B)]
19 - Luciano Pavarotti - E lucevan le stelle.flac [03:12.200; FLAC • 569 kbps • 16 bit \ 44100 Hz • stereo; 13,04 MB (13 674 611 B)]
20 - Luciano Pavarotti - Celeste Aida.flac [04:06.240; FLAC • 651 kbps • 16 bit \ 44100 Hz • stereo; 19,12 MB (20 044 530 B)]
21 - Luciano Pavarotti feat. Elton John - Live Like Horses.flac [05:12.147; FLAC • 816 kbps • 16 bit \ 44100 Hz • stereo; 30,40 MB (31 875 643 B)]

Accuracy: -m0

File 01 - Luciano Pavarotti - Nessun dorma! - 100% CDDA [02:59.133]
File 02 - Luciano Pavarotti - Brindisi - 100% CDDA [02:50.373]
File 03 - Luciano Pavarotti - O sole mio - 100% CDDA [03:21.427]
File 04 - Luciano Pavarotti - La donna é mobile - 100% CDDA [02:21.333]
File 05 - Luciano Pavarotti - Volare - 100% CDDA [04:33.107]
File 06 - Luciano Pavarotti - Panis angelicus - 99% CDDA [04:01.667]
File 07 - Luciano Pavarotti - Caruso - 100% CDDA [05:20.307]
File 08 - Luciano Pavarotti - Non ti scordar di me - 100% CDDA [02:55.040]
File 09 - Luciano Pavarotti - Torna a Surriento - 100% CDDA [04:22.667]
File 10 - Luciano Pavarotti - Funiculì, funiculà - 100% CDDA [02:40.733]
File 11 - Luciano Pavarotti - Una furtiva lagrima - 100% CDDA [04:47.453]
File 12 - Luciano Pavarotti - Ave Maria - 100% CDDA [04:48.067]
File 13 - Luciano Pavarotti - Granada - 100% CDDA [03:07.960]
File 14 - Luciano Pavarotti - Core n'grato - 100% CDDA [04:54.000]
File 15 - Luciano Pavarotti - Che gelida manina - 100% CDDA [04:38.213]
File 16 - Luciano Pavarotti - Mamma - 100% CDDA [03:33.200]
File 17 - Luciano Pavarotti - Santa Lucia - 100% CDDA [01:30.520]
File 18 - Luciano Pavarotti - Mattinata - 99% CDDA [01:58.440]
File 19 - Luciano Pavarotti - E lucevan le stelle - 100% CDDA [03:12.200]
File 20 - Luciano Pavarotti - Celeste Aida - 100% CDDA [04:06.240]
File 21 - Luciano Pavarotti feat. Elton John - Live Like Horses - 100% CDDA [05:12.147]
————— Summary: —————
These tracks looks like CDDA with probability 100%.
————————————————————————————————————————————————————————————————————————

ANALYZER:
auCDtect: CD records authenticity detector, version 0.8.2
Copyright (c) 2004 Oleg Berngardt. All rights reserved.
Copyright (c) 2004 Alexander Djourik. All rights reserved.

Time elapsed: 5 m 52 s
Log created at September 15, 2021 11:15:54

=== 9BBB56665325A9415BC7B0980DB1A2E8AAEFB25A743A2F4D278E62B5B9BFAB85 ===
 
foobar2000 1.5.5 / Dynamic Range Meter 1.1.1
log date: 2021-09-15 22:35:45

--------------------------------------------------------------------------------
Analyzed: Luciano Pavarotti feat. Elton John / The Ultimate Collection (1)
Luciano Pavarotti / The Ultimate Collection (2-21)
--------------------------------------------------------------------------------

DR Peak RMS Duration Track
--------------------------------------------------------------------------------
DR8 -1.37 dB -12.97 dB 5:12 21-Elton John & Bernie Taupin: Live Like Horses
DR11 0.00 dB -16.18 dB 2:59 01-Puccini: Nessun dorma!
DR13 -0.10 dB -18.32 dB 2:50 02-Verdi: Brindisi
DR11 -0.95 dB -16.73 dB 3:21 03-Capua: O sole mio
DR12 -1.12 dB -17.93 dB 2:21 04-Verdi: La donna é mobile
DR13 -0.12 dB -17.91 dB 4:33 05-Modugno: Volare
DR13 -0.92 dB -18.57 dB 4:02 06-Franck: Panis angelicus
DR11 -0.75 dB -16.88 dB 5:20 07-Dalla: Caruso
DR11 -0.17 dB -15.10 dB 2:55 08-Furnò, De Curtis: Non ti scordar di me [arr. by Mancini]
DR13 0.00 dB -17.53 dB 4:23 09-De Curtis: Torna a Surriento
DR12 -0.08 dB -16.51 dB 2:41 10-Denza: Funiculì, funiculà
DR12 -3.15 dB -20.94 dB 4:47 11-Donizetti: Una furtiva lagrima
DR15 -0.66 dB -21.26 dB 4:48 12-Schubert: Ave Maria
DR12 0.00 dB -15.93 dB 3:08 13-Lara: Granada
DR12 -0.38 dB -16.48 dB 4:54 14-Cardillo: Core n'grato
DR12 0.00 dB -16.73 dB 4:38 15-Puccini: Che gelida manina
DR12 -0.16 dB -15.71 dB 3:33 16-Bixio: Mamma
DR14 -3.55 dB -21.19 dB 1:31 17-Santa Lucia [Traditional, arr. by Courage]
DR10 -2.15 dB -17.39 dB 1:58 18-Leoncavallo: Mattinata
DR11 -1.75 dB -19.54 dB 3:12 19-Puccini: E lucevan le stelle
DR12 -0.96 dB -18.77 dB 4:06 20-Verdi: Celeste Aida
--------------------------------------------------------------------------------

Number of tracks: 21
Official DR value: DR12

Samplerate: 44100 Hz
Channels: 2
Bits per sample: 16
Bitrate: 651 kbps
Codec: FLAC
================================================================================
info [Профиль]  [ЛС] 
Показать сообщения:    
Ответить на тему

Текущее время: 18-Июл 03:37

Часовой пояс: GMT + 4



Вы не можете начинать темы
Вы не можете отвечать на сообщения
Вы не можете редактировать свои сообщения
Вы не можете удалять свои сообщения
Вы не можете голосовать в опросах
Вы не можете прикреплять файлы к сообщениям
Вы не можете скачивать файлы