Ошибка

Eminem Ft. Rihanna - 'Love the way you lie' (Live @ The V Festival) [2011, Hip Hop / Rap, HDTVRip 720p]

Ответить на тему
 
Автор Сообщение

F.A.N.T.O.M

Пол: Пол:Муж

Стаж: 6 месяцев 24 дня

Сообщений: 476

Россия
Рейтинг

post 12-Июн-2024 16:18 1[+]

[Цитировать] 

Eminem Ft. Rihanna - 'Love the way you lie'
(Live @ The V Festival)




Жанр: Hip Hop / Rap
Продолжительность: 00:04:32
Год выпуска: 2011

Качество: HDTVRip 720p
Контейнер: TS
Видео кодек: MPEG2
Аудио кодек: MP2
Видео: MPEG2 Video 1280x720 29.97fps 12.5Mbps
Аудио: MPEG Audio 48000Hz stereo 320kbps
 
Общее
Идентификатор : 1 (0x1)
Полное имя : Eminem Ft. Rihanna - 'Love the way you lie' [Live @ The V Festival 20-08-2011] HDTVRip 720p.ts
Формат : MPEG-TS
Размер файла : 313 Мбайт
Продолжительность : 3 м. 14 с.
Режим общего битрейта : Постоянный
Общий поток : 13,5 Мбит/сек

Видео
Идентификатор : 256 (0x100)
Идентификатор меню : 1 (0x1)
Формат : MPEG Video
Версия формата : Version 2
Профиль формата : Main@High 1440
Параметр BVOP формата : Нет
Параметр матрицы формата : По умолчанию
Параметр GOP формата : N=12
Идентификатор кодека : 2
Продолжительность : 4 м. 32 с.
Вид битрейта : Переменный
Битрейт : 12,5 Мбит/сек
Максимальный битрейт : 20,0 Мбит/сек
Ширина : 1280 пикселей
Высота : 720 пикселей
Соотношение сторон : 16:9
Частота кадров : 29,970 кадров/сек
Цветовое пространство : YUV
Субдискретизация насыщенности : 4:2:0
Битовая глубина : 8 бит
Тип развёртки : Прогрессивная
Метод сжатия : С потерями
Бит/(Пиксели*Кадры) : 0.454
Размер потока : 407 Мбайт

Аудио
Идентификатор : 257 (0x101)
Идентификатор меню : 1 (0x1)
Формат : MPEG Audio
Версия формата : Version 1
Профиль формата : Layer 2
Идентификатор кодека : 3
Продолжительность : 4 м. 32 с.
Вид битрейта : Постоянный
Битрейт : 320 Кбит/сек
Каналы : 2 канала
Частота : 48,0 КГц
Метод сжатия : С потерями
Размер потока : 10,4 Мбайт (3%)
Язык : English

Меню
Идентификатор : 4095 (0xFFF)
Идентификатор меню : 1 (0x1)
Продолжительность : 3 м. 14 с.
Список : 256 (0x100) (MPEG Video) / 257 (0x101) (MPEG Audio, English)
Язык : / English
Название сервиса : Service01
Поставщик сервиса : FFmpeg
Тип сервиса : digital television

info [Профиль]  [ЛС] 
Показать сообщения:    
Ответить на тему

Текущее время: 15-Июл 03:52

Часовой пояс: GMT + 4



Вы не можете начинать темы
Вы не можете отвечать на сообщения
Вы не можете редактировать свои сообщения
Вы не можете удалять свои сообщения
Вы не можете голосовать в опросах
Вы не можете прикреплять файлы к сообщениям
Вы не можете скачивать файлы