Ошибка

Каста - 5 клипов [2010-2011, Rap, Full HD 1080p] {Миллиард лет, Закрытый космос, Самый Счастливый Человек, Это Прет, Выше к небу (Песочные люди)}

Ответить на тему
 
Автор Сообщение

F.A.N.T.O.M

Пол: Пол:Муж

Стаж: 5 месяцев 28 дней

Сообщений: 425

Россия
Рейтинг

post 12-Июн-2024 01:14 1[+]

[Цитировать] 


Каста - Клипы в 1080p


Жанр: Русский рэп || Страна: Россия || Год выпуска:: 2010-2011 || Контейнер: MP4 || Качество видео: AVC Full HD 1080p


Цитата:

Каста — российская рэп-команда из Ростова-на-Дону. В состав группы входят Влади, Хамиль, Шым, Змей.



Каста - Миллиард лет
Жанр: Rap
Продолжительность: 00:04:20
Год выпуска: 2011
Режиссер: Михаил Сегал
Оператор: Максим Трапо
Продакшн: "Vilks Post"
Постпродакшн: "Art Rener Studio".
Описание: Новый видеоклип Касты "Миллиард лет" снималось, как и два предыдущих ("Закрытый космос" и "Метла"), в Латвии, в Риге. Это единственная песня с альбома "ХЗ", в которой встретились все четыре участника группы Касты.
Доп. информация:
Ну и что, что ты меня узнал?! Нахрена тыкать пальцем и громко шептать: "Это из Касты"?! Бесит!
Ты любимая жена?! И что? Зачем кладешь на плечи мужа свои бытовые обязанности?! Несправедливо!
Позарез нужен элементарный планшет для бумаги размера А5, а все, что продается - никому не нужные и бесполезные других размеров. Сами их покупайте!

Какого черта вы лезете со своими советами, на что тратить деньги?! Без вас знаю, как жить!!!

Сейчас это для пацанов из Касты самые важные вопросы, и не понятно, как жить дальше, пока они не решены. Говорят, есть один человек, который научит как справиться с любыми проблемами - мудрый индийский гуру. Он знает о вселенной и о мироздании, о моменте и о вечности, о жизни и смерти. Чушь!!! Шарлатан!!!
Качество: Full HD 1080p
Контейнер: MP4
Видео кодек: H.264 (AVC)
Аудио кодек: AAC
Видео: AVC, 1 920*1080, 32.3 Mbps, 25.000 fps
Аудио: AAC, 256 Kbps, 48.0 KHz, 2 channels
General 
Complete name : L:\ -= MussiC =-\Clips\Каста\Каста - Миллиард лет (2011).mp4
Format : MPEG-4
Format profile : Base Media / Version 2
Codec ID : mp42
File size : 945 MiB
Duration : 4mn 3s
Overall bit rate : 32.5 Mbps
Encoded date : UTC 2011-05-02 21:10:23
Tagged date : UTC 2011-05-02 21:13:06

Video
ID : 1
Format : AVC
Format/Info : Advanced Video Codec
Format profile : Baseline@L5.1
Format settings, CABAC : No
Format settings, ReFrames : 2 frames
Format settings, GOP : M=1, N=25
Codec ID : avc1
Codec ID/Info : Advanced Video Coding
Duration : 4mn 3s
Bit rate mode : Variable
Bit rate : 32.3 Mbps
Width : 1 920 pixels
Height : 1 080 pixels
Display aspect ratio : 16:9
Frame rate mode : Constant
Frame rate : 25.000 fps
Color space : YUV
Chroma subsampling : 4:2:0
Bit depth : 8 bits
Scan type : Progressive
Bits/(Pixel*Frame) : 0.623
Stream size : 937 MiB (99%)
Language : English
Encoded date : UTC 2011-05-02 21:10:22
Tagged date : UTC 2011-05-02 21:13:06
Color primaries : BT.709-5, BT.1361, IEC 61966-2-4, SMPTE RP177
Transfer characteristics : BT.709-5, BT.1361
Matrix coefficients : BT.709-5, BT.1361, IEC 61966-2-4 709, SMPTE RP177

Audio
ID : 2
Format : AAC
Format/Info : Advanced Audio Codec
Format version : Version 4
Format profile : LC
Format settings, SBR : No
Codec ID : 40
Duration : 4mn 3s
Bit rate mode : Constant
Bit rate : 256 Kbps
Channel(s) : 2 channels
Channel positions : Front: L R
Sampling rate : 48.0 KHz
Stream size : 7.43 MiB (1%)
Language : English
Encoded date : UTC 2011-05-02 21:10:22
Tagged date : UTC 2011-05-02 21:13:07
Качество: Full HD 1080p
Контейнер: MP4
Видео кодек: H.264 (AVC)
Аудио кодек: AAC
Видео: AVC, 1 920*1080, 40.4 Mbps, 25.000 fps
Аудио: AAC, 256 Kbps, 48.0 KHz, 2 channels
General 
Complete name : L:\ -= MussiC =-\Clips\Каста\Каста - Закрытый космос (2010).mp4
Format : MPEG-4
Format profile : Base Media / Version 2
Codec ID : mp42
File size : 947 MiB
Duration : 3mn 15s
Overall bit rate : 40.7 Mbps
Encoded date : UTC 2011-05-06 11:23:10
Tagged date : UTC 2011-05-06 11:34:36

Video
ID : 1
Format : AVC
Format/Info : Advanced Video Codec
Format profile : Baseline@L5.1
Format settings, CABAC : No
Format settings, ReFrames : 2 frames
Codec ID : avc1
Codec ID/Info : Advanced Video Coding
Duration : 3mn 15s
Bit rate mode : Variable
Bit rate : 40.4 Mbps
Width : 1 920 pixels
Height : 1 080 pixels
Display aspect ratio : 16:9
Frame rate mode : Constant
Frame rate : 25.000 fps
Color space : YUV
Chroma subsampling : 4:2:0
Bit depth : 8 bits
Scan type : Progressive
Bits/(Pixel*Frame) : 0.779
Stream size : 941 MiB (99%)
Language : English
Encoded date : UTC 2011-05-06 11:23:10
Tagged date : UTC 2011-05-06 11:34:36
Color primaries : BT.709-5, BT.1361, IEC 61966-2-4, SMPTE RP177
Transfer characteristics : BT.709-5, BT.1361
Matrix coefficients : BT.709-5, BT.1361, IEC 61966-2-4 709, SMPTE RP177

Audio
ID : 2
Format : AAC
Format/Info : Advanced Audio Codec
Format version : Version 4
Format profile : LC
Format settings, SBR : No
Codec ID : 40
Duration : 3mn 15s
Bit rate mode : Constant
Bit rate : 256 Kbps
Channel(s) : 2 channels
Channel positions : Front: L R
Sampling rate : 48.0 KHz
Stream size : 5.96 MiB (1%)
Language : English
Encoded date : UTC 2011-05-06 11:23:10
Tagged date : UTC 2011-05-06 11:34:36
Качество: Full HD 1080p
Контейнер: MP4
Видео кодек: H.264 (AVC)
Аудио кодек: AAC
Видео: AVC, 1 920*1080, 30.9 Mbps, 25.000 fps
Аудио: AAC, 256 Kbps, 48.0 KHz, 2 channels
General 
Complete name : L:\ -= MussiC =-\Clips\Каста\Каста - Самый Счастливый Человек (2011).mp4
Format : MPEG-4
Format profile : Base Media / Version 2
Codec ID : mp42
File size : 731 MiB
Duration : 3mn 16s
Overall bit rate : 31.2 Mbps
Encoded date : UTC 2011-05-06 11:17:53
Tagged date : UTC 2011-05-06 11:30:37

Video
ID : 1
Format : AVC
Format/Info : Advanced Video Codec
Format profile : Baseline@L5.1
Format settings, CABAC : No
Format settings, ReFrames : 2 frames
Format settings, GOP : M=1, N=25
Codec ID : avc1
Codec ID/Info : Advanced Video Coding
Duration : 3mn 16s
Bit rate mode : Variable
Bit rate : 30.9 Mbps
Width : 1 920 pixels
Height : 1 080 pixels
Display aspect ratio : 16:9
Frame rate mode : Constant
Frame rate : 25.000 fps
Color space : YUV
Chroma subsampling : 4:2:0
Bit depth : 8 bits
Scan type : Progressive
Bits/(Pixel*Frame) : 0.597
Stream size : 725 MiB (99%)
Language : English
Encoded date : UTC 2011-05-06 11:17:53
Tagged date : UTC 2011-05-06 11:30:37
Color primaries : BT.709-5, BT.1361, IEC 61966-2-4, SMPTE RP177
Transfer characteristics : BT.709-5, BT.1361
Matrix coefficients : BT.709-5, BT.1361, IEC 61966-2-4 709, SMPTE RP177

Audio
ID : 2
Format : AAC
Format/Info : Advanced Audio Codec
Format version : Version 4
Format profile : LC
Format settings, SBR : No
Codec ID : 40
Duration : 3mn 16s
Bit rate mode : Constant
Bit rate : 256 Kbps
Channel(s) : 2 channels
Channel positions : Front: L R
Sampling rate : 48.0 KHz
Stream size : 6.00 MiB (1%)
Language : English
Encoded date : UTC 2011-05-06 11:17:53
Tagged date : UTC 2011-05-06 11:30:37
Качество: Full HD 1080p
Контейнер: MP4
Видео кодек: H.264 (AVC)
Аудио кодек: AAC
Видео: AVC, 1 920*1080, 44.7 Mbps, 25.000 fps
Аудио: AAC, 256 Kbps, 48.0 KHz, 2 channels
General 
Complete name : L:\ -= MussiC =-\Clips\Каста\Каста\Каста - Это Прет (2011).mp4
Format : MPEG-4
Format profile : Base Media / Version 2
Codec ID : mp42
File size : 1.26 GiB
Duration : 3mn 59s
Overall bit rate : 45.0 Mbps
Encoded date : UTC 2011-07-18 20:08:02
Tagged date : UTC 2011-07-18 20:09:11

Video
ID : 1
Format : AVC
Format/Info : Advanced Video Codec
Format profile : Baseline@L5.1
Format settings, CABAC : No
Format settings, ReFrames : 2 frames
Format settings, GOP : M=1, N=25
Codec ID : avc1
Codec ID/Info : Advanced Video Coding
Duration : 3mn 59s
Bit rate mode : Variable
Bit rate : 44.7 Mbps
Width : 1 920 pixels
Height : 1 080 pixels
Display aspect ratio : 16:9
Frame rate mode : Constant
Frame rate : 25.000 fps
Color space : YUV
Chroma subsampling : 4:2:0
Bit depth : 8 bits
Scan type : Progressive
Bits/(Pixel*Frame) : 0.863
Stream size : 1.25 GiB (99%)
Language : English
Encoded date : UTC 2011-07-18 20:08:01
Tagged date : UTC 2011-07-18 20:09:11
Color primaries : BT.709-5, BT.1361, IEC 61966-2-4, SMPTE RP177
Transfer characteristics : BT.709-5, BT.1361
Matrix coefficients : BT.709-5, BT.1361, IEC 61966-2-4 709, SMPTE RP177

Audio
ID : 2
Format : AAC
Format/Info : Advanced Audio Codec
Format version : Version 4
Format profile : LC
Format settings, SBR : No
Codec ID : 40
Duration : 3mn 59s
Bit rate mode : Constant
Bit rate : 256 Kbps
Channel(s) : 2 channels
Channel positions : Front: L R
Sampling rate : 44.1 KHz
Stream size : 7.32 MiB (1%)
Language : English
Encoded date : UTC 2011-07-18 20:08:01
Tagged date : UTC 2011-07-18 20:09:11
Качество: Full HD 1080p
Контейнер: MP4
Видео кодек: H.264 (AVC)
Аудио кодек: AAC
Видео: AVC, 1 920*1080, 34.4 Mbps, 25.000 fps
Аудио: AAC, 256 Kbps, 48.0 KHz, 2 channels
General 
Complete name : L:\ -= MussiC =-\Clips\Каста\Каста\Песочные люди и Влади - Выше к небу (2011).mp4
Format : MPEG-4
Format profile : Base Media / Version 2
Codec ID : mp42
File size : 945 MiB
Duration : 3mn 48s
Overall bit rate : 34.7 Mbps
Encoded date : UTC 2011-07-10 19:24:32
Tagged date : UTC 2011-07-10 19:25:18

Video
ID : 1
Format : AVC
Format/Info : Advanced Video Codec
Format profile : Baseline@L5.0
Format settings, CABAC : No
Format settings, ReFrames : 2 frames
Format settings, GOP : M=1, N=25
Codec ID : avc1
Codec ID/Info : Advanced Video Coding
Duration : 3mn 48s
Bit rate mode : Variable
Bit rate : 34.4 Mbps
Width : 1 920 pixels
Height : 1 080 pixels
Display aspect ratio : 16:9
Frame rate mode : Constant
Frame rate : 25.000 fps
Color space : YUV
Chroma subsampling : 4:2:0
Bit depth : 8 bits
Scan type : Progressive
Bits/(Pixel*Frame) : 0.664
Stream size : 938 MiB (99%)
Language : English
Encoded date : UTC 2011-07-10 19:24:32
Tagged date : UTC 2011-07-10 19:25:18
Color primaries : BT.709-5, BT.1361, IEC 61966-2-4, SMPTE RP177
Transfer characteristics : BT.709-5, BT.1361
Matrix coefficients : BT.709-5, BT.1361, IEC 61966-2-4 709, SMPTE RP177

Audio
ID : 2
Format : AAC
Format/Info : Advanced Audio Codec
Format version : Version 4
Format profile : LC
Format settings, SBR : No
Codec ID : 40
Duration : 3mn 48s
Bit rate mode : Constant
Bit rate : 256 Kbps
Channel(s) : 2 channels
Channel positions : Front: L R
Sampling rate : 48.0 KHz
Stream size : 6.98 MiB (1%)
Language : English
Encoded date : UTC 2011-07-10 19:24:32
Tagged date : UTC 2011-07-10 19:25:18
info [Профиль]  [ЛС] 
Показать сообщения:    
Ответить на тему

Текущее время: 19-Июн 17:35

Часовой пояс: GMT + 4



Вы не можете начинать темы
Вы не можете отвечать на сообщения
Вы не можете редактировать свои сообщения
Вы не можете удалять свои сообщения
Вы не можете голосовать в опросах
Вы не можете прикреплять файлы к сообщениям
Вы не можете скачивать файлы