Ошибка

(Rap, Hip-Hop) [CD] Onyx (Sticky Fingaz, Fredro Starr, Suave, Big DS) - Коллекция (4 релиза) - 1993-2019, FLAC (tracks+.cue), lossless

Ответить на тему
 
Автор Сообщение

F.A.N.T.O.M

Пол: Пол:Муж

Стаж: 5 месяцев 29 дней

Сообщений: 432

Россия
Рейтинг

post 09-Июн-2024 15:44 0[+]

[Цитировать] 

Onyx - Коллекция
Жанр: Rap, Hip-Hop | Носитель: CD | Страна-производитель диска: EU, US | Страна: Queens, New York City, U.S. | Аудиокодек : FLAC | Битрейт аудио: lossless | Программа-риповщик: EAC (диск)
Общая продолжительность: 03:27:38 | Источник (релизер): Собственные диски | Наличие сканов в содержимом раздачи: да

Albums

Издатель (лейбл): JMJ, Rush Associated Labels, Chaos
Номер по каталогу: OK 53302
Продолжительность: 00:47:37


Треклист:
01. Bacdafucup (00:48)
02. Bichasniguz (03:55)
03. Throw Ya Gunz (03:16)
04. Here 'N' Now (03:40)
05. Bust Dat Ass (00:38)
06. Atak Of Da Bal-Hedz (03:13)
07. Da Mad Face Invasion (00:46)
08. Blac Vagina Finda (03:12)
09. Da Bounca Nigga (00:29)
10. Nigga Bridges (04:13)
11. Onyx Is Here (03:04)
12. Slam (03:38)
13. Stik 'N' Muve (03:21)
14. Bichasbootleguz (00:27)
15. Shifftee (04:20)
16. Phat ('N' All Dat) (03:17)
17. Da Nex Niguz (04:07)
18. Getdafucout (01:09)
 
Exact Audio Copy V1.6 from 23. October 2020

Отчёт EAC об извлечении, выполненном 28. февраля 2024, 19:23

Onyx / Bacdafucup

Дисковод: TSSTcorpDVD-ROM SH-118AB Adapter: 1 ID: 0

Режим чтения : Достоверность
Использование точного потока : Да
Отключение кэша аудио : Да
Использование указателей C2 : Нет

Коррекция смещения при чтении : 6
Способность читать области Lead-in и Lead-out : Нет
Заполнение пропущенных сэмплов тишиной : Да
Удаление блоков с тишиной в начале и конце : Нет
При вычислениях CRC использовались нулевые сэмплы : Да
Интерфейс : Встроенный Win32-интерфейс для Win NT/2000
Обработка зазоров : Добавлено к предыдущему треку

Выходной формат : Пользовательский кодировщик
Выбранный битрейт : 768 kBit/s
Качество : Высокий
Добавление ID3-тега : Нет
Утилита сжатия : C:\Program Files (x86)\foobar2000\encoders\flac.exe
Дополнительные параметры : -V -8 -T "ARTIST=%artist%" -T "TITLE=%title%" -T "ALBUM=%albumtitle%" -T "DATE=%year%" -T "TRACKNUMBER=%tracknr%" -T "GENRE=%genre%" -T "BAND=%albuminterpret%" -T "ALBUMARTIST=%albuminterpret%" -T "COMPOSER=%composer%" %haslyrics%--tag-from-file=LYRICS="%lyricsfile%"%haslyrics% -T "DISCNUMBER=%cdnumber%" -T "TOTALDISCS=%totalcds%" -T "TOTALTRACKS=%numtracks%" %hascover%--picture="%coverfile%"%hascover% %source% -o %dest%

TOC извлечённого CD

Трек | Старт | Длительность | Начальный сектор | Конечный сектор
---------------------------------------------------------------------
1 | 0:00.00 | 0:48.35 | 0 | 3634
2 | 0:48.35 | 3:54.65 | 3635 | 21249
3 | 4:43.25 | 3:16.32 | 21250 | 35981
4 | 7:59.57 | 3:40.25 | 35982 | 52506
5 | 11:40.07 | 0:38.00 | 52507 | 55356
6 | 12:18.07 | 3:12.70 | 55357 | 69826
7 | 15:31.02 | 0:46.33 | 69827 | 73309
8 | 16:17.35 | 3:12.37 | 73310 | 87746
9 | 19:29.72 | 0:29.35 | 87747 | 89956
10 | 19:59.32 | 4:12.53 | 89957 | 108909
11 | 24:12.10 | 3:03.70 | 108910 | 122704
12 | 27:16.05 | 3:38.30 | 122705 | 139084
13 | 30:54.35 | 3:20.72 | 139085 | 154156
14 | 34:15.32 | 0:27.35 | 154157 | 156216
15 | 34:42.67 | 4:19.50 | 156217 | 175691
16 | 39:02.42 | 3:17.33 | 175692 | 190499
17 | 42:20.00 | 4:07.37 | 190500 | 209061
18 | 46:27.37 | 1:09.10 | 209062 | 214246

Трек 1

Имя файла E:\Мои Рипы\Onyx - Коллекция (4 релиза) (FLAC)\(1993) Bacdafucup\01. Bacdafucup.wav

Длина предзазора 0:00:02.00

Пиковый уровень 87.6 %
Скорость извлечения 1.8 X
Качество трека 99.7 %
CRC теста 49CAECDE
CRC копии 49CAECDE
Точное извлечение (достоверность 6) [CB4694F0] (AR v2)
Копирование... OK

Трек 2

Имя файла E:\Мои Рипы\Onyx - Коллекция (4 релиза) (FLAC)\(1993) Bacdafucup\02. Bichasniguz.wav

Пиковый уровень 86.2 %
Скорость извлечения 4.4 X
Качество трека 100.0 %
CRC теста 6F3CA7FF
CRC копии 6F3CA7FF
Точное извлечение (достоверность 6) [55B67762] (AR v2)
Копирование... OK

Трек 3

Имя файла E:\Мои Рипы\Onyx - Коллекция (4 релиза) (FLAC)\(1993) Bacdafucup\03. Throw Ya Gunz.wav

Длина предзазора 0:00:00.25

Пиковый уровень 84.7 %
Скорость извлечения 4.7 X
Качество трека 100.0 %
CRC теста C101AD42
CRC копии C101AD42
Точное извлечение (достоверность 6) [DB93F0F3] (AR v2)
Копирование... OK

Трек 4

Имя файла E:\Мои Рипы\Onyx - Коллекция (4 релиза) (FLAC)\(1993) Bacdafucup\04. Here 'N' Now.wav

Пиковый уровень 84.0 %
Скорость извлечения 5.1 X
Качество трека 100.0 %
CRC теста E94D4A94
CRC копии E94D4A94
Точное извлечение (достоверность 6) [E221C3D6] (AR v2)
Копирование... OK

Трек 5

Имя файла E:\Мои Рипы\Onyx - Коллекция (4 релиза) (FLAC)\(1993) Bacdafucup\05. Bust Dat Ass.wav

Пиковый уровень 76.5 %
Скорость извлечения 3.1 X
Качество трека 100.0 %
CRC теста 0ACFC363
CRC копии 0ACFC363
Точное извлечение (достоверность 7) [02DEA439] (AR v2)
Копирование... OK

Трек 6

Имя файла E:\Мои Рипы\Onyx - Коллекция (4 релиза) (FLAC)\(1993) Bacdafucup\06. Atak Of Da Bal-Hedz.wav

Пиковый уровень 75.1 %
Скорость извлечения 5.4 X
Качество трека 100.0 %
CRC теста 0A0A2BAF
CRC копии 0A0A2BAF
Точное извлечение (достоверность 7) [C1F850DA] (AR v2)
Копирование... OK

Трек 7

Имя файла E:\Мои Рипы\Onyx - Коллекция (4 релиза) (FLAC)\(1993) Bacdafucup\07. Da Mad Face Invasion.wav

Длина предзазора 0:00:01.40

Пиковый уровень 72.7 %
Скорость извлечения 3.6 X
Качество трека 100.0 %
CRC теста 7FC5B39D
CRC копии 7FC5B39D
Точное извлечение (достоверность 6) [DB78C262] (AR v2)
Копирование... OK

Трек 8

Имя файла E:\Мои Рипы\Onyx - Коллекция (4 релиза) (FLAC)\(1993) Bacdafucup\08. Blac Vagina Finda.wav

Пиковый уровень 70.4 %
Скорость извлечения 5.8 X
Качество трека 100.0 %
CRC теста C743AD08
CRC копии C743AD08
Точное извлечение (достоверность 6) [96588BAA] (AR v2)
Копирование... OK

Трек 9

Имя файла E:\Мои Рипы\Onyx - Коллекция (4 релиза) (FLAC)\(1993) Bacdafucup\09. Da Bounca Nigga.wav

Длина предзазора 0:00:00.02

Пиковый уровень 84.6 %
Скорость извлечения 3.0 X
Качество трека 100.0 %
CRC теста ACB6F89A
CRC копии ACB6F89A
Точное извлечение (достоверность 6) [06BB6C17] (AR v2)
Копирование... OK

Трек 10

Имя файла E:\Мои Рипы\Onyx - Коллекция (4 релиза) (FLAC)\(1993) Bacdafucup\10. Nigga Bridges.wav

Пиковый уровень 85.1 %
Скорость извлечения 6.3 X
Качество трека 100.0 %
CRC теста AC7B5A3E
CRC копии AC7B5A3E
Точное извлечение (достоверность 6) [C6AF5772] (AR v2)
Копирование... OK

Трек 11

Имя файла E:\Мои Рипы\Onyx - Коллекция (4 релиза) (FLAC)\(1993) Bacdafucup\11. Onyx Is Here.wav

Длина предзазора 0:00:01.30

Пиковый уровень 67.8 %
Скорость извлечения 5.4 X
Качество трека 99.9 %
CRC теста 43799888
CRC копии 43799888
Точное извлечение (достоверность 6) [AE4BF17D] (AR v2)
Копирование... OK

Трек 12

Имя файла E:\Мои Рипы\Onyx - Коллекция (4 релиза) (FLAC)\(1993) Bacdafucup\12. Slam.wav

Длина предзазора 0:00:00.60

Пиковый уровень 85.6 %
Скорость извлечения 6.8 X
Качество трека 100.0 %
CRC теста 4555FFDF
CRC копии 4555FFDF
Точное извлечение (достоверность 6) [53FB8142] (AR v2)
Копирование... OK

Трек 13

Имя файла E:\Мои Рипы\Onyx - Коллекция (4 релиза) (FLAC)\(1993) Bacdafucup\13. Stik 'N' Muve.wav

Пиковый уровень 84.1 %
Скорость извлечения 6.9 X
Качество трека 100.0 %
CRC теста EB3CAC6B
CRC копии EB3CAC6B
Точное извлечение (достоверность 7) [FDF6C8A5] (AR v2)
Копирование... OK

Трек 14

Имя файла E:\Мои Рипы\Onyx - Коллекция (4 релиза) (FLAC)\(1993) Bacdafucup\14. Bichasbootleguz.wav

Пиковый уровень 89.9 %
Скорость извлечения 3.2 X
Качество трека 100.0 %
CRC теста B5006F49
CRC копии B5006F49
Точное извлечение (достоверность 6) [B019B02E] (AR v2)
Копирование... OK

Трек 15

Имя файла E:\Мои Рипы\Onyx - Коллекция (4 релиза) (FLAC)\(1993) Bacdafucup\15. Shifftee.wav

Пиковый уровень 82.4 %
Скорость извлечения 7.4 X
Качество трека 100.0 %
CRC теста B50C8676
CRC копии B50C8676
Точное извлечение (достоверность 7) [E838BF1B] (AR v2)
Копирование... OK

Трек 16

Имя файла E:\Мои Рипы\Onyx - Коллекция (4 релиза) (FLAC)\(1993) Bacdafucup\16. Phat ('N' All Dat).wav

Пиковый уровень 80.5 %
Скорость извлечения 3.0 X
Качество трека 100.0 %
CRC теста E87383AB
CRC копии E87383AB
Точное извлечение (достоверность 6) [E18E79A7] (AR v2)
Копирование... OK

Трек 17

Имя файла E:\Мои Рипы\Onyx - Коллекция (4 релиза) (FLAC)\(1993) Bacdafucup\17. Da Nex Niguz.wav

Пиковый уровень 84.5 %
Скорость извлечения 3.2 X
Качество трека 100.0 %
CRC теста 189C32A9
CRC копии 189C32A9
Точное извлечение (достоверность 7) [3CD32245] (AR v2)
Копирование... OK

Трек 18

Имя файла E:\Мои Рипы\Onyx - Коллекция (4 релиза) (FLAC)\(1993) Bacdafucup\18. Getdafucout.wav

Пиковый уровень 86.6 %
Скорость извлечения 2.4 X
Качество трека 100.0 %
CRC теста 7264AC76
CRC копии 7264AC76
Точное извлечение (достоверность 7) [A8856CB1] (AR v2)
Копирование... OK

Все треки извлечены точно

Ошибок не произошло

Конец отчёта

---- CUETools DB Plugin V2.1.6

[CTDB TOCID: StbcAXOwQeSF2pA0.whSWLc25Dg-] found
Submit result: StbcAXOwQeSF2pA0.whSWLc25Dg- has been confirmed
Track | CTDB Status
1 | (96/96) Accurately ripped
2 | (96/96) Accurately ripped
3 | (95/96) Accurately ripped
4 | (95/96) Accurately ripped
5 | (95/96) Accurately ripped
6 | (96/96) Accurately ripped
7 | (96/96) Accurately ripped
8 | (95/96) Accurately ripped
9 | (96/96) Accurately ripped
10 | (95/96) Accurately ripped
11 | (96/96) Accurately ripped
12 | (95/96) Accurately ripped
13 | (94/96) Accurately ripped
14 | (95/96) Accurately ripped
15 | (94/96) Accurately ripped
16 | (91/96) Accurately ripped
17 | (94/96) Accurately ripped
18 | (94/96) Accurately ripped

==== Контрольная сумма отчёта 55E9999025B5A5B91C25992DA55A3F0D22C3ACC457A1275D4FCA4BB8773593B4 ====
 
REM GENRE Rap
REM DATE 1993
REM DISCID F10B2812
REM COMMENT "ExactAudioCopy v1.6"
PERFORMER "Onyx"
TITLE "Bacdafucup"
REM COMPOSER ""
FILE "01. Bacdafucup.wav" WAVE
TRACK 01 AUDIO
TITLE "Bacdafucup"
PERFORMER "Onyx"
REM COMPOSER "Chyskillz, Jam Master Jay"
INDEX 01 00:00:00
FILE "02. Bichasniguz.wav" WAVE
TRACK 02 AUDIO
TITLE "Bichasniguz"
PERFORMER "Onyx"
REM COMPOSER "Jam Master Jay, Chyskillz"
INDEX 01 00:00:00
TRACK 03 AUDIO
TITLE "Throw Ya Gunz"
PERFORMER "Onyx"
REM COMPOSER "Chyskillz"
INDEX 00 03:54:40
FILE "03. Throw Ya Gunz.wav" WAVE
INDEX 01 00:00:00
FILE "04. Here 'N' Now.wav" WAVE
TRACK 04 AUDIO
TITLE "Here 'N' Now"
PERFORMER "Onyx"
REM COMPOSER "Chyskillz"
INDEX 01 00:00:00
FILE "05. Bust Dat Ass.wav" WAVE
TRACK 05 AUDIO
TITLE "Bust Dat Ass"
PERFORMER "Onyx"
REM COMPOSER "Chyskillz, Jam Master Jay"
INDEX 01 00:00:00
FILE "06. Atak Of Da Bal-Hedz.wav" WAVE
TRACK 06 AUDIO
TITLE "Atak Of Da Bal-Hedz"
PERFORMER "Onyx"
REM COMPOSER "Kool Tee"
INDEX 01 00:00:00
TRACK 07 AUDIO
TITLE "Da Mad Face Invasion"
PERFORMER "Onyx"
REM COMPOSER "Jam Master Jay, Chyskillz"
INDEX 00 03:11:30
FILE "07. Da Mad Face Invasion.wav" WAVE
INDEX 01 00:00:00
FILE "08. Blac Vagina Finda.wav" WAVE
TRACK 08 AUDIO
TITLE "Blac Vagina Finda"
PERFORMER "Onyx"
REM COMPOSER "Jam Master Jay, Chyskillz, Jeff Harris"
INDEX 01 00:00:00
TRACK 09 AUDIO
TITLE "Da Bounca Nigga"
PERFORMER "Onyx"
REM COMPOSER "Jam Master Jay, Chyskillz"
INDEX 00 03:12:35
FILE "09. Da Bounca Nigga.wav" WAVE
INDEX 01 00:00:00
FILE "10. Nigga Bridges.wav" WAVE
TRACK 10 AUDIO
TITLE "Nigga Bridges"
PERFORMER "Onyx"
REM COMPOSER "Jam Master Jay, Chyskillz, Jeff Harris"
INDEX 01 00:00:00
TRACK 11 AUDIO
TITLE "Onyx Is Here"
PERFORMER "Onyx"
REM COMPOSER "Jam Master Jay, Chyskillz"
INDEX 00 04:11:23
FILE "11. Onyx Is Here.wav" WAVE
INDEX 01 00:00:00
TRACK 12 AUDIO
TITLE "Slam"
PERFORMER "Onyx"
REM COMPOSER "Jam Master Jay, Chyskillz"
INDEX 00 03:03:10
FILE "12. Slam.wav" WAVE
INDEX 01 00:00:00
FILE "13. Stik 'N' Muve.wav" WAVE
TRACK 13 AUDIO
TITLE "Stik 'N' Muve"
PERFORMER "Onyx"
REM COMPOSER "Jeff Harris, Jam Master Jay, Chyskillz"
INDEX 01 00:00:00
FILE "14. Bichasbootleguz.wav" WAVE
TRACK 14 AUDIO
TITLE "Bichasbootleguz"
PERFORMER "Onyx"
REM COMPOSER "Jam Master Jay, Chyskillz"
INDEX 01 00:00:00
FILE "15. Shifftee.wav" WAVE
TRACK 15 AUDIO
TITLE "Shifftee"
PERFORMER "Onyx"
REM COMPOSER "Jam Master Jay, Chyskillz"
INDEX 01 00:00:00
FILE "16. Phat ('N' All Dat).wav" WAVE
TRACK 16 AUDIO
TITLE "Phat ('N' All Dat)"
PERFORMER "Onyx"
REM COMPOSER "Chyskillz"
INDEX 01 00:00:00
FILE "17. Da Nex Niguz.wav" WAVE
TRACK 17 AUDIO
TITLE "Da Nex Niguz"
PERFORMER "Onyx"
REM COMPOSER "Kool Tee"
INDEX 01 00:00:00
FILE "18. Getdafucout.wav" WAVE
TRACK 18 AUDIO
TITLE "Getdafucout"
PERFORMER "Onyx"
REM COMPOSER "Chyskillz, Jam Master Jay"
INDEX 01 00:00:00
 
Cue Corrector v. 10.2.3 / b. 2109 (Feb. 07, 2024)
————————————————————————————————————————————————————————————————————————
Onyx / Bacdafucup

Folder: (1993) Bacdafucup
Audio files:
01. Bacdafucup.flac [00:48.467; FLAC • 769 kbps • 16 bit \ 44100 Hz • stereo; 4.44 MB (4 659 086 B)]
02. Bichasniguz.flac [03:54.867; FLAC • 848 kbps • 16 bit \ 44100 Hz • stereo; 23.76 MB (24 916 617 B)]
03. Throw Ya Gunz.flac [03:16.427; FLAC • 881 kbps • 16 bit \ 44100 Hz • stereo; 20.64 MB (21 642 463 B)]
04. Here 'N' Now.flac [03:40.333; FLAC • 794 kbps • 16 bit \ 44100 Hz • stereo; 20.88 MB (21 893 395 B)]
05. Bust Dat Ass.flac [00:38.000; FLAC • 740 kbps • 16 bit \ 44100 Hz • stereo; 3.35 MB (3 516 362 B)]
06. Atak Of Da Bal-Hedz.flac [03:12.933; FLAC • 841 kbps • 16 bit \ 44100 Hz • stereo; 19.36 MB (20 301 922 B)]
07. Da Mad Face Invasion.flac [00:46.440; FLAC • 776 kbps • 16 bit \ 44100 Hz • stereo; 4.30 MB (4 509 988 B)]
08. Blac Vagina Finda.flac [03:12.493; FLAC • 831 kbps • 16 bit \ 44100 Hz • stereo; 19.09 MB (20 014 751 B)]
09. Da Bounca Nigga.flac [00:29.467; FLAC • 709 kbps • 16 bit \ 44100 Hz • stereo; 2.49 MB (2 611 902 B)]
10. Nigga Bridges.flac [04:12.707; FLAC • 820 kbps • 16 bit \ 44100 Hz • stereo; 24.72 MB (25 919 725 B)]
11. Onyx Is Here.flac [03:03.933; FLAC • 754 kbps • 16 bit \ 44100 Hz • stereo; 16.55 MB (17 354 126 B)]
12. Slam.flac [03:38.400; FLAC • 781 kbps • 16 bit \ 44100 Hz • stereo; 20.35 MB (21 337 209 B)]
13. Stik 'N' Muve.flac [03:20.960; FLAC • 881 kbps • 16 bit \ 44100 Hz • stereo; 21.13 MB (22 152 649 B)]
14. Bichasbootleguz.flac [00:27.467; FLAC • 824 kbps • 16 bit \ 44100 Hz • stereo; 2.70 MB (2 831 979 B)]
15. Shifftee.flac [04:19.667; FLAC • 755 kbps • 16 bit \ 44100 Hz • stereo; 23.38 MB (24 518 960 B)]
16. Phat ('N' All Dat).flac [03:17.440; FLAC • 790 kbps • 16 bit \ 44100 Hz • stereo; 18.60 MB (19 499 880 B)]
17. Da Nex Niguz.flac [04:07.493; FLAC • 777 kbps • 16 bit \ 44100 Hz • stereo; 22.93 MB (24 042 519 B)]
18. Getdafucout.flac [01:09.133; FLAC • 785 kbps • 16 bit \ 44100 Hz • stereo; 6.47 MB (6 788 924 B)]

Accuracy: -m0

File 01. Bacdafucup - 100% CDDA [00:48:35]
File 02. Bichasniguz - 100% CDDA [03:54:65]
File 03. Throw Ya Gunz - 99% CDDA [03:16:32]
File 04. Here 'N' Now - 100% CDDA [03:40:25]
File 05. Bust Dat Ass - 100% CDDA [00:38:00]
File 06. Atak Of Da Bal-Hedz - 100% CDDA [03:12:70]
File 07. Da Mad Face Invasion - 100% CDDA [00:46:33]
File 08. Blac Vagina Finda - 100% CDDA [03:12:37]
File 09. Da Bounca Nigga - 100% CDDA [00:29:35]
File 10. Nigga Bridges - 100% CDDA [04:12:53]
File 11. Onyx Is Here - 100% CDDA [03:03:70]
File 12. Slam - 100% CDDA [03:38:30]
File 13. Stik 'N' Muve - 100% CDDA [03:20:72]
File 14. Bichasbootleguz - 100% CDDA [00:27:35]
File 15. Shifftee - 100% CDDA [04:19:50]
File 16. Phat ('N' All Dat) - 100% CDDA [03:17:33]
File 17. Da Nex Niguz - 100% CDDA [04:07:37]
File 18. Getdafucout - 99% CDDA [01:09:10]
————— Summary: —————
These tracks looks like CDDA with probability 100%.
————————————————————————————————————————————————————————————————————————

ANALYZER:
auCDtect: CD records authenticity detector, version 0.8.2
Copyright (c) 2004 Oleg Berngardt. All rights reserved.
Copyright (c) 2004 Alexander Djourik. All rights reserved.

Time elapsed: 1 m 28 s
Log created at February 28, 2024 20:25:34

=== 830A4FB2FF124A6C90676506A1267D539E71B3CFAB779BD11140A355C04B7859 ===
«Bacdafucup» - дебютный студийный альбом американской хардкор-рэп-группы Onyx, выпущенный 30 марта 1993 года лейблами JMJ Records, Rush Associated Labels и Chaos Recordings. Альбом был спродюсирован Chyskillz, Jam Master Jay и Kool Tee. Bacdafucup достиг 17 места в чарте Billboard 200 и 8 места в чарте Top R&B/Hip Hop Albums в американском журнале Billboard. Альбом был сертифицирован как «платиновый» 25 октября 1993 года. В 1994 году за альбом Bacdafucup группа Onyx была номинирована на церемониях American Music Awards и The Source Hip Hop Music Awards, и победила в номинации «Лучший рэп-альбом» на церемонии Soul Train Music Awards. Альбом содержит 3 сингла, которые попали в чарты журнала Billboard: «Throw Ya Gunz», «Slam» и «Shifftee». Первый сингл, «Throw Ya Gunz», стал перекрёстным радиохитом. Их прорывной сингл, «Slam», который получил большую трансляцию на радио и телевидении, включая BET и MTV, достиг 4 места в чарте Billboard Hot 100, и был сертифицирован как «платиновый» 10 августа 1993 года. Bacdafucup — новаторский хип-хоп-альбом, который принёс в хип-хоп слэм, манеру исполнять песни мрачным голосом и моду брить голову наголо.
Издатель (лейбл): JMJ, Rush Associated Labels Recordings
Номер по каталогу: 314 529 265-2
Продолжительность: 00:45:14


Треклист:
01. Life Or Death (Skit) (00:48)
02. Last Dayz (03:57)
03. All We Got Iz Us (Evil Streets) (Feat. Panama P.I.) (04:13)
04. Purse Snatchaz (Feat. Greg Valentine) (04:08)
05. Shout (03:48)
06. I Murder U (Skit) (00:22)
07. Betta Off Dead (04:04)
08. Live Niguz (03:20)
09. Punkmotherfukaz (01:01)
10. Most Def (03:55)
11. Act Up (Skit) (00:23)
12. Getto Mentalitee (Feat. Panama P.I., All City) (04:22)
13. 2 Wrongs (03:58)
14. Maintain (Skit) (01:56)
15. Walk In New York (04:57)
 
Exact Audio Copy V1.6 from 23. October 2020

Отчёт EAC об извлечении, выполненном 2. марта 2024, 23:03

Onyx / All We Got Iz Us

Дисковод: TSSTcorpDVD-ROM SH-118AB Adapter: 1 ID: 0

Режим чтения : Достоверность
Использование точного потока : Да
Отключение кэша аудио : Да
Использование указателей C2 : Нет

Коррекция смещения при чтении : 6
Способность читать области Lead-in и Lead-out : Нет
Заполнение пропущенных сэмплов тишиной : Да
Удаление блоков с тишиной в начале и конце : Нет
При вычислениях CRC использовались нулевые сэмплы : Да
Интерфейс : Встроенный Win32-интерфейс для Win NT/2000
Обработка зазоров : Добавлено к предыдущему треку

Выходной формат : Пользовательский кодировщик
Выбранный битрейт : 768 kBit/s
Качество : Высокий
Добавление ID3-тега : Нет
Утилита сжатия : C:\Program Files (x86)\foobar2000\encoders\flac.exe
Дополнительные параметры : -V -8 -T "ARTIST=%artist%" -T "TITLE=%title%" -T "ALBUM=%albumtitle%" -T "DATE=%year%" -T "TRACKNUMBER=%tracknr%" -T "GENRE=%genre%" -T "BAND=%albuminterpret%" -T "ALBUMARTIST=%albuminterpret%" -T "COMPOSER=%composer%" %haslyrics%--tag-from-file=LYRICS="%lyricsfile%"%haslyrics% -T "DISCNUMBER=%cdnumber%" -T "TOTALDISCS=%totalcds%" -T "TOTALTRACKS=%numtracks%" %hascover%--picture="%coverfile%"%hascover% %source% -o %dest%

TOC извлечённого CD

Трек | Старт | Длительность | Начальный сектор | Конечный сектор
---------------------------------------------------------------------
1 | 0:00.00 | 0:48.33 | 0 | 3632
2 | 0:48.33 | 3:56.57 | 3633 | 21389
3 | 4:45.15 | 4:13.00 | 21390 | 40364
4 | 8:58.15 | 4:07.43 | 40365 | 58932
5 | 13:05.58 | 3:47.70 | 58933 | 76027
6 | 16:53.53 | 0:22.22 | 76028 | 77699
7 | 17:16.00 | 4:04.10 | 77700 | 96009
8 | 21:20.10 | 3:19.50 | 96010 | 110984
9 | 24:39.60 | 1:00.63 | 110985 | 115547
10 | 25:40.48 | 3:55.07 | 115548 | 133179
11 | 29:35.55 | 0:23.33 | 133180 | 134937
12 | 29:59.13 | 4:22.00 | 134938 | 154587
13 | 34:21.13 | 3:58.32 | 154588 | 172469
14 | 38:19.45 | 1:56.28 | 172470 | 181197
15 | 40:15.73 | 4:57.07 | 181198 | 203479

Трек 1

Имя файла E:\Мои Рипы\Onyx - Коллекция (4 релиза) (FLAC)\(1995) All We Got Iz Us\01. Life Or Death (Skit).wav

Длина предзазора 0:00:02.00

Пиковый уровень 92.5 %
Скорость извлечения 1.8 X
Качество трека 99.7 %
CRC теста 4B6B356C
CRC копии 4B6B356C
Точное извлечение (достоверность 4) [66E8E9BF] (AR v2)
Копирование... OK

Трек 2

Имя файла E:\Мои Рипы\Onyx - Коллекция (4 релиза) (FLAC)\(1995) All We Got Iz Us\02. Last Dayz.wav

Пиковый уровень 97.6 %
Скорость извлечения 4.4 X
Качество трека 100.0 %
CRC теста C40C6042
CRC копии C40C6042
Точное извлечение (достоверность 4) [953E3439] (AR v2)
Копирование... OK

Трек 3

Имя файла E:\Мои Рипы\Onyx - Коллекция (4 релиза) (FLAC)\(1995) All We Got Iz Us\03. All We Got Iz Us (Evil Streets) (Feat. Panama P.I.).wav

Пиковый уровень 96.2 %
Скорость извлечения 4.9 X
Качество трека 100.0 %
CRC теста 3C0F83FC
CRC копии 3C0F83FC
Точное извлечение (достоверность 4) [4B8D73CB] (AR v2)
Копирование... OK

Трек 4

Имя файла E:\Мои Рипы\Onyx - Коллекция (4 релиза) (FLAC)\(1995) All We Got Iz Us\04. Purse Snatchaz (Feat. Greg Valentine).wav

Пиковый уровень 96.7 %
Скорость извлечения 5.3 X
Качество трека 100.0 %
CRC теста 38969E7E
CRC копии 38969E7E
Точное извлечение (достоверность 4) [E98D2AB4] (AR v2)
Копирование... OK

Трек 5

Имя файла E:\Мои Рипы\Onyx - Коллекция (4 релиза) (FLAC)\(1995) All We Got Iz Us\05. Shout.wav

Пиковый уровень 96.3 %
Скорость извлечения 5.6 X
Качество трека 100.0 %
CRC теста 39040AAA
CRC копии 39040AAA
Точное извлечение (достоверность 4) [AB9FA650] (AR v2)
Копирование... OK

Трек 6

Имя файла E:\Мои Рипы\Onyx - Коллекция (4 релиза) (FLAC)\(1995) All We Got Iz Us\06. I Murder U (Skit).wav

Пиковый уровень 94.6 %
Скорость извлечения 2.4 X
Качество трека 100.0 %
CRC теста 146E9F26
CRC копии 146E9F26
Точное извлечение (достоверность 4) [53CE773C] (AR v2)
Копирование... OK

Трек 7

Имя файла E:\Мои Рипы\Onyx - Коллекция (4 релиза) (FLAC)\(1995) All We Got Iz Us\07. Betta Off Dead.wav

Пиковый уровень 97.4 %
Скорость извлечения 6.1 X
Качество трека 100.0 %
CRC теста 98DEFAD9
CRC копии 98DEFAD9
Точное извлечение (достоверность 4) [D2E051D1] (AR v2)
Копирование... OK

Трек 8

Имя файла E:\Мои Рипы\Onyx - Коллекция (4 релиза) (FLAC)\(1995) All We Got Iz Us\08. Live Niguz.wav

Длина предзазора 0:00:04.22

Пиковый уровень 100.0 %
Скорость извлечения 6.1 X
Качество трека 100.0 %
CRC теста 7B8BD42C
CRC копии 7B8BD42C
Точное извлечение (достоверность 4) [6EBD2468] (AR v2)
Копирование... OK

Трек 9

Имя файла E:\Мои Рипы\Onyx - Коллекция (4 релиза) (FLAC)\(1995) All We Got Iz Us\09. Punkmotherfukaz.wav

Пиковый уровень 94.9 %
Скорость извлечения 4.5 X
Качество трека 100.0 %
CRC теста 0BD72C1F
CRC копии 0BD72C1F
Точное извлечение (достоверность 4) [53E4068A] (AR v2)
Копирование... OK

Трек 10

Имя файла E:\Мои Рипы\Onyx - Коллекция (4 релиза) (FLAC)\(1995) All We Got Iz Us\10. Most Def.wav

Пиковый уровень 98.3 %
Скорость извлечения 6.7 X
Качество трека 100.0 %
CRC теста 93120420
CRC копии 93120420
Точное извлечение (достоверность 4) [6921BB88] (AR v2)
Копирование... OK

Трек 11

Имя файла E:\Мои Рипы\Onyx - Коллекция (4 релиза) (FLAC)\(1995) All We Got Iz Us\11. Act Up (Skit).wav

Длина предзазора 0:00:01.42

Пиковый уровень 100.0 %
Скорость извлечения 2.9 X
Качество трека 100.0 %
CRC теста BD66C39C
CRC копии BD66C39C
Точное извлечение (достоверность 4) [6825737A] (AR v2)
Копирование... OK

Трек 12

Имя файла E:\Мои Рипы\Onyx - Коллекция (4 релиза) (FLAC)\(1995) All We Got Iz Us\12. Getto Mentalitee (Feat. Panama P.I., All City).wav

Пиковый уровень 94.9 %
Скорость извлечения 7.1 X
Качество трека 100.0 %
CRC теста F092AEED
CRC копии F092AEED
Точное извлечение (достоверность 4) [66411B51] (AR v2)
Копирование... OK

Трек 13

Имя файла E:\Мои Рипы\Onyx - Коллекция (4 релиза) (FLAC)\(1995) All We Got Iz Us\13. 2 Wrongs.wav

Пиковый уровень 99.7 %
Скорость извлечения 7.4 X
Качество трека 100.0 %
CRC теста 906FB887
CRC копии 906FB887
Точное извлечение (достоверность 4) [444DCF7D] (AR v2)
Копирование... OK

Трек 14

Имя файла E:\Мои Рипы\Onyx - Коллекция (4 релиза) (FLAC)\(1995) All We Got Iz Us\14. Maintain (Skit).wav

Пиковый уровень 100.0 %
Скорость извлечения 6.6 X
Качество трека 100.0 %
CRC теста C4FAFA63
CRC копии C4FAFA63
Точное извлечение (достоверность 4) [15502B9F] (AR v2)
Копирование... OK

Трек 15

Имя файла E:\Мои Рипы\Onyx - Коллекция (4 релиза) (FLAC)\(1995) All We Got Iz Us\15. Walk In New York.wav

Длина предзазора 0:00:04.23

Пиковый уровень 96.0 %
Скорость извлечения 3.2 X
Качество трека 100.0 %
CRC теста 5C60A94E
CRC копии 5C60A94E
Точное извлечение (достоверность 4) [B243EF26] (AR v2)
Копирование... OK

Все треки извлечены точно

Ошибок не произошло

Конец отчёта

---- CUETools DB Plugin V2.1.6

[CTDB TOCID: FYn7OTywA3o.vuYhy7Yb03pK1vo-] found
Submit result: FYn7OTywA3o.vuYhy7Yb03pK1vo- has been confirmed
Track | CTDB Status
1 | (9/9) Accurately ripped
2 | (9/9) Accurately ripped
3 | (9/9) Accurately ripped
4 | (9/9) Accurately ripped
5 | (9/9) Accurately ripped
6 | (9/9) Accurately ripped
7 | (9/9) Accurately ripped
8 | (9/9) Accurately ripped
9 | (9/9) Accurately ripped
10 | (9/9) Accurately ripped
11 | (9/9) Accurately ripped
12 | (9/9) Accurately ripped
13 | (9/9) Accurately ripped
14 | (9/9) Accurately ripped
15 | (9/9) Accurately ripped

==== Контрольная сумма отчёта 685103C9B62756309B5B5267A5786D6076C5357AC7AD2C04026564E23297842D ====
 
REM GENRE Rap
REM DATE 1995
REM DISCID B00A990F
REM COMMENT "ExactAudioCopy v1.6"
PERFORMER "Onyx"
TITLE "All We Got Iz Us"
REM COMPOSER ""
FILE "01. Life Or Death (Skit).wav" WAVE
TRACK 01 AUDIO
TITLE "Life Or Death (Skit)"
PERFORMER "Onyx"
REM COMPOSER "Agallah, Onyx"
INDEX 01 00:00:00
FILE "02. Last Dayz.wav" WAVE
TRACK 02 AUDIO
TITLE "Last Dayz"
PERFORMER "Onyx"
REM COMPOSER "Fredro Starr"
INDEX 01 00:00:00
FILE "03. All We Got Iz Us (Evil Streets) (Feat. Panama P.I.).wav" WAVE
TRACK 03 AUDIO
TITLE "All We Got Iz Us (Evil Streets) (Feat. Panama P.I.)"
PERFORMER "Onyx"
REM COMPOSER "Fredro Starr"
INDEX 01 00:00:00
FILE "04. Purse Snatchaz (Feat. Greg Valentine).wav" WAVE
TRACK 04 AUDIO
TITLE "Purse Snatchaz (Feat. Greg Valentine)"
PERFORMER "Onyx"
REM COMPOSER "Sonny Seeza, Sticky Fingaz, Fredro Starr"
INDEX 01 00:00:00
FILE "05. Shout.wav" WAVE
TRACK 05 AUDIO
TITLE "Shout"
PERFORMER "Onyx"
REM COMPOSER "Fredro Starr"
INDEX 01 00:00:00
FILE "06. I Murder U (Skit).wav" WAVE
TRACK 06 AUDIO
TITLE "I Murder U (Skit)"
PERFORMER "Onyx"
REM COMPOSER "Fredro Starr"
INDEX 01 00:00:00
FILE "07. Betta Off Dead.wav" WAVE
TRACK 07 AUDIO
TITLE "Betta Off Dead"
PERFORMER "Onyx"
REM COMPOSER "Agallah, Onyx"
INDEX 01 00:00:00
TRACK 08 AUDIO
TITLE "Live Niguz"
PERFORMER "Onyx"
REM COMPOSER "Fredro Starr"
INDEX 00 03:59:63
FILE "08. Live Niguz.wav" WAVE
INDEX 01 00:00:00
FILE "09. Punkmotherfukaz.wav" WAVE
TRACK 09 AUDIO
TITLE "Punkmotherfukaz"
PERFORMER "Onyx"
REM COMPOSER "Agallah, Onyx"
INDEX 01 00:00:00
FILE "10. Most Def.wav" WAVE
TRACK 10 AUDIO
TITLE "Most Def"
PERFORMER "Onyx"
REM COMPOSER "Fredro Starr"
INDEX 01 00:00:00
TRACK 11 AUDIO
TITLE "Act Up (Skit)"
PERFORMER "Onyx"
REM COMPOSER "Sticky Fingaz"
INDEX 00 03:53:40
FILE "11. Act Up (Skit).wav" WAVE
INDEX 01 00:00:00
FILE "12. Getto Mentalitee (Feat. Panama P.I., All City).wav" WAVE
TRACK 12 AUDIO
TITLE "Getto Mentalitee (Feat. Panama P.I., All City)"
PERFORMER "Onyx"
REM COMPOSER "Fredro Starr"
INDEX 01 00:00:00
FILE "13. 2 Wrongs.wav" WAVE
TRACK 13 AUDIO
TITLE "2 Wrongs"
PERFORMER "Onyx"
REM COMPOSER "Sticky Fingaz"
INDEX 01 00:00:00
FILE "14. Maintain (Skit).wav" WAVE
TRACK 14 AUDIO
TITLE "Maintain (Skit)"
PERFORMER "Onyx"
REM COMPOSER "Onyx"
INDEX 01 00:00:00
TRACK 15 AUDIO
TITLE "Walk In New York"
PERFORMER "Onyx"
REM COMPOSER "Fredro Starr"
INDEX 00 01:52:05
FILE "15. Walk In New York.wav" WAVE
INDEX 01 00:00:00
 
Cue Corrector v. 10.2.3 / b. 2109 (Feb. 07, 2024)
————————————————————————————————————————————————————————————————————————
Onyx / All We Got Iz Us

Folder: (1995) All We Got Iz Us
Audio files:
01. Life Or Death (Skit).flac [00:48.440; FLAC • 864 kbps • 16 bit \ 44100 Hz • stereo; 4.99 MB (5 232 634 B)]
02. Last Dayz.flac [03:56.760; FLAC • 843 kbps • 16 bit \ 44100 Hz • stereo; 23.82 MB (24 974 555 B)]
03. All We Got Iz Us (Evil Streets) (Feat. Panama P.I.).flac [04:13.000; FLAC • 888 kbps • 16 bit \ 44100 Hz • stereo; 26.78 MB (28 083 644 B)]
04. Purse Snatchaz (Feat. Greg Valentine).flac [04:07.573; FLAC • 829 kbps • 16 bit \ 44100 Hz • stereo; 24.48 MB (25 671 791 B)]
05. Shout.flac [03:47.933; FLAC • 869 kbps • 16 bit \ 44100 Hz • stereo; 23.61 MB (24 759 580 B)]
06. I Murder U (Skit).flac [00:22.293; FLAC • 863 kbps • 16 bit \ 44100 Hz • stereo; 2.29 MB (2 405 042 B)]
07. Betta Off Dead.flac [04:04.133; FLAC • 952 kbps • 16 bit \ 44100 Hz • stereo; 27.73 MB (29 076 604 B)]
08. Live Niguz.flac [03:19.667; FLAC • 950 kbps • 16 bit \ 44100 Hz • stereo; 22.63 MB (23 724 410 B)]
09. Punkmotherfukaz.flac [01:00.840; FLAC • 898 kbps • 16 bit \ 44100 Hz • stereo; 6.52 MB (6 831 994 B)]
10. Most Def.flac [03:55.093; FLAC • 915 kbps • 16 bit \ 44100 Hz • stereo; 25.66 MB (26 907 829 B)]
11. Act Up (Skit).flac [00:23.440; FLAC • 896 kbps • 16 bit \ 44100 Hz • stereo; 2.51 MB (2 627 663 B)]
12. Getto Mentalitee (Feat. Panama P.I., All City).flac [04:22.000; FLAC • 923 kbps • 16 bit \ 44100 Hz • stereo; 28.86 MB (30 259 209 B)]
13. 2 Wrongs.flac [03:58.427; FLAC • 840 kbps • 16 bit \ 44100 Hz • stereo; 23.90 MB (25 061 719 B)]
14. Maintain (Skit).flac [01:56.373; FLAC • 930 kbps • 16 bit \ 44100 Hz • stereo; 12.91 MB (13 536 311 B)]
15. Walk In New York.flac [04:57.093; FLAC • 834 kbps • 16 bit \ 44100 Hz • stereo; 29.57 MB (31 006 060 B)]

Accuracy: -m0

File 01. Life Or Death (Skit) - 100% CDDA [00:48:33]
File 02. Last Dayz - 100% CDDA [03:56:57]
File 03. All We Got Iz Us (Evil Streets) (Feat. Panama P.I.) - 100% CDDA [04:13:00]
File 04. Purse Snatchaz (Feat. Greg Valentine) - 99% CDDA [04:07:43]
File 05. Shout - 100% CDDA [03:47:70]
File 06. I Murder U (Skit) - 100% CDDA [00:22:22]
File 07. Betta Off Dead - 100% CDDA [04:04:10]
File 08. Live Niguz - 100% CDDA [03:19:50]
File 09. Punkmotherfukaz - 100% CDDA [01:00:63]
File 10. Most Def - 100% CDDA [03:55:07]
File 11. Act Up (Skit) - 100% CDDA [00:23:33]
File 12. Getto Mentalitee (Feat. Panama P.I., All City) - 100% CDDA [04:22:00]
File 13. 2 Wrongs - 100% CDDA [03:58:32]
File 14. Maintain (Skit) - 100% CDDA [01:56:28]
File 15. Walk In New York - 100% CDDA [04:57:07]
————— Summary: —————
These tracks looks like CDDA with probability 100%.
————————————————————————————————————————————————————————————————————————

ANALYZER:
auCDtect: CD records authenticity detector, version 0.8.2
Copyright (c) 2004 Oleg Berngardt. All rights reserved.
Copyright (c) 2004 Alexander Djourik. All rights reserved.

Time elapsed: 1 m 23 s
Log created at March 03, 2024 17:58:15

=== 21AE10E5DAB952FDFDC9D1F56A370832C54A7C11C053EFD1FAD0DF538327317E ===
«All We Got Iz Us» - второй студийный альбом американской хардкор-рэп-группы Onyx, выпущенный 24 октября 1995 года на лейбле JMJ Records и Rush Associated Labels. Альбом был спродюсирован самими участниками группы. В записи альбома приняла участие рэп-группа All City и рэпер из Куинса, Panama P.I. All We Got Iz Us дебютировал под номером 22 в чарте Billboard 200 и под номером 2 в чарте Top R&B/Hip Hop Albums в американском журнале Billboard. Было продано более 500 тысяч копий альбома, но он никогда не приближался к успеху первого альбома. Альбом содержит два сингла, которые попали в чарты журнала Billboard: «Last Dayz» и «Live!!!». «Last Dayz» достиг 89 места в чарте Billboard Hot 100 и 10 места в чарте Hot Rap Singles. «Live Niguz», также известный как «Live!!!», добрался до 17 места в чарте Hot Rap Singles и 81 места в чарте Hot R&B/Hip-Hop Singles & Tracks. «Live Niguz» появился на саундтреке к документальному фильму The Show 1995 года. «Last Dayz» был использован в фильме 8 Миля.
Издатель (лейбл): JMJ, Def Jam Music Group
Номер по каталогу: 536 988-2
Продолжительность: 01:10:55


Треклист:
01. It Was Onyx (00:48)
02. Raze It Up (04:00)
03. Street Nigguz (Feat. X-1) (04:54)
04. Shut 'Em Down (Feat. DMX) (03:58)
05. Broke Willies (03:49)
06. For Nothin' (00:18)
07. Rob & Vic (Feat. Chocolate) (04:54)
08. Face Down (04:40)
09. Cops (00:51)
10. Conspiracy (Feat. Clay The Raider) (04:31)
11. Black Dust (03:54)
12. One Nation (00:37)
13. React (Feat. 50 Cent, Bonifucco, Still Livin') (04:09)
14. Veronica (04:29)
15. Fuck Dat (Feat. J. Mega, Greg Valentine, Bubba Smith, X-1) (04:58)
16. Ghetto Starz (Feat. Mr. Cheeks) (03:34)
17. Take That (01:27)
18. The Worst (Feat. Raekwon, Method Man, Killa Sin) (05:34)
19. Overshine (Feat. All City) (03:59)
20. Shut 'Em Down (Remix) (Feat. N.O.R.E., Big Pun) (04:14)
 
Exact Audio Copy V1.6 from 23. October 2020

Отчёт EAC об извлечении, выполненном 3. марта 2024, 18:49

Onyx / Shut ’Em Down

Дисковод: TSSTcorpDVD-ROM SH-118AB Adapter: 1 ID: 0

Режим чтения : Достоверность
Использование точного потока : Да
Отключение кэша аудио : Да
Использование указателей C2 : Нет

Коррекция смещения при чтении : 6
Способность читать области Lead-in и Lead-out : Нет
Заполнение пропущенных сэмплов тишиной : Да
Удаление блоков с тишиной в начале и конце : Нет
При вычислениях CRC использовались нулевые сэмплы : Да
Интерфейс : Встроенный Win32-интерфейс для Win NT/2000
Обработка зазоров : Добавлено к предыдущему треку

Выходной формат : Пользовательский кодировщик
Выбранный битрейт : 768 kBit/s
Качество : Высокий
Добавление ID3-тега : Нет
Утилита сжатия : C:\Program Files (x86)\foobar2000\encoders\flac.exe
Дополнительные параметры : -V -8 -T "ARTIST=%artist%" -T "TITLE=%title%" -T "ALBUM=%albumtitle%" -T "DATE=%year%" -T "TRACKNUMBER=%tracknr%" -T "GENRE=%genre%" -T "BAND=%albuminterpret%" -T "ALBUMARTIST=%albuminterpret%" -T "COMPOSER=%composer%" %haslyrics%--tag-from-file=LYRICS="%lyricsfile%"%haslyrics% -T "DISCNUMBER=%cdnumber%" -T "TOTALDISCS=%totalcds%" -T "TOTALTRACKS=%numtracks%" %hascover%--picture="%coverfile%"%hascover% %source% -o %dest%

TOC извлечённого CD

Трек | Старт | Длительность | Начальный сектор | Конечный сектор
---------------------------------------------------------------------
1 | 0:00.00 | 0:48.00 | 0 | 3599
2 | 0:48.00 | 4:00.15 | 3600 | 21614
3 | 4:48.15 | 4:54.30 | 21615 | 43694
4 | 9:42.45 | 3:58.53 | 43695 | 61597
5 | 13:41.23 | 3:49.25 | 61598 | 78797
6 | 17:30.48 | 0:18.05 | 78798 | 80152
7 | 17:48.53 | 4:54.30 | 80153 | 102232
8 | 22:43.08 | 4:40.65 | 102233 | 123297
9 | 27:23.73 | 0:51.12 | 123298 | 127134
10 | 28:15.10 | 4:31.63 | 127135 | 147522
11 | 32:46.73 | 3:54.15 | 147523 | 165087
12 | 36:41.13 | 0:37.40 | 165088 | 167902
13 | 37:18.53 | 4:09.57 | 167903 | 186634
14 | 41:28.35 | 4:29.73 | 186635 | 206882
15 | 45:58.33 | 4:58.72 | 206883 | 229304
16 | 50:57.30 | 3:34.45 | 229305 | 245399
17 | 54:32.00 | 1:27.00 | 245400 | 251924
18 | 55:59.00 | 10:41.00 | 251925 | 299999
19 | 66:40.00 | 4:14.50 | 300000 | 319099

Трек 1

Имя файла E:\Мои Рипы\Onyx - Коллекция (4 релиза) (FLAC)\(1998) Shut ’Em Down\01. It Was Onyx (Skit).wav

Длина предзазора 0:00:02.00

Пиковый уровень 100.0 %
Скорость извлечения 3.0 X
Качество трека 100.0 %
CRC теста 9640E70E
CRC копии 9640E70E
Точное извлечение (достоверность 5) [F968CF42] (AR v2)
Копирование... OK

Трек 2

Имя файла E:\Мои Рипы\Onyx - Коллекция (4 релиза) (FLAC)\(1998) Shut ’Em Down\02. Raze It Up.wav

Пиковый уровень 100.0 %
Скорость извлечения 5.0 X
Качество трека 100.0 %
CRC теста 993EF89C
CRC копии 993EF89C
Точное извлечение (достоверность 5) [BC2416B1] (AR v2)
Копирование... OK

Трек 3

Имя файла E:\Мои Рипы\Onyx - Коллекция (4 релиза) (FLAC)\(1998) Shut ’Em Down\03. Street Nigguz (Feat. X1).wav

Пиковый уровень 100.0 %
Скорость извлечения 5.6 X
Качество трека 100.0 %
CRC теста 37B61AC5
CRC копии 37B61AC5
Точное извлечение (достоверность 5) [231E4E39] (AR v2)
Копирование... OK

Трек 4

Имя файла E:\Мои Рипы\Onyx - Коллекция (4 релиза) (FLAC)\(1998) Shut ’Em Down\04. Shut ’Em Down (Feat. DMX).wav

Пиковый уровень 89.0 %
Скорость извлечения 5.2 X
Качество трека 99.9 %
CRC теста B159DE4C
CRC копии B159DE4C
Точное извлечение (достоверность 5) [64B42699] (AR v2)
Копирование... OK

Трек 5

Имя файла E:\Мои Рипы\Onyx - Коллекция (4 релиза) (FLAC)\(1998) Shut ’Em Down\05. Broke Willies (Feat. X1).wav

Пиковый уровень 100.0 %
Скорость извлечения 6.2 X
Качество трека 100.0 %
CRC теста 132D67B3
CRC копии 132D67B3
Точное извлечение (достоверность 5) [A2667430] (AR v2)
Копирование... OK

Трек 6

Имя файла E:\Мои Рипы\Onyx - Коллекция (4 релиза) (FLAC)\(1998) Shut ’Em Down\06. For Nothin’ (Skit).wav

Пиковый уровень 100.0 %
Скорость извлечения 2.3 X
Качество трека 100.0 %
CRC теста 06408594
CRC копии 06408594
Точное извлечение (достоверность 5) [1281ACC8] (AR v2)
Копирование... OK

Трек 7

Имя файла E:\Мои Рипы\Onyx - Коллекция (4 релиза) (FLAC)\(1998) Shut ’Em Down\07. Rob & Vic (Feat. X1, Choclatt Jared).wav

Пиковый уровень 100.0 %
Скорость извлечения 6.8 X
Качество трека 100.0 %
CRC теста 9607E6A8
CRC копии 9607E6A8
Точное извлечение (достоверность 5) [3864F00C] (AR v2)
Копирование... OK

Трек 8

Имя файла E:\Мои Рипы\Onyx - Коллекция (4 релиза) (FLAC)\(1998) Shut ’Em Down\08. Face Down.wav

Пиковый уровень 100.0 %
Скорость извлечения 6.4 X
Качество трека 99.9 %
CRC теста A77B02AA
CRC копии A77B02AA
Точное извлечение (достоверность 5) [42024177] (AR v2)
Копирование... OK

Трек 9

Имя файла E:\Мои Рипы\Onyx - Коллекция (4 релиза) (FLAC)\(1998) Shut ’Em Down\09. Cops (Skit).wav

Пиковый уровень 98.3 %
Скорость извлечения 4.6 X
Качество трека 100.0 %
CRC теста 14E5FED6
CRC копии 14E5FED6
Точное извлечение (достоверность 5) [0E86EE5A] (AR v2)
Копирование... OK

Трек 10

Имя файла E:\Мои Рипы\Onyx - Коллекция (4 релиза) (FLAC)\(1998) Shut ’Em Down\10. Conspiracy (Feat. Clay The Raider, X1).wav

Пиковый уровень 100.0 %
Скорость извлечения 7.6 X
Качество трека 100.0 %
CRC теста 0666144F
CRC копии 0666144F
Точное извлечение (достоверность 5) [252E6B10] (AR v2)
Копирование... OK

Трек 11

Имя файла E:\Мои Рипы\Onyx - Коллекция (4 релиза) (FLAC)\(1998) Shut ’Em Down\11. Black Dust (Feat. X1).wav

Пиковый уровень 100.0 %
Скорость извлечения 7.7 X
Качество трека 100.0 %
CRC теста 0424B230
CRC копии 0424B230
Точное извлечение (достоверность 5) [655462B3] (AR v2)
Копирование... OK

Трек 12

Имя файла E:\Мои Рипы\Onyx - Коллекция (4 релиза) (FLAC)\(1998) Shut ’Em Down\12. One Nation (Skit).wav

Пиковый уровень 66.4 %
Скорость извлечения 3.0 X
Качество трека 99.7 %
CRC теста 45352354
CRC копии 45352354
Точное извлечение (достоверность 5) [10A0CFBB] (AR v2)
Копирование... OK

Трек 13

Имя файла E:\Мои Рипы\Onyx - Коллекция (4 релиза) (FLAC)\(1998) Shut ’Em Down\13. React (Feat. 50 Cent, X1, Still Livin’, Bonifucco).wav

Пиковый уровень 100.0 %
Скорость извлечения 8.1 X
Качество трека 100.0 %
CRC теста 01B0006F
CRC копии 01B0006F
Точное извлечение (достоверность 5) [CB2637D8] (AR v2)
Копирование... OK

Трек 14

Имя файла E:\Мои Рипы\Onyx - Коллекция (4 релиза) (FLAC)\(1998) Shut ’Em Down\14. Veronica (Feat. X1, Sunshine Anderson).wav

Пиковый уровень 100.0 %
Скорость извлечения 8.4 X
Качество трека 100.0 %
CRC теста 443D8BA4
CRC копии 443D8BA4
Точное извлечение (достоверность 5) [1AEA1A40] (AR v2)
Копирование... OK

Трек 15

Имя файла E:\Мои Рипы\Onyx - Коллекция (4 релиза) (FLAC)\(1998) Shut ’Em Down\15. Fuck Dat (Feat. X1, All City, Sunshine Anderson, Bubba Smith).wav

Пиковый уровень 100.0 %
Скорость извлечения 3.6 X
Качество трека 100.0 %
CRC теста 4C5A1BC0
CRC копии 4C5A1BC0
Точное извлечение (достоверность 5) [DDBB7CDE] (AR v2)
Копирование... OK

Трек 16

Имя файла E:\Мои Рипы\Onyx - Коллекция (4 релиза) (FLAC)\(1998) Shut ’Em Down\16. Ghetto Starz (Feat. X1, Lost Boyz).wav

Пиковый уровень 100.0 %
Скорость извлечения 3.6 X
Качество трека 100.0 %
CRC теста F9D3C022
CRC копии F9D3C022
Точное извлечение (достоверность 5) [79543978] (AR v2)
Копирование... OK

Трек 17

Имя файла E:\Мои Рипы\Onyx - Коллекция (4 релиза) (FLAC)\(1998) Shut ’Em Down\17. Take That.wav

Пиковый уровень 100.0 %
Скорость извлечения 2.9 X
Качество трека 100.0 %
CRC теста 06BA24F2
CRC копии 06BA24F2
Точное извлечение (достоверность 5) [50D7BC50] (AR v2)
Копирование... OK

Трек 18

Имя файла E:\Мои Рипы\Onyx - Коллекция (4 релиза) (FLAC)\(1998) Shut ’Em Down\18. The Worst (Feat. Raekwon, Method Man, Killa Sin, X1) , Overshine (Feat. All City).wav

Пиковый уровень 100.0 %
Скорость извлечения 4.2 X
Качество трека 100.0 %
CRC теста 6B786B63
CRC копии 6B786B63
Точное извлечение (достоверность 5) [458A5884] (AR v2)
Копирование... OK

Трек 19

Имя файла E:\Мои Рипы\Onyx - Коллекция (4 релиза) (FLAC)\(1998) Shut ’Em Down\19. Shut ’Em Down (Remix) (Feat. Noreaga, Big Pun).wav

Пиковый уровень 99.8 %
Скорость извлечения 3.5 X
Качество трека 99.9 %
CRC теста 0F35BE01
CRC копии 0F35BE01
Точное извлечение (достоверность 5) [9B5D97F7] (AR v2)
Копирование... OK

Все треки извлечены точно

Ошибок не произошло

Конец отчёта

---- CUETools DB Plugin V2.1.6

[CTDB TOCID: TU3o2wiSIIrr8Oskn8m6IF4ZYBs-] found
Submit result: TU3o2wiSIIrr8Oskn8m6IF4ZYBs- has been confirmed
Track | CTDB Status
1 | (25/80) Accurately ripped
2 | (25/80) Accurately ripped
3 | (25/80) Accurately ripped
4 | (25/80) Accurately ripped
5 | (25/80) Accurately ripped
6 | (25/80) Accurately ripped
7 | (25/80) Accurately ripped
8 | (25/80) Accurately ripped
9 | (25/80) Accurately ripped
10 | (25/80) Accurately ripped
11 | (25/80) Accurately ripped
12 | (25/80) Accurately ripped
13 | (25/80) Accurately ripped
14 | (25/80) Accurately ripped
15 | (25/80) Accurately ripped
16 | (25/80) Accurately ripped
17 | (25/80) Accurately ripped
18 | (25/80) Accurately ripped
19 | (25/80) Accurately ripped

==== Контрольная сумма отчёта FBFF6EB4E97D1FE2F401D7254712825256CB58E8960B3FEF602A2FC0C0E99ECA ====
 
REM GENRE Rap
REM DATE 1998
REM DISCID EF109E13
REM COMMENT "ExactAudioCopy v1.1"
PERFORMER "Onyx"
TITLE "Shut 'Em Down"
FILE "01. It Was Onyx.wav" WAVE
TRACK 01 AUDIO
TITLE "It Was Onyx"
PERFORMER "Onyx"
INDEX 01 00:00:00
FILE "02. Raze It Up.wav" WAVE
TRACK 02 AUDIO
TITLE "Raze It Up"
PERFORMER "Onyx"
INDEX 01 00:00:00
FILE "03. Street Nigguz (Feat. X-1).wav" WAVE
TRACK 03 AUDIO
TITLE "Street Nigguz (Feat. X-1)"
PERFORMER "Onyx"
INDEX 01 00:00:00
FILE "04. Shut 'Em Down (Feat. DMX).wav" WAVE
TRACK 04 AUDIO
TITLE "Shut 'Em Down (Feat. DMX)"
PERFORMER "Onyx"
INDEX 01 00:00:00
FILE "05. Broke Willies.wav" WAVE
TRACK 05 AUDIO
TITLE "Broke Willies"
PERFORMER "Onyx"
INDEX 01 00:00:00
FILE "06. For Nothin'.wav" WAVE
TRACK 06 AUDIO
TITLE "For Nothin'"
PERFORMER "Onyx"
INDEX 01 00:00:00
FILE "07. Rob & Vic (Feat. Chocolate).wav" WAVE
TRACK 07 AUDIO
TITLE "Rob & Vic (Feat. Chocolate)"
PERFORMER "Onyx"
INDEX 01 00:00:00
FILE "08. Face Down.wav" WAVE
TRACK 08 AUDIO
TITLE "Face Down"
PERFORMER "Onyx"
INDEX 01 00:00:00
FILE "09. Cops.wav" WAVE
TRACK 09 AUDIO
TITLE "Cops"
PERFORMER "Onyx"
INDEX 01 00:00:00
FILE "10. Conspiracy (Feat. Clay The Raider).wav" WAVE
TRACK 10 AUDIO
TITLE "Conspiracy (Feat. Clay The Raider)"
PERFORMER "Onyx"
INDEX 01 00:00:00
FILE "11. Black Dust.wav" WAVE
TRACK 11 AUDIO
TITLE "Black Dust"
PERFORMER "Onyx"
INDEX 01 00:00:00
FILE "12. One Nation.wav" WAVE
TRACK 12 AUDIO
TITLE "One Nation"
PERFORMER "Onyx"
INDEX 01 00:00:00
FILE "13. React (Feat. 50 Cent, Bonifucco, Still Livin').wav" WAVE
TRACK 13 AUDIO
TITLE "React (Feat. 50 Cent, Bonifucco, Still Livin')"
PERFORMER "Onyx"
INDEX 01 00:00:00
FILE "14. Veronica.wav" WAVE
TRACK 14 AUDIO
TITLE "Veronica"
PERFORMER "Onyx"
INDEX 01 00:00:00
FILE "15. Fuck Dat (Feat. J. Mega, Greg Valentine, Bubba Smith, X-1).wav" WAVE
TRACK 15 AUDIO
TITLE "Fuck Dat (Feat. J. Mega, Greg Valentine, Bubba Smith, X-1)"
PERFORMER "Onyx"
INDEX 01 00:00:00
FILE "16. Ghetto Starz (Feat. Mr. Cheeks).wav" WAVE
TRACK 16 AUDIO
TITLE "Ghetto Starz (Feat. Mr. Cheeks)"
PERFORMER "Onyx"
INDEX 01 00:00:00
FILE "17. Take That.wav" WAVE
TRACK 17 AUDIO
TITLE "Take That"
PERFORMER "Onyx"
INDEX 01 00:00:00
FILE "18. The Worst (Feat. Raekwon, Method Man, Killa Sin) , Overshine (Feat. All City).wav" WAVE
TRACK 18 AUDIO
TITLE "The Worst (Feat. Raekwon, Method Man, Killa Sin) / Overshine (Feat. All City)"
PERFORMER "Onyx"
INDEX 01 00:00:00
FILE "19. Shut 'Em Down (Remix) (Feat. N.O.R.E., Big Pun).wav" WAVE
TRACK 19 AUDIO
TITLE "Shut 'Em Down (Remix) (Feat. N.O.R.E., Big Pun)"
PERFORMER "Onyx"
INDEX 01 00:00:00
 
Cue Corrector v. 10.2.3 / b. 2109 (Feb. 07, 2024)
————————————————————————————————————————————————————————————————————————
Onyx / Shut ’Em Down

Folder: (1998) Shut ’Em Down
Audio files:
01. It Was Onyx (Skit).flac [00:48.000; FLAC • 722 kbps • 16 bit \ 44100 Hz • stereo; 4.13 MB (4 333 834 B)]
02. Raze It Up.flac [04:00.200; FLAC • 958 kbps • 16 bit \ 44100 Hz • stereo; 27.46 MB (28 791 465 B)]
03. Street Nigguz (Feat. X1).flac [04:54.400; FLAC • 867 kbps • 16 bit \ 44100 Hz • stereo; 30.45 MB (31 931 101 B)]
04. Shut ’Em Down (Feat. DMX).flac [03:58.707; FLAC • 824 kbps • 16 bit \ 44100 Hz • stereo; 23.45 MB (24 588 252 B)]
05. Broke Willies (Feat. X1).flac [03:49.333; FLAC • 901 kbps • 16 bit \ 44100 Hz • stereo; 24.65 MB (25 846 954 B)]
06. For Nothin’ (Skit).flac [00:18.067; FLAC • 724 kbps • 16 bit \ 44100 Hz • stereo; 1.56 MB (1 637 245 B)]
07. Rob & Vic (Feat. X1, Choclatt Jared).flac [04:54.400; FLAC • 983 kbps • 16 bit \ 44100 Hz • stereo; 34.52 MB (36 192 120 B)]
08. Face Down.flac [04:40.867; FLAC • 890 kbps • 16 bit \ 44100 Hz • stereo; 29.80 MB (31 248 629 B)]
09. Cops (Skit).flac [00:51.160; FLAC • 718 kbps • 16 bit \ 44100 Hz • stereo; 4.38 MB (4 595 017 B)]
10. Conspiracy (Feat. Clay The Raider, X1).flac [04:31.840; FLAC • 882 kbps • 16 bit \ 44100 Hz • stereo; 28.60 MB (29 990 853 B)]
11. Black Dust (Feat. X1).flac [03:54.200; FLAC • 831 kbps • 16 bit \ 44100 Hz • stereo; 23.22 MB (24 344 826 B)]
12. One Nation (Skit).flac [00:37.533; FLAC • 753 kbps • 16 bit \ 44100 Hz • stereo; 3.37 MB (3 534 884 B)]
13. React (Feat. 50 Cent, X1, Still Livin’, Bonifucco).flac [04:09.760; FLAC • 903 kbps • 16 bit \ 44100 Hz • stereo; 26.91 MB (28 216 113 B)]
14. Veronica (Feat. X1, Sunshine Anderson).flac [04:29.973; FLAC • 885 kbps • 16 bit \ 44100 Hz • stereo; 28.49 MB (29 870 164 B)]
15. Fuck Dat (Feat. X1, All City, Sunshine Anderson, Bubba Smith).flac [04:58.960; FLAC • 907 kbps • 16 bit \ 44100 Hz • stereo; 32.33 MB (33 904 260 B)]
16. Ghetto Starz (Feat. X1, Lost Boyz).flac [03:34.600; FLAC • 879 kbps • 16 bit \ 44100 Hz • stereo; 22.49 MB (23 584 013 B)]
17. Take That.flac [01:27.000; FLAC • 873 kbps • 16 bit \ 44100 Hz • stereo; 9.06 MB (9 501 987 B)]
18. The Worst (Feat. Raekwon, Method Man, Killa Sin, X1) , Overshine (Feat. All City).flac [10:41.000; FLAC • 793 kbps • 16 bit \ 44100 Hz • stereo; 60.67 MB (63 614 053 B)]
19. Shut ’Em Down (Remix) (Feat. Noreaga, Big Pun).flac [04:14.667; FLAC • 984 kbps • 16 bit \ 44100 Hz • stereo; 29.88 MB (31 335 883 B)]

Accuracy: -m0

File 01. It Was Onyx (Skit) - 100% CDDA [00:48:00]
File 02. Raze It Up - 100% CDDA [04:00:15]
File 03. Street Nigguz (Feat. X1) - 100% CDDA [04:54:30]
File 04. Shut ’Em Down (Feat. DMX) - 100% CDDA [03:58:53]
File 05. Broke Willies (Feat. X1) - 100% CDDA [03:49:25]
File 06. For Nothin’ (Skit) - 100% CDDA [00:18:05]
File 07. Rob & Vic (Feat. X1, Choclatt Jared) - 100% CDDA [04:54:30]
File 08. Face Down - 99% CDDA [04:40:65]
File 09. Cops (Skit) - 100% CDDA [00:51:12]
File 10. Conspiracy (Feat. Clay The Raider, X1) - 100% CDDA [04:31:63]
File 11. Black Dust (Feat. X1) - 100% CDDA [03:54:15]
File 12. One Nation (Skit) - 49% CDDA [00:37:40]
File 13. React (Feat. 50 Cent, X1, Still Livin’, Bonifucco) - 100% CDDA [04:09:57]
File 14. Veronica (Feat. X1, Sunshine Anderson) - 100% CDDA [04:29:73]
File 15. Fuck Dat (Feat. X1, All City, Sunshine Anderson, Bubba Smith) - 100% CDDA [04:58:72]
File 16. Ghetto Starz (Feat. X1, Lost Boyz) - 100% CDDA [03:34:45]
File 17. Take That - 100% CDDA [01:27:00]
File 18. The Worst (Feat. Raekwon, Method Man, Killa Sin, X1) , Overshine (Feat. All City) - 100% CDDA [10:41:00]
File 19. Shut ’Em Down (Remix) (Feat. Noreaga, Big Pun) - 100% CDDA [04:14:50]
————— Summary: —————
These tracks looks like CDDA with probability 100%.
————————————————————————————————————————————————————————————————————————

ANALYZER:
auCDtect: CD records authenticity detector, version 0.8.2
Copyright (c) 2004 Oleg Berngardt. All rights reserved.
Copyright (c) 2004 Alexander Djourik. All rights reserved.

Time elapsed: 2 m 09 s
Log created at March 09, 2024 23:51:44

=== 21040BF19200BFAE500CD0DFD7E453A3C562344F2A91A80061F668CCB22DD70D ===
«Shut ’Em Down» - третий студийный альбом американской хардкор-рэп-группы Onyx, выпущенный 2 июня 1998 года лейблами JMJ Records и Def Jam. Альбом был спродюсирован Keith Horne и Self при содействии DJ Scratch из EPMD, Bud’da и Latief. В записи альбома приняли участие рэперы X1, DMX, тогда никому неизвестный 50 Cent, Still Livin из группы Gang Green, All City, Mr. Cheeks из Lost Boyz, Wu-Tang Clan, N.O.R.E., Big Pun и другие. Shut 'Em Down дебютировал под номером 10 в чарте Billboard 200 и под номером 3 в чарте Top R&B/Hip Hop Albums в американском журнале Billboard. Альбом содержит 3 сингла, которые попали в чарты журнала Billboard: «The Worst», «Shut 'Em Down» и «React». Альбом был плохо воспринят публикой, несмотря на то, что было продано около 500 тысяч копий.

Collaborations

Издатель (лейбл): Goon MuSick, Major Independents, Mad Money Movement
Номер по каталогу: GM 19-042
Продолжительность: 00:43:54


Треклист:
01. Snowmads (Intro) (00:41)
02. Who Da Fuc (02:31)
03. Robbing Hip Hop (Feat. Bumpy Knuckles, Nems) (04:02)
04. Monsters Gorillas (Feat. Knuckles (NBS)) (03:42)
05. Rat Tat Tat (Feat. Quadro, Ufo Fev) (03:14)
06. Hoodies Down (02:47)
07. Kill Da Mic (02:57)
08. Street Art (Feat. SickFlo) (03:10)
09. Trolling (Feat. Knuckles (NBS)) (02:27)
10. Ringolevio (03:05)
11. Built Like That (02:50)
12. Mad Shoot Outs (Feat. Flee Lord) (03:26)
13. I Got The Tec-9 (02:33)
14. Ain't No Time To Rest (Feat. Dope D.O.D.) (03:51)
15. Good Fight (02:38)
 
Exact Audio Copy V1.6 from 23. October 2020

Отчёт EAC об извлечении, выполненном 9. марта 2024, 17:40

Onyx & Snowgoons / SnowMads

Дисковод: ASUS DRW-24D5MT Adapter: 1 ID: 0

Режим чтения : Достоверность
Использование точного потока : Да
Отключение кэша аудио : Да
Использование указателей C2 : Нет

Коррекция смещения при чтении : 6
Способность читать области Lead-in и Lead-out : Нет
Заполнение пропущенных сэмплов тишиной : Да
Удаление блоков с тишиной в начале и конце : Нет
При вычислениях CRC использовались нулевые сэмплы : Да
Интерфейс : Встроенный Win32-интерфейс для Win NT/2000
Обработка зазоров : Добавлено к предыдущему треку

Выходной формат : Пользовательский кодировщик
Выбранный битрейт : 768 kBit/s
Качество : Высокий
Добавление ID3-тега : Нет
Утилита сжатия : C:\Program Files (x86)\foobar2000\encoders\flac.exe
Дополнительные параметры : -V -8 -T "ARTIST=%artist%" -T "TITLE=%title%" -T "ALBUM=%albumtitle%" -T "DATE=%year%" -T "TRACKNUMBER=%tracknr%" -T "GENRE=%genre%" -T "BAND=%albuminterpret%" -T "ALBUMARTIST=%albuminterpret%" -T "COMPOSER=%composer%" %haslyrics%--tag-from-file=LYRICS="%lyricsfile%"%haslyrics% -T "DISCNUMBER=%cdnumber%" -T "TOTALDISCS=%totalcds%" -T "TOTALTRACKS=%numtracks%" %hascover%--picture="%coverfile%"%hascover% %source% -o %dest%

TOC извлечённого CD

Трек | Старт | Длительность | Начальный сектор | Конечный сектор
---------------------------------------------------------------------
1 | 0:00.00 | 0:41.18 | 0 | 3092
2 | 0:41.18 | 2:31.33 | 3093 | 14450
3 | 3:12.51 | 4:01.50 | 14451 | 32575
4 | 7:14.26 | 3:42.23 | 32576 | 49248
5 | 10:56.49 | 3:13.54 | 49249 | 63777
6 | 14:10.28 | 2:47.35 | 63778 | 76337
7 | 16:57.63 | 2:56.43 | 76338 | 89580
8 | 19:54.31 | 3:09.54 | 89581 | 103809
9 | 23:04.10 | 2:26.59 | 103810 | 114818
10 | 25:30.69 | 3:05.10 | 114819 | 128703
11 | 28:36.04 | 2:49.56 | 128704 | 141434
12 | 31:25.60 | 3:26.00 | 141435 | 156884
13 | 34:51.60 | 2:32.42 | 156885 | 168326
14 | 37:24.27 | 3:50.66 | 168327 | 185642
15 | 41:15.18 | 2:37.59 | 185643 | 197476

Трек 1

Имя файла E:\Мои Рипы\Onyx - Коллекция (4 релиза) (FLAC)\(2019) SnowMads (Onyx & Snowgoons)\01. Snowmads (Intro).wav

Длина предзазора 0:00:02.00

Пиковый уровень 97.7 %
Скорость извлечения 2.4 X
Качество трека 100.0 %
CRC теста F3BBC1DE
CRC копии F3BBC1DE
Трек не обнаружен в базе AccurateRip
Копирование... OK

Трек 2

Имя файла E:\Мои Рипы\Onyx - Коллекция (4 релиза) (FLAC)\(2019) SnowMads (Onyx & Snowgoons)\02. Who Da Fuc.wav

Пиковый уровень 97.7 %
Скорость извлечения 4.0 X
Качество трека 100.0 %
CRC теста A802C959
CRC копии A802C959
Трек не обнаружен в базе AccurateRip
Копирование... OK

Трек 3

Имя файла E:\Мои Рипы\Onyx - Коллекция (4 релиза) (FLAC)\(2019) SnowMads (Onyx & Snowgoons)\03. Robbing Hip Hop (Feat. Bumpy Knuckles, Nems).wav

Пиковый уровень 97.7 %
Скорость извлечения 4.2 X
Качество трека 99.9 %
CRC теста 061093EB
CRC копии 061093EB
Трек не обнаружен в базе AccurateRip
Копирование... OK

Трек 4

Имя файла E:\Мои Рипы\Onyx - Коллекция (4 релиза) (FLAC)\(2019) SnowMads (Onyx & Snowgoons)\04. Monsters Gorillas (Feat. Knuckles (NBS)).wav

Пиковый уровень 98.8 %
Скорость извлечения 5.1 X
Качество трека 100.0 %
CRC теста 0E3861B4
CRC копии 0E3861B4
Трек не обнаружен в базе AccurateRip
Копирование... OK

Трек 5

Имя файла E:\Мои Рипы\Onyx - Коллекция (4 релиза) (FLAC)\(2019) SnowMads (Onyx & Snowgoons)\05. Rat Tat Tat (Feat. Quadro,& Ufo Fev).wav

Пиковый уровень 97.7 %
Скорость извлечения 5.4 X
Качество трека 100.0 %
CRC теста 47C4D6B5
CRC копии 47C4D6B5
Трек не обнаружен в базе AccurateRip
Копирование... OK

Трек 6

Имя файла E:\Мои Рипы\Onyx - Коллекция (4 релиза) (FLAC)\(2019) SnowMads (Onyx & Snowgoons)\06. Hoodies Down.wav

Пиковый уровень 98.8 %
Скорость извлечения 5.5 X
Качество трека 100.0 %
CRC теста 694D5636
CRC копии 694D5636
Трек не обнаружен в базе AccurateRip
Копирование... OK

Трек 7

Имя файла E:\Мои Рипы\Onyx - Коллекция (4 релиза) (FLAC)\(2019) SnowMads (Onyx & Snowgoons)\07. Kill Da Mic.wav

Пиковый уровень 97.7 %
Скорость извлечения 5.8 X
Качество трека 100.0 %
CRC теста A787784E
CRC копии A787784E
Трек не обнаружен в базе AccurateRip
Копирование... OK

Трек 8

Имя файла E:\Мои Рипы\Onyx - Коллекция (4 релиза) (FLAC)\(2019) SnowMads (Onyx & Snowgoons)\08. Street Art (Feat. SickFlo).wav

Пиковый уровень 98.8 %
Скорость извлечения 6.1 X
Качество трека 100.0 %
CRC теста F53A5EAA
CRC копии F53A5EAA
Трек не обнаружен в базе AccurateRip
Копирование... OK

Трек 9

Имя файла E:\Мои Рипы\Onyx - Коллекция (4 релиза) (FLAC)\(2019) SnowMads (Onyx & Snowgoons)\09. Trolling (Feat. Knuckles (NBS)).wav

Пиковый уровень 97.7 %
Скорость извлечения 6.1 X
Качество трека 100.0 %
CRC теста 8C4AE6BB
CRC копии 8C4AE6BB
Трек не обнаружен в базе AccurateRip
Копирование... OK

Трек 10

Имя файла E:\Мои Рипы\Onyx - Коллекция (4 релиза) (FLAC)\(2019) SnowMads (Onyx & Snowgoons)\10. Ringolevio.wav

Пиковый уровень 97.7 %
Скорость извлечения 6.6 X
Качество трека 100.0 %
CRC теста BD76BF9A
CRC копии BD76BF9A
Трек не обнаружен в базе AccurateRip
Копирование... OK

Трек 11

Имя файла E:\Мои Рипы\Onyx - Коллекция (4 релиза) (FLAC)\(2019) SnowMads (Onyx & Snowgoons)\11. Built Like That.wav

Пиковый уровень 97.7 %
Скорость извлечения 6.7 X
Качество трека 100.0 %
CRC теста BEE8951E
CRC копии BEE8951E
Трек не обнаружен в базе AccurateRip
Копирование... OK

Трек 12

Имя файла E:\Мои Рипы\Onyx - Коллекция (4 релиза) (FLAC)\(2019) SnowMads (Onyx & Snowgoons)\12. Mad Shoot Outs (Feat. Flee Lord).wav

Пиковый уровень 97.7 %
Скорость извлечения 7.2 X
Качество трека 100.0 %
CRC теста ECCE051B
CRC копии ECCE051B
Трек не обнаружен в базе AccurateRip
Копирование... OK

Трек 13

Имя файла E:\Мои Рипы\Onyx - Коллекция (4 релиза) (FLAC)\(2019) SnowMads (Onyx & Snowgoons)\13. I Got The Tec-9.wav

Пиковый уровень 97.7 %
Скорость извлечения 7.0 X
Качество трека 100.0 %
CRC теста F5594339
CRC копии F5594339
Трек не обнаружен в базе AccurateRip
Копирование... OK

Трек 14

Имя файла E:\Мои Рипы\Onyx - Коллекция (4 релиза) (FLAC)\(2019) SnowMads (Onyx & Snowgoons)\14. Ain't No Time To Rest (Feat. Dope D.O.D.).wav

Пиковый уровень 97.7 %
Скорость извлечения 7.7 X
Качество трека 100.0 %
CRC теста 63A766DF
CRC копии 63A766DF
Трек не обнаружен в базе AccurateRip
Копирование... OK

Трек 15

Имя файла E:\Мои Рипы\Onyx - Коллекция (4 релиза) (FLAC)\(2019) SnowMads (Onyx & Snowgoons)\15. Good Fight.wav

Пиковый уровень 97.7 %
Скорость извлечения 0.3 X
Качество трека 99.5 %
CRC теста 40FA6681
CRC копии 1C0A1B3B
Трек не обнаружен в базе AccurateRip
Копирование... OK

Ни одного трека нет в базе AccurateRip

Ошибок не произошло

Конец отчёта

---- CUETools DB Plugin V2.1.6

[CTDB TOCID: 0dZ3h8ApCg5alHeJSJJZ46L9eWk-] found
Submit result: insufficient quality
Track | CTDB Status
1 | (5/5) Accurately ripped
2 | (5/5) Accurately ripped
3 | (5/5) Accurately ripped
4 | (5/5) Accurately ripped
5 | (5/5) Accurately ripped
6 | (5/5) Accurately ripped
7 | (5/5) Accurately ripped
8 | (5/5) Accurately ripped
9 | (5/5) Accurately ripped
10 | (5/5) Accurately ripped
11 | (5/5) Accurately ripped
12 | (5/5) Accurately ripped
13 | (5/5) Accurately ripped
14 | (5/5) Accurately ripped
15 | (5/5) Differs in 68 samples @00:01:53,00:02:47,00:04:13,00:05:08,00:06:49,00:10:04,00:12:40,00:15:00,00:17:36,00:18:30,00:20:66,00:23:26,00:24:21,00:26:57,00:29:17,00:30:12,00:32:47,00:36:02,00:38:38,00:39:33,00:41:68,00:42:63,00:45:23,00:46:18,00:48:53,00:49:48,00:52:09,00:53:03,00:55:39
If you are sure that your rip contains errors, you can use CUETools to repair it.

==== Контрольная сумма отчёта AA6E12C08284D72754010F1BCC6031132040FD7CB1D03F08DDA1EDE56423B9FE ====
 
REM GENRE Rap
REM DATE 2019
REM DISCID D80A490F
REM COMMENT "ExactAudioCopy v1.6"
PERFORMER "Onyx & Snowgoons"
TITLE "SnowMads"
REM COMPOSER "Snowgoons"
FILE "01. Snowmads (Intro).wav" WAVE
TRACK 01 AUDIO
TITLE "Snowmads (Intro)"
PERFORMER "Onyx & Snowgoons"
REM COMPOSER "Snowgoons"
INDEX 01 00:00:00
FILE "02. Who Da Fuc.wav" WAVE
TRACK 02 AUDIO
TITLE "Who Da Fuc"
PERFORMER "Onyx & Snowgoons"
REM COMPOSER "Snowgoons"
INDEX 01 00:00:00
FILE "03. Robbing Hip Hop (Feat. Bumpy Knuckles, Nems).wav" WAVE
TRACK 03 AUDIO
TITLE "Robbing Hip Hop (Feat. Bumpy Knuckles, Nems)"
PERFORMER "Onyx & Snowgoons"
REM COMPOSER "Snowgoons"
INDEX 01 00:00:00
FILE "04. Monsters Gorillas (Feat. Knuckles (NBS)).wav" WAVE
TRACK 04 AUDIO
TITLE "Monsters Gorillas (Feat. Knuckles (NBS))"
PERFORMER "Onyx & Snowgoons"
REM COMPOSER "Snowgoons"
INDEX 01 00:00:00
FILE "05. Rat Tat Tat (Feat. Quadro,& Ufo Fev).wav" WAVE
TRACK 05 AUDIO
TITLE "Rat Tat Tat (Feat. Quadro,& Ufo Fev)"
PERFORMER "Onyx & Snowgoons"
REM COMPOSER "Snowgoons"
INDEX 01 00:00:00
FILE "06. Hoodies Down.wav" WAVE
TRACK 06 AUDIO
TITLE "Hoodies Down"
PERFORMER "Onyx & Snowgoons"
REM COMPOSER "Snowgoons"
INDEX 01 00:00:00
FILE "07. Kill Da Mic.wav" WAVE
TRACK 07 AUDIO
TITLE "Kill Da Mic"
PERFORMER "Onyx & Snowgoons"
REM COMPOSER "Snowgoons"
INDEX 01 00:00:00
FILE "08. Street Art (Feat. SickFlo).wav" WAVE
TRACK 08 AUDIO
TITLE "Street Art (Feat. SickFlo)"
PERFORMER "Onyx & Snowgoons"
REM COMPOSER "Snowgoons"
INDEX 01 00:00:00
FILE "09. Trolling (Feat. Knuckles (NBS)).wav" WAVE
TRACK 09 AUDIO
TITLE "Trolling (Feat. Knuckles (NBS))"
PERFORMER "Onyx & Snowgoons"
REM COMPOSER "Snowgoons"
INDEX 01 00:00:00
FILE "10. Ringolevio.wav" WAVE
TRACK 10 AUDIO
TITLE "Ringolevio"
PERFORMER "Onyx & Snowgoons"
REM COMPOSER "Snowgoons"
INDEX 01 00:00:00
FILE "11. Built Like That.wav" WAVE
TRACK 11 AUDIO
TITLE "Built Like That"
PERFORMER "Onyx & Snowgoons"
REM COMPOSER "Snowgoons"
INDEX 01 00:00:00
FILE "12. Mad Shoot Outs (Feat. Flee Lord).wav" WAVE
TRACK 12 AUDIO
TITLE "Mad Shoot Outs (Feat. Flee Lord)"
PERFORMER "Onyx & Snowgoons"
REM COMPOSER "Snowgoons"
INDEX 01 00:00:00
FILE "13. I Got The Tec-9.wav" WAVE
TRACK 13 AUDIO
TITLE "I Got The Tec-9"
PERFORMER "Onyx & Snowgoons"
REM COMPOSER "Snowgoons"
INDEX 01 00:00:00
FILE "14. Ain't No Time To Rest (Feat. Dope D.O.D.).wav" WAVE
TRACK 14 AUDIO
TITLE "Ain't No Time To Rest (Feat. Dope D.O.D.)"
PERFORMER "Onyx & Snowgoons"
REM COMPOSER "Snowgoons"
INDEX 01 00:00:00
FILE "15. Good Fight.wav" WAVE
TRACK 15 AUDIO
TITLE "Good Fight"
PERFORMER "Onyx & Snowgoons"
REM COMPOSER "Snowgoons"
INDEX 01 00:00:00
 
Cue Corrector v. 10.2.3 / b. 2109 (Feb. 07, 2024)
————————————————————————————————————————————————————————————————————————
Onyx & Snowgoons / SnowMads

Folder: (2019) SnowMads (Onyx & Snowgoons)
Audio files:
01. Snowmads (Intro).flac [00:41.240; FLAC • 639 kbps • 16 bit \ 44100 Hz • stereo; 3.14 MB (3 296 550 B)]
02. Who Da Fuc.flac [02:31.440; FLAC • 1012 kbps • 16 bit \ 44100 Hz • stereo; 18.27 MB (19 161 591 B)]
03. Robbing Hip Hop (Feat. Bumpy Knuckles, Nems).flac [04:01.667; FLAC • 954 kbps • 16 bit \ 44100 Hz • stereo; 27.51 MB (28 845 927 B)]
04. Monsters Gorillas (Feat. Knuckles (NBS)).flac [03:42.307; FLAC • 943 kbps • 16 bit \ 44100 Hz • stereo; 25.01 MB (26 229 031 B)]
05. Rat Tat Tat (Feat. Quadro,& Ufo Fev).flac [03:13.720; FLAC • 757 kbps • 16 bit \ 44100 Hz • stereo; 17.49 MB (18 338 623 B)]
06. Hoodies Down.flac [02:47.467; FLAC • 920 kbps • 16 bit \ 44100 Hz • stereo; 18.38 MB (19 272 646 B)]
07. Kill Da Mic.flac [02:56.573; FLAC • 954 kbps • 16 bit \ 44100 Hz • stereo; 20.09 MB (21 064 635 B)]
08. Street Art (Feat. SickFlo).flac [03:09.720; FLAC • 914 kbps • 16 bit \ 44100 Hz • stereo; 20.69 MB (21 696 045 B)]
09. Trolling (Feat. Knuckles (NBS)).flac [02:26.787; FLAC • 887 kbps • 16 bit \ 44100 Hz • stereo; 15.54 MB (16 291 073 B)]
10. Ringolevio.flac [03:05.133; FLAC • 980 kbps • 16 bit \ 44100 Hz • stereo; 21.64 MB (22 686 489 B)]
11. Built Like That.flac [02:49.747; FLAC • 984 kbps • 16 bit \ 44100 Hz • stereo; 19.92 MB (20 883 282 B)]
12. Mad Shoot Outs (Feat. Flee Lord).flac [03:26.000; FLAC • 881 kbps • 16 bit \ 44100 Hz • stereo; 21.64 MB (22 688 138 B)]
13. I Got The Tec-9.flac [02:32.560; FLAC • 789 kbps • 16 bit \ 44100 Hz • stereo; 14.36 MB (15 060 194 B)]
14. Ain't No Time To Rest (Feat. Dope D.O.D.).flac [03:50.880; FLAC • 971 kbps • 16 bit \ 44100 Hz • stereo; 26.75 MB (28 047 829 B)]
15. Good Fight.flac [02:37.787; FLAC • 1070 kbps • 16 bit \ 44100 Hz • stereo; 20.14 MB (21 118 328 B)]

Accuracy: -m0

File 01. Snowmads (Intro) - 49% CDDA [00:41:18]
File 02. Who Da Fuc - 95% MPEG [02:31:33]
File 03. Robbing Hip Hop (Feat. Bumpy Knuckles, Nems) - 100% CDDA [04:01:50]
File 04. Monsters Gorillas (Feat. Knuckles (NBS)) - 85% CDDA [03:42:23]
File 05. Rat Tat Tat (Feat. Quadro,& Ufo Fev) - 100% CDDA [03:13:54]
File 06. Hoodies Down - 100% CDDA [02:47:35]
File 07. Kill Da Mic - 100% CDDA [02:56:43]
File 08. Street Art (Feat. SickFlo) - 100% CDDA [03:09:54]
File 09. Trolling (Feat. Knuckles (NBS)) - 100% CDDA [02:26:59]
File 10. Ringolevio - 100% CDDA [03:05:10]
File 11. Built Like That - 99% CDDA [02:49:56]
File 12. Mad Shoot Outs (Feat. Flee Lord) - 100% CDDA [03:26:00]
File 13. I Got The Tec-9 - 100% CDDA [02:32:42]
File 14. Ain't No Time To Rest (Feat. Dope D.O.D.) - 100% CDDA [03:50:66]
File 15. Good Fight - 100% CDDA [02:37:59]
————— Summary: —————
These tracks looks like CDDA with probability 100%.
————————————————————————————————————————————————————————————————————————

ANALYZER:
auCDtect: CD records authenticity detector, version 0.8.2
Copyright (c) 2004 Oleg Berngardt. All rights reserved.
Copyright (c) 2004 Alexander Djourik. All rights reserved.

Time elapsed: 1 m 15 s
Log created at March 09, 2024 17:54:31

=== 5EB0B9264AC0ADD5A0A7B07977F7CB42EAD5189DFFCDB8F4E74580D980EE4E1F ===
«SnowMads» - восьмой студийный альбом американской хардкор-рэп-группы Onyx, выпущенный 15 ноября 2019 года на лейбле Goon MuSick.
Альбом был полностью спродюсирован Snowgoons. Это не первый раз, когда две группы работают вместе. Пять лет назад Snowgoons заставили Onyx выпустить лонгплей #WakeDaFucUp, который был назван журналом XXL одним из лучших хип-хоп-альбомов 2014 года. За эти 5 лет участники группы Onyx несколько раз сотрудничали с группой Snowgoons, а также вместе выступали в Европе. В SnowMads вошло 15 треков и гостевые участия от рэперов Bumpy Knuckles, Nems, Knuckles (N.B.S.), Quadro, Ufo Fev, SickFlo, Flee Lord и Dope D.O.D.
Альбом был выбран как «Лучший зарубежный альбом 2019 года» по мнению читателей портала Rap.Ru, а также как «один из лучших зарубежных альбомов 2019 года» по мнению редакторов сайта HipHop4Real. Альбом был показан на российском шоу «Вечерний Ургант» на «Первом канале», где группа Onyx исполнила свой самый знаменитый хит «Slam», а также на болгарском шоу «Шоуто на Николаос Цитиридис» на bTV, где участники группы дали интервью и исполнили песню «Kill Da Mic». В начале 2020 года альбом SnowMads был размещён на рекламном щите Spotify на Таймс-сквер в Нью-Йорке.

Onyx (рус. Оникс) - американская хардкор-рэп-группа, образовавшаяся в 1988 году и добившаяся широкой известности в начале 1990-х годов. В оригинальный состав группы входили Fredro Starr, Suave и Big DS. В 1991 году к ним присоединился Sticky Fingaz.
Группа наиболее известна своим платиновым хитом 1993 года «Slam», который журнал The Source назвал песней, которая привнесла искусство слэма в хип-хоп. Группа выпустила одиннадцать студийных альбомов, три из которых вошли в топ-25 чарта Billboard 200. Их дебютный альбом, Bacdafucup, стал платиновым, был номинирован на церемониях American Music Awards и The Source Hip Hop Music Awards, победил в номинации «Лучший рэп-альбом» на церемонии Soul Train Music Awards и был выбран журналом The Source как один из 100 лучших рэп-альбомов. Подводя итоги 1993 года, американский журнал Billboard поместил группу на первое место в чарте Hot Rap Artists.
Участникам группы принадлежат новаторские приёмы в области хип-хоп-культуры. Группа принесла в хип-хоп слэм, который раньше можно было увидеть в толпе только на рок-концертах. Onyx также первая хип-хоп-группа, которая начала заниматься стейдж-дайвингом, установила новую тенденцию лить воду в толпу во время концерта, манеру исполнять песни мрачным голосом, моду брить голову наголо.
info [Профиль]  [ЛС] 
Показать сообщения:    
Ответить на тему

Текущее время: 20-Июн 10:14

Часовой пояс: GMT + 4



Вы не можете начинать темы
Вы не можете отвечать на сообщения
Вы не можете редактировать свои сообщения
Вы не можете удалять свои сообщения
Вы не можете голосовать в опросах
Вы не можете прикреплять файлы к сообщениям
Вы не можете скачивать файлы