Ошибка

(West Coast Hip-Hop, Rap) [CD] Snoop Dogg - Doggystyle (Japan) - 1993/2012, FLAC (tracks+.cue), lossless

Ответить на тему
 
Автор Сообщение

F.A.N.T.O.M

Пол: Пол:Муж

Стаж: 5 месяцев 25 дней

Сообщений: 421

Россия
Рейтинг

post 07-Июн-2024 16:36 1[+]

[Цитировать] 

Snoop Dogg - Doggystyle


Genre: West Coast Hip-Hop, Rap
Носитель: CD
Страна-производитель диска: Japan
Год издания: 1993/2012 Reissue
Издатель (лейбл): Victor Entertainment
Номер по каталогу: VICP-65077
Страна: USA
Аудиокодек: FLAC (*.flac)
Тип рипа: tracks+.cue
Битрейт аудио: lossless
Продолжительность: 52:30
Источник (релизер): My Personal Rip / CD из Личной Коллекции
Наличие сканов в содержимом раздачи: Да


TRACKLIST

01. Bathtub
02. G Funk Intro
03. Gin And Juice
04. Tha Shiznit
05. Lodi Dodi
06. Murder Was The Case
07. Serial Killa
08. Who Am I (What's My Name)
09. For All My Niggaz & Bitches
10. Ain't No Fun (If The Homies Can't Have None)
11. Doggy Dogg World
12. Gz And Hustlas
13. Pump Pump
 
Exact Audio Copy V1.1 from 23. June 2015

EAC extraction logfile from 16. February 2016, 13:53

Snoop Dogg / Doggystyle

Used drive : TSSTcorpCDDVDW SH-224BB Adapter: 1 ID: 0

Read mode : Secure
Utilize accurate stream : Yes
Defeat audio cache : Yes
Make use of C2 pointers : No

Read offset correction : 6
Overread into Lead-In and Lead-Out : No
Fill up missing offset samples with silence : Yes
Delete leading and trailing silent blocks : No
Null samples used in CRC calculations : Yes
Used interface : Native Win32 interface for Win NT & 2000
Gap handling : Appended to previous track

Used output format : User Defined Encoder
Selected bitrate : 1024 kBit/s
Quality : High
Add ID3 tag : No
Command line compressor : C:\Program Files (x86)\Exact Audio Copy\FLAC\FLAC.EXE
Additional command line options : -8 -V -T "ARTIST=%artist%" -T "TITLE=%title%" -T "ALBUM=%albumtitle%" -T "DATE=%year%" -T "TRACKNUMBER=%tracknr%" -T "GENRE=%genre%" -T "COMMENT=%comment%" -T "BAND=%albuminterpret%" -T "ALBUMARTIST=%albuminterpret%" -T "COMPOSER=%composer%" %haslyrics%--tag-from-file=LYRICS="%lyricsfile%"%haslyrics% -T "DISCNUMBER=%cdnumber%" -T "TOTALDISCS=%totalcds%" -T "TOTALTRACKS=%numtracks%" %hascover%--picture="%coverfile%"%hascover% %source% -o %dest%

TOC of the extracted CD

Track | Start | Length | Start sector | End sector
---------------------------------------------------------
1 | 0:00.00 | 1:50.60 | 0 | 8309
2 | 1:50.60 | 2:24.38 | 8310 | 19147
3 | 4:15.23 | 3:31.37 | 19148 | 35009
4 | 7:46.60 | 4:40.40 | 35010 | 56049
5 | 12:27.25 | 5:01.33 | 56050 | 78657
6 | 17:28.58 | 3:38.15 | 78658 | 95022
7 | 21:06.73 | 3:32.57 | 95023 | 110979
8 | 24:39.55 | 4:06.30 | 110980 | 129459
9 | 28:46.10 | 4:43.43 | 129460 | 150727
10 | 33:29.53 | 4:06.27 | 150728 | 169204
11 | 37:36.05 | 5:38.55 | 169205 | 194609
12 | 43:14.60 | 4:35.58 | 194610 | 215292
13 | 47:50.43 | 4:40.02 | 215293 | 236294

Track 1

Filename D:\Snoop Dogg - 1993 - Doggystyle [2012 Reissue, Remastered] (VICP-65077) (JP)\01 - Bathtub.wav

Pre-gap length 0:00:02.00

Peak level 99.5 %
Extraction speed 3.5 X
Track quality 100.0 %
Test CRC AC4BA1E3
Copy CRC AC4BA1E3
Cannot be verified as accurate (confidence 2) [37137BA9], AccurateRip returned [87AF1FC3] (AR v2)
Copy OK

Track 2

Filename D:\Snoop Dogg - 1993 - Doggystyle [2012 Reissue, Remastered] (VICP-65077) (JP)\02 - G Funk Intro.wav

Peak level 100.0 %
Extraction speed 4.0 X
Track quality 100.0 %
Test CRC 16FB7B3D
Copy CRC 16FB7B3D
Cannot be verified as accurate (confidence 2) [64BC8272], AccurateRip returned [3F36D94D] (AR v2)
Copy OK

Track 3

Filename D:\Snoop Dogg - 1993 - Doggystyle [2012 Reissue, Remastered] (VICP-65077) (JP)\03 - Gin And Juice.wav

Peak level 100.0 %
Extraction speed 4.0 X
Track quality 99.9 %
Test CRC 37A20C07
Copy CRC 37A20C07
Cannot be verified as accurate (confidence 2) [B0E48091], AccurateRip returned [A4A1686A] (AR v2)
Copy OK

Track 4

Filename D:\Snoop Dogg - 1993 - Doggystyle [2012 Reissue, Remastered] (VICP-65077) (JP)\04 - Tha Shiznit.wav

Peak level 100.0 %
Extraction speed 4.6 X
Track quality 99.9 %
Test CRC CD0A0C28
Copy CRC CD0A0C28
Cannot be verified as accurate (confidence 2) [255A6641], AccurateRip returned [C69F3FA9] (AR v2)
Copy OK

Track 5

Filename D:\Snoop Dogg - 1993 - Doggystyle [2012 Reissue, Remastered] (VICP-65077) (JP)\05 - Lodi Dodi.wav

Peak level 100.0 %
Extraction speed 5.1 X
Track quality 99.9 %
Test CRC 8DE030B7
Copy CRC 8DE030B7
Cannot be verified as accurate (confidence 2) [8EFA322E], AccurateRip returned [054690A4] (AR v2)
Copy OK

Track 6

Filename D:\Snoop Dogg - 1993 - Doggystyle [2012 Reissue, Remastered] (VICP-65077) (JP)\06 - Murder Was The Case (feat. Dat Nigga Daz).wav

Peak level 100.0 %
Extraction speed 5.8 X
Track quality 100.0 %
Test CRC 9AFBB800
Copy CRC 9AFBB800
Cannot be verified as accurate (confidence 2) [BF380493], AccurateRip returned [3BDCD4DD] (AR v2)
Copy OK

Track 7

Filename D:\Snoop Dogg - 1993 - Doggystyle [2012 Reissue, Remastered] (VICP-65077) (JP)\07 - Serial Killa (feat. D.O.C., RBX & Tha Dogg Pound).wav

Peak level 100.0 %
Extraction speed 6.0 X
Track quality 100.0 %
Test CRC FC0CC279
Copy CRC FC0CC279
Cannot be verified as accurate (confidence 2) [75600A5E], AccurateRip returned [235494CE] (AR v2)
Copy OK

Track 8

Filename D:\Snoop Dogg - 1993 - Doggystyle [2012 Reissue, Remastered] (VICP-65077) (JP)\08 - Who Am I (What's My Name).wav

Peak level 100.0 %
Extraction speed 6.4 X
Track quality 100.0 %
Test CRC 3328580B
Copy CRC 3328580B
Cannot be verified as accurate (confidence 2) [9B3C9C7F], AccurateRip returned [CB6452EF] (AR v2)
Copy OK

Track 9

Filename D:\Snoop Dogg - 1993 - Doggystyle [2012 Reissue, Remastered] (VICP-65077) (JP)\09 - For All My Niggaz & Bitches (feat. Tha Dogg Pound & The Lady Of Rage).wav

Peak level 100.0 %
Extraction speed 6.9 X
Track quality 100.0 %
Test CRC 4A9CF6DD
Copy CRC 4A9CF6DD
Cannot be verified as accurate (confidence 2) [B705D5A9], AccurateRip returned [9593E4B9] (AR v2)
Copy OK

Track 10

Filename D:\Snoop Dogg - 1993 - Doggystyle [2012 Reissue, Remastered] (VICP-65077) (JP)\10 - Ain't No Fun (If The Homies Can't Have None) (feat. Nate Dogg, Warren G & Kurupt).wav

Peak level 100.0 %
Extraction speed 6.9 X
Track quality 100.0 %
Test CRC 818DDC71
Copy CRC 818DDC71
Cannot be verified as accurate (confidence 2) [C4D31D97], AccurateRip returned [73CFAD15] (AR v2)
Copy OK

Track 11

Filename D:\Snoop Dogg - 1993 - Doggystyle [2012 Reissue, Remastered] (VICP-65077) (JP)\11 - Doggy Dogg World (feat. Tha Dogg Pound & The Dramatics).wav

Peak level 100.0 %
Extraction speed 7.6 X
Track quality 100.0 %
Test CRC E9E75BB8
Copy CRC E9E75BB8
Cannot be verified as accurate (confidence 2) [B3EF96A7], AccurateRip returned [8A59A2F5] (AR v2)
Copy OK

Track 12

Filename D:\Snoop Dogg - 1993 - Doggystyle [2012 Reissue, Remastered] (VICP-65077) (JP)\12 - Gz And Hustlas.wav

Peak level 100.0 %
Extraction speed 7.7 X
Track quality 100.0 %
Test CRC 39889499
Copy CRC 39889499
Cannot be verified as accurate (confidence 2) [93C4EACC], AccurateRip returned [35F5449D] (AR v2)
Copy OK

Track 13

Filename D:\Snoop Dogg - 1993 - Doggystyle [2012 Reissue, Remastered] (VICP-65077) (JP)\13 - Pump Pump (feat. Lil Malik).wav

Peak level 100.0 %
Extraction speed 7.9 X
Track quality 100.0 %
Test CRC 7C62E251
Copy CRC 7C62E251
Cannot be verified as accurate (confidence 2) [DC6AD2F5], AccurateRip returned [2DFB7AA9] (AR v2)
Copy OK

No tracks could be verified as accurate
You may have a different pressing from the one(s) in the database

No errors occurred

End of status report

---- CUETools DB Plugin V2.1.6

[CTDB TOCID: yKCH5L_AHwVk5vYhzjfb62ldknE-] found
Submit result: yKCH5L_AHwVk5vYhzjfb62ldknE- has been confirmed
Track | CTDB Status
1 | (3/3) Accurately ripped
2 | (3/3) Accurately ripped
3 | (3/3) Accurately ripped
4 | (3/3) Accurately ripped
5 | (3/3) Accurately ripped
6 | (3/3) Accurately ripped
7 | (3/3) Accurately ripped
8 | (3/3) Accurately ripped
9 | (3/3) Accurately ripped
10 | (3/3) Accurately ripped
11 | (3/3) Accurately ripped
12 | (3/3) Accurately ripped
13 | (3/3) Accurately ripped

==== Log checksum 1C20F843262FF1B320F8506BF2D53D32F082C0BFBACD3ACC48C067BF46D32240 ====

 
REM GENRE Hip-Hop
REM DATE 1993
REM DISCID AF0C4E0D
REM COMMENT "ExactAudioCopy v1.1"
CATALOG 4988002623426
PERFORMER "Snoop Dogg"
TITLE "Doggystyle"
FILE "01 - Bathtub.wav" WAVE
TRACK 01 AUDIO
TITLE "Bathtub"
PERFORMER "Snoop Dogg"
INDEX 01 00:00:00
FILE "02 - G Funk Intro.wav" WAVE
TRACK 02 AUDIO
TITLE "G Funk Intro"
PERFORMER "Snoop Dogg"
INDEX 01 00:00:00
FILE "03 - Gin And Juice.wav" WAVE
TRACK 03 AUDIO
TITLE "Gin And Juice"
PERFORMER "Snoop Dogg"
ISRC USDR20000070
INDEX 01 00:00:00
FILE "04 - Tha Shiznit.wav" WAVE
TRACK 04 AUDIO
TITLE "Tha Shiznit"
PERFORMER "Snoop Dogg"
ISRC GBGHC0500024
INDEX 01 00:00:00
FILE "05 - Lodi Dodi.wav" WAVE
TRACK 05 AUDIO
TITLE "Lodi Dodi"
PERFORMER "Snoop Dogg"
ISRC GBGHC0500008
INDEX 01 00:00:00
FILE "06 - Murder Was The Case.wav" WAVE
TRACK 06 AUDIO
TITLE "Murder Was The Case"
PERFORMER "Snoop Dogg"
INDEX 01 00:00:00
FILE "07 - Serial Killa.wav" WAVE
TRACK 07 AUDIO
TITLE "Serial Killa"
PERFORMER "Snoop Dogg"
ISRC GBGHC0500267
INDEX 01 00:00:00
FILE "08 - Who Am I (What's My Name).wav" WAVE
TRACK 08 AUDIO
TITLE "Who Am I (What's My Name)"
PERFORMER "Snoop Dogg"
ISRC USDR20000077
INDEX 01 00:00:00
FILE "09 - For All My Niggaz & Bitches.wav" WAVE
TRACK 09 AUDIO
TITLE "For All My Niggaz & Bitches"
PERFORMER "Snoop Dogg"
INDEX 01 00:00:00
FILE "10 - Ain't No Fun (If The Homies Can't Have None).wav" WAVE
TRACK 10 AUDIO
TITLE "Ain't No Fun (If The Homies Can't Have None)"
PERFORMER "Snoop Dogg"
ISRC USDR20000073
INDEX 01 00:00:00
FILE "11 - Doggy Dogg World.wav" WAVE
TRACK 11 AUDIO
TITLE "Doggy Dogg World"
PERFORMER "Snoop Dogg"
INDEX 01 00:00:00
FILE "12 - Gz And Hustlas.wav" WAVE
TRACK 12 AUDIO
TITLE "Gz And Hustlas"
PERFORMER "Snoop Dogg"
ISRC GBGHC0500034
INDEX 01 00:00:00
FILE "13 - Pump Pump.wav" WAVE
TRACK 13 AUDIO
TITLE "Pump Pump"
PERFORMER "Snoop Dogg"
INDEX 01 00:00:00

info [Профиль]  [ЛС] 
Показать сообщения:    
Ответить на тему

Текущее время: 16-Июн 01:31

Часовой пояс: GMT + 4



Вы не можете начинать темы
Вы не можете отвечать на сообщения
Вы не можете редактировать свои сообщения
Вы не можете удалять свои сообщения
Вы не можете голосовать в опросах
Вы не можете прикреплять файлы к сообщениям
Вы не можете скачивать файлы