Ошибка

(Underground Hip-Hop) [CD] Kool Keith - Black Elvis Lost In Space (Japan) - 1999, FLAC (tracks+.cue), lossless

Ответить на тему
 
Автор Сообщение

F.A.N.T.O.M

Пол: Пол:Муж

Стаж: 5 месяцев 28 дней

Сообщений: 425

Россия
Рейтинг

post 07-Июн-2024 16:35 0[+]

[Цитировать] 

Kool Keith - Black Elvis Lost In Space


Genre: Underground Hip-Hop
Носитель: CD
Страна-производитель диска: Japan
Год издания: 1999
Издатель (лейбл): Sony
Номер по каталогу: SRCS 8943
Страна: USA
Аудиокодек: FLAC (*.flac)
Тип рипа: tracks+.cue
Битрейт аудио: lossless
Продолжительность: 01:08:11
Источник (релизер): My Personal Rip / CD из Личной Коллекции
Наличие сканов в содержимом раздачи: Да


TRACKLIST

01. Intro
02. Lost In Space
03. Rockets On The Battlefield
04. Livin' Astro
05. Supergalactic Lover
06. Master Of The Game
07. I'm Seein' Robots
08. Static
09. Intro 2
10. Black Elvis
11. Maxi Curls
12. Keith Turbo
13. Fine Girls
14. The Girls Don't Like The Job
15. Clifton
16. All The Time
17. I Don't Play
 
Exact Audio Copy V1.3 from 2. September 2016

EAC extraction logfile from 27. May 2018, 21:09

Kool Keith / Black Elvis Lost In Space

Used drive : ATAPI iHAS122 F Adapter: 1 ID: 0

Read mode : Secure
Utilize accurate stream : Yes
Defeat audio cache : Yes
Make use of C2 pointers : No

Read offset correction : 6
Overread into Lead-In and Lead-Out : No
Fill up missing offset samples with silence : Yes
Delete leading and trailing silent blocks : No
Null samples used in CRC calculations : Yes
Used interface : Native Win32 interface for Win NT & 2000
Gap handling : Appended to previous track

Used output format : User Defined Encoder
Selected bitrate : 1024 kBit/s
Quality : High
Add ID3 tag : No
Command line compressor : C:\Program Files (x86)\Exact Audio Copy\Flac\flac.exe
Additional command line options : -8 -V -T "ARTIST=%artist%" -T "TITLE=%title%" -T "ALBUM=%albumtitle%" -T "DATE=%year%" -T "TRACKNUMBER=%tracknr%" -T "GENRE=%genre%" -T "COMMENT=%comment%" -T "BAND=%albuminterpret%" -T "ALBUMARTIST=%albuminterpret%" -T "COMPOSER=%composer%" %haslyrics%--tag-from-file=LYRICS="%lyricsfile%"%haslyrics% -T "DISCNUMBER=%cdnumber%" -T "TOTALDISCS=%totalcds%" -T "TOTALTRACKS=%numtracks%" %hascover%--picture="%coverfile%"%hascover% %source% -o %dest%

TOC of the extracted CD

Track | Start | Length | Start sector | End sector
---------------------------------------------------------
1 | 0:00.00 | 3:08.70 | 0 | 14169
2 | 3:08.70 | 3:52.05 | 14170 | 31574
3 | 7:01.00 | 4:25.17 | 31575 | 51466
4 | 11:26.17 | 4:28.25 | 51467 | 71591
5 | 15:54.42 | 3:41.03 | 71592 | 88169
6 | 19:35.45 | 4:43.20 | 88170 | 109414
7 | 24:18.65 | 4:22.50 | 109415 | 129114
8 | 28:41.40 | 4:31.40 | 129115 | 149479
9 | 33:13.05 | 0:25.40 | 149480 | 151394
10 | 33:38.45 | 3:45.70 | 151395 | 168339
11 | 37:24.40 | 4:36.69 | 168340 | 189108
12 | 42:01.34 | 4:17.31 | 189109 | 208414
13 | 46:18.65 | 3:59.20 | 208415 | 226359
14 | 50:18.10 | 4:16.10 | 226360 | 245569
15 | 54:34.20 | 4:49.22 | 245570 | 267266
16 | 59:23.42 | 3:43.03 | 267267 | 283994
17 | 63:06.45 | 5:04.70 | 283995 | 306864

Track 1

Filename D:\Kool Keith - 1999 - Black Elvis Lost In Space (SRCS 8943) (JP)\01 - Intro.wav

Pre-gap length 0:00:02.00

Peak level 97.8 %
Extraction speed 5.4 X
Track quality 100.0 %
Test CRC 00AA4AEB
Copy CRC 00AA4AEB
Accurately ripped (confidence 2) [500F0638] (AR v2)
Copy OK

Track 2

Filename D:\Kool Keith - 1999 - Black Elvis Lost In Space (SRCS 8943) (JP)\02 - Lost In Space (feat. Black Silver The Navigator).wav

Peak level 98.6 %
Extraction speed 5.1 X
Track quality 99.9 %
Test CRC 3BD7DB69
Copy CRC 3BD7DB69
Accurately ripped (confidence 2) [277DFD24] (AR v2)
Copy OK

Track 3

Filename D:\Kool Keith - 1999 - Black Elvis Lost In Space (SRCS 8943) (JP)\03 - Rockets On The Battlefield (feat. Black Silver The Navigator).wav

Peak level 97.7 %
Extraction speed 6.7 X
Track quality 100.0 %
Test CRC 39D374B0
Copy CRC 39D374B0
Accurately ripped (confidence 2) [6183E9D2] (AR v2)
Copy OK

Track 4

Filename D:\Kool Keith - 1999 - Black Elvis Lost In Space (SRCS 8943) (JP)\04 - Livin' Astro.wav

Peak level 98.8 %
Extraction speed 7.2 X
Track quality 100.0 %
Test CRC 3F2A5F56
Copy CRC 3F2A5F56
Accurately ripped (confidence 2) [858ECAAF] (AR v2)
Copy OK

Track 5

Filename D:\Kool Keith - 1999 - Black Elvis Lost In Space (SRCS 8943) (JP)\05 - Supergalactic Lover.wav

Peak level 98.6 %
Extraction speed 7.5 X
Track quality 100.0 %
Test CRC EC372993
Copy CRC EC372993
Accurately ripped (confidence 2) [BD518DCA] (AR v2)
Copy OK

Track 6

Filename D:\Kool Keith - 1999 - Black Elvis Lost In Space (SRCS 8943) (JP)\06 - Master Of The Game (feat. Roger Troutman).wav

Peak level 99.7 %
Extraction speed 8.2 X
Track quality 100.0 %
Test CRC 876DCA89
Copy CRC 876DCA89
Accurately ripped (confidence 2) [F3D4B73C] (AR v2)
Copy OK

Track 7

Filename D:\Kool Keith - 1999 - Black Elvis Lost In Space (SRCS 8943) (JP)\07 - I'm Seein' Robots.wav

Peak level 96.4 %
Extraction speed 8.5 X
Track quality 100.0 %
Test CRC 569D5239
Copy CRC 569D5239
Accurately ripped (confidence 2) [D6EE36AC] (AR v2)
Copy OK

Track 8

Filename D:\Kool Keith - 1999 - Black Elvis Lost In Space (SRCS 8943) (JP)\08 - Static (feat. Sadat X).wav

Peak level 98.8 %
Extraction speed 8.9 X
Track quality 100.0 %
Test CRC 752173B9
Copy CRC 752173B9
Accurately ripped (confidence 2) [3F6C1222] (AR v2)
Copy OK

Track 9

Filename D:\Kool Keith - 1999 - Black Elvis Lost In Space (SRCS 8943) (JP)\09 - Intro 2 (feat. Kid Capri).wav

Peak level 98.6 %
Extraction speed 2.2 X
Track quality 99.5 %
Test CRC EAECA1D6
Copy CRC EAECA1D6
Accurately ripped (confidence 2) [792A9D17] (AR v2)
Copy OK

Track 10

Filename D:\Kool Keith - 1999 - Black Elvis Lost In Space (SRCS 8943) (JP)\10 - Black Elvis.wav

Peak level 98.8 %
Extraction speed 9.1 X
Track quality 100.0 %
Test CRC D76E5300
Copy CRC D76E5300
Accurately ripped (confidence 2) [4A0FC840] (AR v2)
Copy OK

Track 11

Filename D:\Kool Keith - 1999 - Black Elvis Lost In Space (SRCS 8943) (JP)\11 - Maxi Curls.wav

Peak level 98.8 %
Extraction speed 9.8 X
Track quality 100.0 %
Test CRC 780938C2
Copy CRC 780938C2
Accurately ripped (confidence 2) [BE62E770] (AR v2)
Copy OK

Track 12

Filename D:\Kool Keith - 1999 - Black Elvis Lost In Space (SRCS 8943) (JP)\12 - Keith Turbo.wav

Peak level 98.8 %
Extraction speed 9.9 X
Track quality 100.0 %
Test CRC 29DBB0F6
Copy CRC 29DBB0F6
Accurately ripped (confidence 2) [8FA1CE2C] (AR v2)
Copy OK

Track 13

Filename D:\Kool Keith - 1999 - Black Elvis Lost In Space (SRCS 8943) (JP)\13 - Fine Girls.wav

Peak level 97.5 %
Extraction speed 10.2 X
Track quality 100.0 %
Test CRC 41023491
Copy CRC 41023491
Accurately ripped (confidence 2) [B145B794] (AR v2)
Copy OK

Track 14

Filename D:\Kool Keith - 1999 - Black Elvis Lost In Space (SRCS 8943) (JP)\14 - The Girls Don't Like The Job.wav

Peak level 94.1 %
Extraction speed 10.6 X
Track quality 100.0 %
Test CRC 629462F1
Copy CRC 629462F1
Accurately ripped (confidence 2) [E60D647A] (AR v2)
Copy OK

Track 15

Filename D:\Kool Keith - 1999 - Black Elvis Lost In Space (SRCS 8943) (JP)\15 - Clifton (feat. Noggin' Nodders).wav

Peak level 98.8 %
Extraction speed 11.1 X
Track quality 100.0 %
Test CRC 73E1F92E
Copy CRC 73E1F92E
Accurately ripped (confidence 2) [EC79F60C] (AR v2)
Copy OK

Track 16

Filename D:\Kool Keith - 1999 - Black Elvis Lost In Space (SRCS 8943) (JP)\16 - All The Time.wav

Peak level 93.9 %
Extraction speed 10.9 X
Track quality 100.0 %
Test CRC 2E1FAB2A
Copy CRC 2E1FAB2A
Accurately ripped (confidence 2) [F4BB2171] (AR v2)
Copy OK

Track 17

Filename D:\Kool Keith - 1999 - Black Elvis Lost In Space (SRCS 8943) (JP)\17 - I Don't Play.wav

Peak level 95.5 %
Extraction speed 11.5 X
Track quality 100.0 %
Test CRC 566968B4
Copy CRC 566968B4
Accurately ripped (confidence 2) [EBE7393F] (AR v2)
Copy OK

All tracks accurately ripped

No errors occurred

End of status report

---- CUETools DB Plugin V2.1.6

[CTDB TOCID: eNhPzO8cIKYnlqJUN088tR1se.g-] found
Submit result: eNhPzO8cIKYnlqJUN088tR1se.g- has been confirmed
Track | CTDB Status
1 | (3/3) Accurately ripped
2 | (3/3) Accurately ripped
3 | (3/3) Accurately ripped
4 | (3/3) Accurately ripped
5 | (3/3) Accurately ripped
6 | (3/3) Accurately ripped
7 | (3/3) Accurately ripped
8 | (3/3) Accurately ripped
9 | (3/3) Accurately ripped
10 | (3/3) Accurately ripped
11 | (3/3) Accurately ripped
12 | (3/3) Accurately ripped
13 | (3/3) Accurately ripped
14 | (3/3) Accurately ripped
15 | (3/3) Accurately ripped
16 | (3/3) Accurately ripped
17 | (3/3) Accurately ripped

==== Log checksum E43CE18C200EB1D933305DC161E50FCC825A6570C545824FEC920CD4B6842623 ====

 
REM GENRE Hip-Hop
REM DATE 1999
REM DISCID F20FFB11
REM COMMENT "ExactAudioCopy v1.3"
PERFORMER "Kool Keith"
TITLE "Black Elvis Lost In Space"
REM COMPOSER ""
FILE "01 - Intro.wav" WAVE
TRACK 01 AUDIO
TITLE "Intro"
PERFORMER "Kool Keith"
REM COMPOSER ""
ISRC USSM19806569
INDEX 01 00:00:00
FILE "02 - Lost In Space.wav" WAVE
TRACK 02 AUDIO
TITLE "Lost In Space"
PERFORMER "Kool Keith"
REM COMPOSER ""
ISRC USSM19806570
INDEX 01 00:00:00
FILE "03 - Rockets On The Battlefield.wav" WAVE
TRACK 03 AUDIO
TITLE "Rockets On The Battlefield"
PERFORMER "Kool Keith"
REM COMPOSER ""
ISRC USSM19806571
INDEX 01 00:00:00
FILE "04 - Livin' Astro.wav" WAVE
TRACK 04 AUDIO
TITLE "Livin' Astro"
PERFORMER "Kool Keith"
REM COMPOSER ""
ISRC USSM19806572
INDEX 01 00:00:00
FILE "05 - Supergalactic Lover.wav" WAVE
TRACK 05 AUDIO
TITLE "Supergalactic Lover"
PERFORMER "Kool Keith"
REM COMPOSER ""
ISRC USSM19806573
INDEX 01 00:00:00
FILE "06 - Master Of The Game.wav" WAVE
TRACK 06 AUDIO
TITLE "Master Of The Game"
PERFORMER "Kool Keith"
REM COMPOSER ""
ISRC USSM19806574
INDEX 01 00:00:00
FILE "07 - I'm Seein' Robots.wav" WAVE
TRACK 07 AUDIO
TITLE "I'm Seein' Robots"
PERFORMER "Kool Keith"
REM COMPOSER ""
ISRC USSM19806575
INDEX 01 00:00:00
FILE "08 - Static.wav" WAVE
TRACK 08 AUDIO
TITLE "Static"
PERFORMER "Kool Keith"
REM COMPOSER ""
ISRC USSM19806576
INDEX 01 00:00:00
FILE "09 - Intro 2.wav" WAVE
TRACK 09 AUDIO
TITLE "Intro 2"
PERFORMER "Kool Keith"
REM COMPOSER ""
ISRC USSM19806577
INDEX 01 00:00:00
FILE "10 - Black Elvis.wav" WAVE
TRACK 10 AUDIO
TITLE "Black Elvis"
PERFORMER "Kool Keith"
REM COMPOSER ""
ISRC USSM19806578
INDEX 01 00:00:00
FILE "11 - Maxi Curls.wav" WAVE
TRACK 11 AUDIO
TITLE "Maxi Curls"
PERFORMER "Kool Keith"
REM COMPOSER ""
ISRC USSM19806579
INDEX 01 00:00:00
FILE "12 - Keith Turbo.wav" WAVE
TRACK 12 AUDIO
TITLE "Keith Turbo"
PERFORMER "Kool Keith"
REM COMPOSER ""
ISRC USSM19806580
INDEX 01 00:00:00
FILE "13 - Fine Girls.wav" WAVE
TRACK 13 AUDIO
TITLE "Fine Girls"
PERFORMER "Kool Keith"
REM COMPOSER ""
ISRC USSM19806581
INDEX 01 00:00:00
FILE "14 - The Girls Don't Like The Job.wav" WAVE
TRACK 14 AUDIO
TITLE "The Girls Don't Like The Job"
PERFORMER "Kool Keith"
REM COMPOSER ""
ISRC USSM19806582
INDEX 01 00:00:00
FILE "15 - Clifton.wav" WAVE
TRACK 15 AUDIO
TITLE "Clifton"
PERFORMER "Kool Keith"
REM COMPOSER ""
ISRC USSM19806583
INDEX 01 00:00:00
FILE "16 - All The Time.wav" WAVE
TRACK 16 AUDIO
TITLE "All The Time"
PERFORMER "Kool Keith"
REM COMPOSER ""
ISRC USSM19806584
INDEX 01 00:00:00
FILE "17 - I Don't Play.wav" WAVE
TRACK 17 AUDIO
TITLE "I Don't Play"
PERFORMER "Kool Keith"
REM COMPOSER ""
ISRC USSM19806585
INDEX 01 00:00:00

info [Профиль]  [ЛС] 
Показать сообщения:    
Ответить на тему

Текущее время: 19-Июн 18:57

Часовой пояс: GMT + 4



Вы не можете начинать темы
Вы не можете отвечать на сообщения
Вы не можете редактировать свои сообщения
Вы не можете удалять свои сообщения
Вы не можете голосовать в опросах
Вы не можете прикреплять файлы к сообщениям
Вы не можете скачивать файлы