Ошибка

(East Coast Hip-Hop, Wu-Tang) [CD] RZA - In Stereo (Japan) - 1998, FLAC (tracks+.cue), lossless

Ответить на тему
 
Автор Сообщение

F.A.N.T.O.M

Пол: Пол:Муж

Стаж: 6 месяцев 27 дней

Сообщений: 484

Россия
Рейтинг

post 07-Июн-2024 16:33 1[+]

[Цитировать] 

RZA - In Stereo


Genre: East Coast Hip-Hop, Wu-Tang
Носитель: CD
Страна-производитель диска: Japan
Год издания: 1998
Издатель (лейбл): Sony
Номер по каталогу: V2CI 0018
Страна: USA
Аудиокодек: FLAC (*.flac)
Тип рипа: tracks+.cue
Битрейт аудио: lossless
Продолжительность: 01:12:17
Источник (релизер): My Personal Rip / CD из Личной Коллекции
Наличие сканов в содержимом раздачи: Да


TRACKLIST

01. B.O.B.B.Y.
02. Unspoken Word
03. Airwaves
04. Love Jones
05. N.Y.C. Everything
06. Mantis
07. Holocaust (Silkworm)
08. Terrorist
09. Bobby Did It (Spanish Fly)
10. Kiss Of A Black Widow
11. Do You Here The Bells (9 Minute Free Style)
12. Project Talk
13. Lab Drunk
14. Fuck What You Think
15. Daily Routine
16. Domestic Violence[/font][/size]
 
Exact Audio Copy V1.3 from 2. September 2016

EAC extraction logfile from 19. June 2017, 21:01

RZA / In Stereo

Used drive : ATAPI iHAS122 F Adapter: 0 ID: 0

Read mode : Secure
Utilize accurate stream : Yes
Defeat audio cache : Yes
Make use of C2 pointers : No

Read offset correction : 6
Overread into Lead-In and Lead-Out : No
Fill up missing offset samples with silence : Yes
Delete leading and trailing silent blocks : No
Null samples used in CRC calculations : Yes
Used interface : Installed external ASPI interface
Gap handling : Appended to previous track

Used output format : User Defined Encoder
Selected bitrate : 1024 kBit/s
Quality : High
Add ID3 tag : No
Command line compressor : C:\Program Files (x86)\Exact Audio Copy\FLAC\FLAC.EXE
Additional command line options : -8 -V -T "ARTIST=%artist%" -T "TITLE=%title%" -T "ALBUM=%albumtitle%" -T "DATE=%year%" -T "TRACKNUMBER=%tracknr%" -T "GENRE=%genre%" -T "COMMENT=%comment%" -T "BAND=%albuminterpret%" -T "ALBUMARTIST=%albuminterpret%" -T "COMPOSER=%composer%" %haslyrics%--tag-from-file=LYRICS="%lyricsfile%"%haslyrics% -T "DISCNUMBER=%cdnumber%" -T "TOTALDISCS=%totalcds%" -T "TOTALTRACKS=%numtracks%" %hascover%--picture="%coverfile%"%hascover% %source% -o %dest%

TOC of the extracted CD

Track | Start | Length | Start sector | End sector
---------------------------------------------------------
1 | 0:00.00 | 5:50.70 | 0 | 26319
2 | 5:50.70 | 4:46.67 | 26320 | 47836
3 | 10:37.62 | 1:51.68 | 47837 | 56229
4 | 12:29.55 | 4:35.52 | 56230 | 76906
5 | 17:05.32 | 4:23.08 | 76907 | 96639
6 | 21:28.40 | 3:38.02 | 96640 | 112991
7 | 25:06.42 | 5:16.15 | 112992 | 136706
8 | 30:22.57 | 4:10.43 | 136707 | 155499
9 | 34:33.25 | 4:24.42 | 155500 | 175341
10 | 38:57.67 | 2:50.60 | 175342 | 188151
11 | 41:48.52 | 11:26.48 | 188152 | 239649
12 | 53:15.25 | 1:47.57 | 239650 | 247731
13 | 55:03.07 | 4:18.65 | 247732 | 267146
14 | 59:21.72 | 3:13.18 | 267147 | 281639
15 | 62:35.15 | 4:23.02 | 281640 | 301366
16 | 66:58.17 | 5:19.20 | 301367 | 325311

Track 1

Filename D:\RZA - 1998 - In Stereo (V2CI 0018) (JP)\01 - B.O.B.B.Y..wav

Pre-gap length 0:00:02.00

Peak level 98.7 %
Extraction speed 5.3 X
Track quality 99.9 %
Test CRC DD64142A
Copy CRC DD64142A
Track not present in AccurateRip database
Copy OK

Track 2

Filename D:\RZA - 1998 - In Stereo (V2CI 0018) (JP)\02 - Unspoken Word.wav

Peak level 98.7 %
Extraction speed 6.7 X
Track quality 100.0 %
Test CRC A0FFA2FC
Copy CRC A0FFA2FC
Track not present in AccurateRip database
Copy OK

Track 3

Filename D:\RZA - 1998 - In Stereo (V2CI 0018) (JP)\03 - Airwaves.wav

Peak level 98.7 %
Extraction speed 4.2 X
Track quality 99.9 %
Test CRC E8CBECB2
Copy CRC E8CBECB2
Track not present in AccurateRip database
Copy OK

Track 4

Filename D:\RZA - 1998 - In Stereo (V2CI 0018) (JP)\04 - Love Jones.wav

Peak level 98.7 %
Extraction speed 7.5 X
Track quality 100.0 %
Test CRC A494ADEC
Copy CRC A494ADEC
Track not present in AccurateRip database
Copy OK

Track 5

Filename D:\RZA - 1998 - In Stereo (V2CI 0018) (JP)\05 - N.Y.C. Everything (feat. Method Man).wav

Pre-gap length 0:00:01.40

Peak level 98.7 %
Extraction speed 7.8 X
Track quality 100.0 %
Test CRC 1DE98BC0
Copy CRC 1DE98BC0
Track not present in AccurateRip database
Copy OK

Track 6

Filename D:\RZA - 1998 - In Stereo (V2CI 0018) (JP)\06 - Mantis (feat. Masta Killa).wav

Peak level 98.7 %
Extraction speed 8.0 X
Track quality 100.0 %
Test CRC ED45F623
Copy CRC ED45F623
Track not present in AccurateRip database
Copy OK

Track 7

Filename D:\RZA - 1998 - In Stereo (V2CI 0018) (JP)\07 - Holocaust (Silkworm) (feat. Dr. Doom, Ghostface Killah & Holocaust).wav

Peak level 98.7 %
Extraction speed 8.8 X
Track quality 100.0 %
Test CRC A1C80AA5
Copy CRC A1C80AA5
Track not present in AccurateRip database
Copy OK

Track 8

Filename D:\RZA - 1998 - In Stereo (V2CI 0018) (JP)\08 - Terrorist (feat. Black Knights & Killarmy).wav

Peak level 98.7 %
Extraction speed 8.9 X
Track quality 100.0 %
Test CRC E7227AFC
Copy CRC E7227AFC
Track not present in AccurateRip database
Copy OK

Track 9

Filename D:\RZA - 1998 - In Stereo (V2CI 0018) (JP)\09 - Bobby Did It (Spanish Fly) (feat. Ghostface Killah, Islord & Royal Fam).wav

Peak level 98.7 %
Extraction speed 9.3 X
Track quality 100.0 %
Test CRC 88E43577
Copy CRC 88E43577
Track not present in AccurateRip database
Copy OK

Track 10

Filename D:\RZA - 1998 - In Stereo (V2CI 0018) (JP)\10 - Kiss Of A Black Widow (feat. Ol' Dirty Bastard).wav

Peak level 98.7 %
Extraction speed 9.2 X
Track quality 100.0 %
Test CRC DCCE4450
Copy CRC DCCE4450
Track not present in AccurateRip database
Copy OK

Track 11

Filename D:\RZA - 1998 - In Stereo (V2CI 0018) (JP)\11 - Do You Here The Bells (9 Minute Free Style) (Bonus Track).wav

Peak level 98.8 %
Extraction speed 11.1 X
Track quality 100.0 %
Test CRC E56F08DB
Copy CRC E56F08DB
Track not present in AccurateRip database
Copy OK

Track 12

Filename D:\RZA - 1998 - In Stereo (V2CI 0018) (JP)\12 - Project Talk (feat. Baretta 9).wav

Pre-gap length 0:00:05.05

Peak level 98.7 %
Extraction speed 9.0 X
Track quality 100.0 %
Test CRC BD5F91BC
Copy CRC BD5F91BC
Track not present in AccurateRip database
Copy OK

Track 13

Filename D:\RZA - 1998 - In Stereo (V2CI 0018) (JP)\13 - Lab Drunk.wav

Peak level 98.7 %
Extraction speed 10.9 X
Track quality 100.0 %
Test CRC F956E6AA
Copy CRC F956E6AA
Track not present in AccurateRip database
Copy OK

Track 14

Filename D:\RZA - 1998 - In Stereo (V2CI 0018) (JP)\14 - Fuck What You Think (feat. 9th Prince & Islord).wav

Pre-gap length 0:00:01.12

Peak level 98.7 %
Extraction speed 10.5 X
Track quality 100.0 %
Test CRC 34EFD7F8
Copy CRC 34EFD7F8
Track not present in AccurateRip database
Copy OK

Track 15

Filename D:\RZA - 1998 - In Stereo (V2CI 0018) (JP)\15 - Daily Routine (feat. Beretta 9).wav

Peak level 98.7 %
Extraction speed 11.3 X
Track quality 100.0 %
Test CRC F90729B4
Copy CRC F90729B4
Track not present in AccurateRip database
Copy OK

Track 16

Filename D:\RZA - 1998 - In Stereo (V2CI 0018) (JP)\16 - Domestic Violence (feat. U-God).wav

Peak level 98.7 %
Extraction speed 11.8 X
Track quality 100.0 %
Test CRC 5D31F6FA
Copy CRC 5D31F6FA
Track not present in AccurateRip database
Copy OK

None of the tracks are present in the AccurateRip database

No errors occurred

End of status report

---- CUETools DB Plugin V2.1.6

[CTDB TOCID: qJfejuMv_kQjRUxokK7tJ7LGEV0-] found
Submit result: qJfejuMv_kQjRUxokK7tJ7LGEV0- has been confirmed
Track | CTDB Status
1 | (1/1) Accurately ripped
2 | (1/1) Accurately ripped
3 | (1/1) Accurately ripped
4 | (1/1) Accurately ripped
5 | (1/1) Accurately ripped
6 | (1/1) Accurately ripped
7 | (1/1) Accurately ripped
8 | (1/1) Accurately ripped
9 | (1/1) Accurately ripped
10 | (1/1) Accurately ripped
11 | (1/1) Accurately ripped
12 | (1/1) Accurately ripped
13 | (1/1) Accurately ripped
14 | (1/1) Accurately ripped
15 | (1/1) Accurately ripped
16 | (1/1) Accurately ripped

==== Log checksum 50B686A0CB0A67D0ED03326E9AE39FE136D67B24A534C54C04F7342D5BD2CEAC ====

 
REM GENRE Hip-Hop
REM DATE 1998
REM DISCID D110F110
REM COMMENT "ExactAudioCopy v1.3"
PERFORMER "RZA"
TITLE "In Stereo"
REM COMPOSER ""
FILE "01 - B.O.B.B.Y..wav" WAVE
TRACK 01 AUDIO
TITLE "B.O.B.B.Y."
PERFORMER "RZA"
REM COMPOSER ""
ISRC USGS29800134
INDEX 01 00:00:00
FILE "02 - Unspoken Word.wav" WAVE
TRACK 02 AUDIO
TITLE "Unspoken Word"
PERFORMER "RZA"
REM COMPOSER ""
ISRC USGS29800132
INDEX 01 00:00:00
FILE "03 - Airwaves.wav" WAVE
TRACK 03 AUDIO
TITLE "Airwaves"
PERFORMER "RZA"
REM COMPOSER ""
ISRC USGS29800142
INDEX 01 00:00:00
FILE "04 - Love Jones.wav" WAVE
TRACK 04 AUDIO
TITLE "Love Jones"
PERFORMER "RZA"
REM COMPOSER ""
ISRC USGS29800141
INDEX 01 00:00:00
TRACK 05 AUDIO
TITLE "N.Y.C. Everything"
PERFORMER "RZA"
REM COMPOSER ""
ISRC USGS29800137
INDEX 00 04:34:12
FILE "05 - N.Y.C. Everything.wav" WAVE
INDEX 01 00:00:00
FILE "06 - Mantis.wav" WAVE
TRACK 06 AUDIO
TITLE "Mantis"
PERFORMER "RZA"
REM COMPOSER ""
ISRC USGS29800143
INDEX 01 00:00:00
FILE "07 - Holocaust (Silkworm).wav" WAVE
TRACK 07 AUDIO
TITLE "Holocaust (Silkworm)"
PERFORMER "RZA"
REM COMPOSER ""
ISRC USGS29800139
INDEX 01 00:00:00
FILE "08 - Terrorist.wav" WAVE
TRACK 08 AUDIO
TITLE "Terrorist"
PERFORMER "RZA"
REM COMPOSER ""
ISRC USGS29800136
INDEX 01 00:00:00
FILE "09 - Bobby Did It (Spanish Fly).wav" WAVE
TRACK 09 AUDIO
TITLE "Bobby Did It (Spanish Fly)"
PERFORMER "RZA"
REM COMPOSER ""
ISRC USGS29800138
INDEX 01 00:00:00
FILE "10 - Kiss Of A Black Widow.wav" WAVE
TRACK 10 AUDIO
TITLE "Kiss Of A Black Widow"
PERFORMER "RZA"
REM COMPOSER ""
ISRC USGS29800145
INDEX 01 00:00:00
FILE "11 - Do You Here The Bells (9 Minute Free Style).wav" WAVE
TRACK 11 AUDIO
TITLE "Do You Here The Bells (9 Minute Free Style)"
PERFORMER "RZA"
REM COMPOSER ""
ISRC USGS29800140
INDEX 01 00:00:00
TRACK 12 AUDIO
TITLE "Project Talk"
PERFORMER "RZA"
REM COMPOSER ""
ISRC USGS29800153
INDEX 00 11:21:43
FILE "12 - Project Talk.wav" WAVE
INDEX 01 00:00:00
FILE "13 - Lab Drunk.wav" WAVE
TRACK 13 AUDIO
TITLE "Lab Drunk"
PERFORMER "RZA"
REM COMPOSER ""
ISRC USGS29800152
INDEX 01 00:00:00
TRACK 14 AUDIO
TITLE "Fuck What You Think"
PERFORMER "RZA"
REM COMPOSER ""
ISRC USGS29800146
INDEX 00 04:17:53
FILE "14 - Fuck What You Think.wav" WAVE
INDEX 01 00:00:00
FILE "15 - Daily Routine.wav" WAVE
TRACK 15 AUDIO
TITLE "Daily Routine"
PERFORMER "RZA"
REM COMPOSER ""
ISRC USGS29800147
INDEX 01 00:00:00
FILE "16 - Domestic Violence.wav" WAVE
TRACK 16 AUDIO
TITLE "Domestic Violence"
PERFORMER "RZA"
REM COMPOSER ""
ISRC USGS29800154
INDEX 01 00:00:00

info [Профиль]  [ЛС] 
Показать сообщения:    
Ответить на тему

Текущее время: 18-Июл 03:55

Часовой пояс: GMT + 4



Вы не можете начинать темы
Вы не можете отвечать на сообщения
Вы не можете редактировать свои сообщения
Вы не можете удалять свои сообщения
Вы не можете голосовать в опросах
Вы не можете прикреплять файлы к сообщениям
Вы не можете скачивать файлы