Ошибка

(Hip-Hop, Rap) Will Smith - Collection (1997-2002) (3 Japanese Releases), FLAC (tracks+.cue), lossless

Ответить на тему
 
Автор Сообщение

F.A.N.T.O.M

Пол: Пол:Муж

Стаж: 5 месяцев 29 дней

Сообщений: 432

Россия
Рейтинг

post 07-Июн-2024 16:21 1[+]

[Цитировать] 

Will Smith - Collection




Release Date: 1997-2002
Country Of Manufacture: Japan
Audio Codec: FLAC (*.flac)
Type Of Rip: tracks+.cue
Bitrate: lossless
Covers (Scans): 600dpi


Artist: Willard Carroll Smith Jr.
Genre: Hip-Hop, Rap
Country: West Philadelphia, Pennsylvania, U.S.


Albums
Big Willie Style


Country Of Manufacture: Japan
Released: 1997
Label: Sony
Catalog:: SRCS 8503
Audio Codec: FLAC (tracks+.cue)
Duration:: 58:39
Source: My Personal Rip / CD из Личной Коллекции


TRACKLIST

01. Intro
02. Y'All Know
03. Gettin' Jiggy Wit It
04. Candy
05. Chasing Forever
06. Keith B-Real l (Interlude)
07. Don't Say Nothin'
08. Miami
09. Yes Yes Y'All
10. I Loved You
11. Keith B-Real ll (Interlude)
12. It's All Good
13. Just The Two Of Us
14. Keith B-Real lll (Interlude)
15. Big Willie Style
16. Men In Black
17. Just Cruisin' (Remix)
 
Exact Audio Copy V1.1 from 23. June 2015

EAC extraction logfile from 20. October 2015, 22:41

Will Smith / Big Willie Style

Used drive : TSSTcorpCDDVDW SH-224BB Adapter: 1 ID: 0

Read mode : Secure
Utilize accurate stream : Yes
Defeat audio cache : Yes
Make use of C2 pointers : No

Read offset correction : 6
Overread into Lead-In and Lead-Out : No
Fill up missing offset samples with silence : Yes
Delete leading and trailing silent blocks : No
Null samples used in CRC calculations : Yes
Used interface : Native Win32 interface for Win NT & 2000
Gap handling : Appended to previous track

Used output format : User Defined Encoder
Selected bitrate : 1024 kBit/s
Quality : High
Add ID3 tag : No
Command line compressor : C:\Program Files (x86)\Exact Audio Copy\FLAC\FLAC.EXE
Additional command line options : -8 -V -T "ARTIST=%artist%" -T "TITLE=%title%" -T "ALBUM=%albumtitle%" -T "DATE=%year%" -T "TRACKNUMBER=%tracknr%" -T "GENRE=%genre%" -T "COMMENT=%comment%" -T "BAND=%albuminterpret%" -T "ALBUMARTIST=%albuminterpret%" -T "COMPOSER=%composer%" %haslyrics%--tag-from-file=LYRICS="%lyricsfile%"%haslyrics% -T "DISCNUMBER=%cdnumber%" -T "TOTALDISCS=%totalcds%" -T "TOTALTRACKS=%numtracks%" %hascover%--picture="%coverfile%"%hascover% %source% -o %dest%

TOC of the extracted CD

Track | Start | Length | Start sector | End sector
---------------------------------------------------------
1 | 0:00.00 | 1:51.35 | 0 | 8359
2 | 1:51.35 | 3:57.30 | 8360 | 26164
3 | 5:48.65 | 3:47.70 | 26165 | 43259
4 | 9:36.60 | 3:56.67 | 43260 | 61026
5 | 13:33.52 | 4:15.70 | 61027 | 80221
6 | 17:49.47 | 1:07.13 | 80222 | 85259
7 | 18:56.60 | 4:22.60 | 85260 | 104969
8 | 23:19.45 | 3:17.40 | 104970 | 119784
9 | 26:37.10 | 4:23.02 | 119785 | 139511
10 | 31:00.12 | 4:12.43 | 139512 | 158454
11 | 35:12.55 | 0:30.10 | 158455 | 160714
12 | 35:42.65 | 4:04.44 | 160715 | 179058
13 | 39:47.34 | 5:15.36 | 179059 | 202719
14 | 45:02.70 | 1:54.39 | 202720 | 211308
15 | 46:57.34 | 3:35.36 | 211309 | 227469
16 | 50:32.70 | 3:50.10 | 227470 | 244729
17 | 54:23.05 | 4:16.42 | 244730 | 263971

Track 1

Filename F:\Will Smith - 1997 - Big Willie Style (Promo) (SRCS 8503) (JP)\01 - Intro.wav

Pre-gap length 0:00:02.00

Peak level 94.8 %
Extraction speed 3.5 X
Track quality 100.0 %
Test CRC DB3EB0EC
Copy CRC DB3EB0EC
Accurately ripped (confidence 4) [1C10D25C] (AR v2)
Copy OK

Track 2

Filename F:\Will Smith - 1997 - Big Willie Style (Promo) (SRCS 8503) (JP)\02 - Y'All Know.wav

Peak level 98.8 %
Extraction speed 3.6 X
Track quality 99.9 %
Test CRC 44EB3479
Copy CRC 44EB3479
Accurately ripped (confidence 4) [15BE162C] (AR v2)
Copy OK

Track 3

Filename F:\Will Smith - 1997 - Big Willie Style (Promo) (SRCS 8503) (JP)\03 - Gettin' Jiggy Wit It.wav

Peak level 98.8 %
Extraction speed 4.8 X
Track quality 100.0 %
Test CRC B110E695
Copy CRC B110E695
Accurately ripped (confidence 4) [219A55BA] (AR v2)
Copy OK

Track 4

Filename F:\Will Smith - 1997 - Big Willie Style (Promo) (SRCS 8503) (JP)\04 - Candy (feat. Larry Blackmon & Cameo).wav

Peak level 98.8 %
Extraction speed 5.2 X
Track quality 100.0 %
Test CRC CD5664D1
Copy CRC CD5664D1
Accurately ripped (confidence 4) [0E69FDE2] (AR v2)
Copy OK

Track 5

Filename F:\Will Smith - 1997 - Big Willie Style (Promo) (SRCS 8503) (JP)\05 - Chasing Forever.wav

Peak level 98.8 %
Extraction speed 4.6 X
Track quality 99.9 %
Test CRC 880204B9
Copy CRC 880204B9
Accurately ripped (confidence 4) [2CBE2187] (AR v2)
Copy OK

Track 6

Filename F:\Will Smith - 1997 - Big Willie Style (Promo) (SRCS 8503) (JP)\06 - Keith B-Real l (Interlude).wav

Peak level 98.8 %
Extraction speed 4.2 X
Track quality 100.0 %
Test CRC F85FDB19
Copy CRC F85FDB19
Accurately ripped (confidence 4) [BA2D9241] (AR v2)
Copy OK

Track 7

Filename F:\Will Smith - 1997 - Big Willie Style (Promo) (SRCS 8503) (JP)\07 - Don't Say Nothin'.wav

Peak level 98.8 %
Extraction speed 6.1 X
Track quality 100.0 %
Test CRC 0C7A8BE2
Copy CRC 0C7A8BE2
Accurately ripped (confidence 4) [BF244FC3] (AR v2)
Copy OK

Track 8

Filename F:\Will Smith - 1997 - Big Willie Style (Promo) (SRCS 8503) (JP)\08 - Miami.wav

Peak level 98.8 %
Extraction speed 4.8 X
Track quality 99.9 %
Test CRC CDD27E5F
Copy CRC CDD27E5F
Accurately ripped (confidence 4) [42D76940] (AR v2)
Copy OK

Track 9

Filename F:\Will Smith - 1997 - Big Willie Style (Promo) (SRCS 8503) (JP)\09 - Yes Yes Y'All (feat. Camp Lo).wav

Peak level 98.8 %
Extraction speed 6.7 X
Track quality 100.0 %
Test CRC 88421849
Copy CRC 88421849
Accurately ripped (confidence 4) [27B09F89] (AR v2)
Copy OK

Track 10

Filename F:\Will Smith - 1997 - Big Willie Style (Promo) (SRCS 8503) (JP)\10 - I Loved You.wav

Peak level 98.8 %
Extraction speed 6.9 X
Track quality 100.0 %
Test CRC 08CB2261
Copy CRC 08CB2261
Accurately ripped (confidence 4) [D9F3B52A] (AR v2)
Copy OK

Track 11

Filename F:\Will Smith - 1997 - Big Willie Style (Promo) (SRCS 8503) (JP)\11 - Keith B-Real ll (Interlude).wav

Peak level 98.8 %
Extraction speed 3.5 X
Track quality 100.0 %
Test CRC DF99E861
Copy CRC DF99E861
Accurately ripped (confidence 4) [8AB7C164] (AR v2)
Copy OK

Track 12

Filename F:\Will Smith - 1997 - Big Willie Style (Promo) (SRCS 8503) (JP)\12 - It's All Good.wav

Peak level 98.8 %
Extraction speed 7.2 X
Track quality 100.0 %
Test CRC F585AF87
Copy CRC F585AF87
Accurately ripped (confidence 4) [B72D550E] (AR v2)
Copy OK

Track 13

Filename F:\Will Smith - 1997 - Big Willie Style (Promo) (SRCS 8503) (JP)\13 - Just The Two Of Us.wav

Peak level 98.8 %
Extraction speed 7.7 X
Track quality 100.0 %
Test CRC 2C6C6BEE
Copy CRC 2C6C6BEE
Accurately ripped (confidence 4) [42BB753A] (AR v2)
Copy OK

Track 14

Filename F:\Will Smith - 1997 - Big Willie Style (Promo) (SRCS 8503) (JP)\14 - Keith B-Real lll (Interlude).wav

Peak level 98.8 %
Extraction speed 4.5 X
Track quality 99.9 %
Test CRC 51B6EB8F
Copy CRC 51B6EB8F
Accurately ripped (confidence 4) [3A12D0CC] (AR v2)
Copy OK

Track 15

Filename F:\Will Smith - 1997 - Big Willie Style (Promo) (SRCS 8503) (JP)\15 - Big Willie Style (feat. Left Eye).wav

Peak level 98.8 %
Extraction speed 6.0 X
Track quality 99.9 %
Test CRC EC570BD0
Copy CRC EC570BD0
Accurately ripped (confidence 4) [F1B9B70A] (AR v2)
Copy OK

Track 16

Filename F:\Will Smith - 1997 - Big Willie Style (Promo) (SRCS 8503) (JP)\16 - Men In Black.wav

Peak level 97.7 %
Extraction speed 7.9 X
Track quality 100.0 %
Test CRC D8A93D00
Copy CRC D8A93D00
Accurately ripped (confidence 4) [1FFCAB2E] (AR v2)
Copy OK

Track 17

Filename F:\Will Smith - 1997 - Big Willie Style (Promo) (SRCS 8503) (JP)\17 - Just Cruisin' (Remix) (Bonus Track).wav

Pre-gap length 0:00:01.70

Peak level 98.8 %
Extraction speed 8.3 X
Track quality 100.0 %
Test CRC 23E59665
Copy CRC 23E59665
Accurately ripped (confidence 4) [6233F89E] (AR v2)
Copy OK

All tracks accurately ripped

No errors occurred

End of status report

---- CUETools DB Plugin V2.1.6

[CTDB TOCID: lOIgq.9hiCUpY9HDIFBzal87KYg-] found
Submit result: lOIgq.9hiCUpY9HDIFBzal87KYg- has been confirmed
Track | CTDB Status
1 | (4/4) Accurately ripped
2 | (4/4) Accurately ripped
3 | (4/4) Accurately ripped
4 | (4/4) Accurately ripped
5 | (4/4) Accurately ripped
6 | (4/4) Accurately ripped
7 | (4/4) Accurately ripped
8 | (4/4) Accurately ripped
9 | (4/4) Accurately ripped
10 | (4/4) Accurately ripped
11 | (4/4) Accurately ripped
12 | (4/4) Accurately ripped
13 | (4/4) Accurately ripped
14 | (4/4) Accurately ripped
15 | (4/4) Accurately ripped
16 | (4/4) Accurately ripped
17 | (4/4) Accurately ripped

==== Log checksum 83353E8DD0C8F9C95DDF028716B1F7974C3AC12667DBBEAC778306988F8C9B35 ====

 
REM GENRE Hip-Hop
REM DATE 1997
REM DISCID DA0DBF11
REM COMMENT "ExactAudioCopy v1.1"
PERFORMER "Will Smith"
TITLE "Big Willie Style"
FILE "01 - Intro.wav" WAVE
TRACK 01 AUDIO
TITLE "Intro"
PERFORMER "Will Smith"
ISRC USSM19702691
INDEX 01 00:00:00
FILE "02 - Y'All Know.wav" WAVE
TRACK 02 AUDIO
TITLE "Y'All Know"
PERFORMER "Will Smith"
ISRC USSM19702692
INDEX 01 00:00:00
FILE "03 - Gettin' Jiggy Wit It.wav" WAVE
TRACK 03 AUDIO
TITLE "Gettin' Jiggy Wit It"
PERFORMER "Will Smith"
ISRC USSM19702582
INDEX 01 00:00:00
FILE "04 - Candy.wav" WAVE
TRACK 04 AUDIO
TITLE "Candy"
PERFORMER "Will Smith"
ISRC USSM19702693
INDEX 01 00:00:00
FILE "05 - Chasing Forever.wav" WAVE
TRACK 05 AUDIO
TITLE "Chasing Forever"
PERFORMER "Will Smith"
ISRC USSM19702694
INDEX 01 00:00:00
FILE "06 - Keith B-Real l (Interlude).wav" WAVE
TRACK 06 AUDIO
TITLE "Keith B-Real l (Interlude)"
PERFORMER "Will Smith"
ISRC USSM19702695
INDEX 01 00:00:00
FILE "07 - Don't Say Nothin'.wav" WAVE
TRACK 07 AUDIO
TITLE "Don't Say Nothin'"
PERFORMER "Will Smith"
ISRC USSM19702696
INDEX 01 00:00:00
FILE "08 - Miami.wav" WAVE
TRACK 08 AUDIO
TITLE "Miami"
PERFORMER "Will Smith"
ISRC USSM19702697
INDEX 01 00:00:00
FILE "09 - Yes Yes Y'All.wav" WAVE
TRACK 09 AUDIO
TITLE "Yes Yes Y'All"
PERFORMER "Will Smith"
ISRC USSM19702698
INDEX 01 00:00:00
FILE "10 - I Loved You.wav" WAVE
TRACK 10 AUDIO
TITLE "I Loved You"
PERFORMER "Will Smith"
ISRC USSM19702699
INDEX 01 00:00:00
FILE "11 - Keith B-Real ll (Interlude).wav" WAVE
TRACK 11 AUDIO
TITLE "Keith B-Real ll (Interlude)"
PERFORMER "Will Smith"
ISRC USSM19702700
INDEX 01 00:00:00
FILE "12 - It's All Good.wav" WAVE
TRACK 12 AUDIO
TITLE "It's All Good"
PERFORMER "Will Smith"
ISRC USSM19702701
INDEX 01 00:00:00
FILE "13 - Just The Two Of Us.wav" WAVE
TRACK 13 AUDIO
TITLE "Just The Two Of Us"
PERFORMER "Will Smith"
ISRC USSM19702702
INDEX 01 00:00:00
FILE "14 - Keith B-Real lll (Interlude).wav" WAVE
TRACK 14 AUDIO
TITLE "Keith B-Real lll (Interlude)"
PERFORMER "Will Smith"
ISRC USSM19702702
INDEX 01 00:00:00
FILE "15 - Big Willie Style.wav" WAVE
TRACK 15 AUDIO
TITLE "Big Willie Style"
PERFORMER "Will Smith"
ISRC USSM19702704
INDEX 01 00:00:00
FILE "16 - Men In Black.wav" WAVE
TRACK 16 AUDIO
TITLE "Men In Black"
PERFORMER "Will Smith"
ISRC USSM19700762
INDEX 01 00:00:00
TRACK 17 AUDIO
TITLE "Just Cruisin' (Remix)"
PERFORMER "Will Smith"
ISRC USSM19702583
INDEX 00 03:48:15
FILE "17 - Just Cruisin' (Remix).wav" WAVE
INDEX 01 00:00:00

Willennium


Country Of Manufacture: Japan
Released: 1999
Label: Sony
Catalog:: SRCS 2131
Audio Codec: FLAC (tracks+.cue)
Duration:: 01:02:43
Source: My Personal Rip / CD из Личной Коллекции


TRACKLIST

01. I'm Comin'
02. Will 2K
03. Freakin' It
04. Da Butta
05. La Fiesta
06. Who Am I
07. Afro Angel
08. So Fresh
09. Pump Me Up
10. Can You Feel Me
11. Potnas - Interlude
12. No More
13. Uuhhh
14. Wild Wild West
15. The Rain
 
Exact Audio Copy V1.1 from 23. June 2015

EAC extraction logfile from 20. October 2015, 18:03

Will Smith / Willennium

Used drive : TSSTcorpCDDVDW SH-224BB Adapter: 1 ID: 0

Read mode : Secure
Utilize accurate stream : Yes
Defeat audio cache : Yes
Make use of C2 pointers : No

Read offset correction : 6
Overread into Lead-In and Lead-Out : No
Fill up missing offset samples with silence : Yes
Delete leading and trailing silent blocks : No
Null samples used in CRC calculations : Yes
Used interface : Native Win32 interface for Win NT & 2000
Gap handling : Appended to previous track

Used output format : User Defined Encoder
Selected bitrate : 1024 kBit/s
Quality : High
Add ID3 tag : No
Command line compressor : C:\Program Files (x86)\Exact Audio Copy\FLAC\FLAC.EXE
Additional command line options : -8 -V -T "ARTIST=%artist%" -T "TITLE=%title%" -T "ALBUM=%albumtitle%" -T "DATE=%year%" -T "TRACKNUMBER=%tracknr%" -T "GENRE=%genre%" -T "COMMENT=%comment%" -T "BAND=%albuminterpret%" -T "ALBUMARTIST=%albuminterpret%" -T "COMPOSER=%composer%" %haslyrics%--tag-from-file=LYRICS="%lyricsfile%"%haslyrics% -T "DISCNUMBER=%cdnumber%" -T "TOTALDISCS=%totalcds%" -T "TOTALTRACKS=%numtracks%" %hascover%--picture="%coverfile%"%hascover% %source% -o %dest%

TOC of the extracted CD

Track | Start | Length | Start sector | End sector
---------------------------------------------------------
1 | 0:00.00 | 3:54.42 | 0 | 17591
2 | 3:54.42 | 3:53.70 | 17592 | 35136
3 | 7:48.37 | 3:59.20 | 35137 | 53081
4 | 11:47.57 | 2:58.43 | 53082 | 66474
5 | 14:46.25 | 4:16.22 | 66475 | 85696
6 | 19:02.47 | 4:02.20 | 85697 | 103866
7 | 23:04.67 | 5:10.68 | 103867 | 127184
8 | 28:15.60 | 4:15.65 | 127185 | 146374
9 | 32:31.50 | 4:05.07 | 146375 | 164756
10 | 36:36.57 | 3:44.45 | 164757 | 181601
11 | 40:21.27 | 6:09.65 | 181602 | 209341
12 | 46:31.17 | 3:25.28 | 209342 | 224744
13 | 49:56.45 | 3:29.25 | 224745 | 240444
14 | 53:25.70 | 4:28.30 | 240445 | 260574
15 | 57:54.25 | 4:49.35 | 260575 | 282284

Track 1

Filename F:\Will Smith - 1999 - Willennium (SRCS 2131) (JP)\01 - I'm Comin' (feat. Tra-Knox).wav

Pre-gap length 0:00:02.00

Peak level 100.0 %
Extraction speed 4.6 X
Track quality 100.0 %
Test CRC E747D801
Copy CRC E747D801
Accurately ripped (confidence 3) [874445EB] (AR v2)
Copy OK

Track 2

Filename F:\Will Smith - 1999 - Willennium (SRCS 2131) (JP)\02 - Will 2K (feat. K-Ci).wav

Peak level 100.0 %
Extraction speed 5.1 X
Track quality 100.0 %
Test CRC 62D0B5FE
Copy CRC 62D0B5FE
Accurately ripped (confidence 3) [95A43EC1] (AR v2)
Copy OK

Track 3

Filename F:\Will Smith - 1999 - Willennium (SRCS 2131) (JP)\03 - Freakin' It.wav

Peak level 100.0 %
Extraction speed 5.6 X
Track quality 100.0 %
Test CRC 83009492
Copy CRC 83009492
Accurately ripped (confidence 3) [6C7DFAE0] (AR v2)
Copy OK

Track 4

Filename F:\Will Smith - 1999 - Willennium (SRCS 2131) (JP)\04 - Da Butta (feat. Lil' Kim).wav

Peak level 100.0 %
Extraction speed 5.7 X
Track quality 100.0 %
Test CRC F346072B
Copy CRC F346072B
Accurately ripped (confidence 3) [DD2994C7] (AR v2)
Copy OK

Track 5

Filename F:\Will Smith - 1999 - Willennium (SRCS 2131) (JP)\05 - La Fiesta.wav

Peak level 100.0 %
Extraction speed 5.1 X
Track quality 99.9 %
Test CRC C7FD4932
Copy CRC C7FD4932
Accurately ripped (confidence 3) [90B8560F] (AR v2)
Copy OK

Track 6

Filename F:\Will Smith - 1999 - Willennium (SRCS 2131) (JP)\06 - Who Am I (feat. MC Lyte & Tatyana Ali).wav

Peak level 100.0 %
Extraction speed 6.5 X
Track quality 100.0 %
Test CRC 521F6CCA
Copy CRC 521F6CCA
Accurately ripped (confidence 3) [3F1A2812] (AR v2)
Copy OK

Track 7

Filename F:\Will Smith - 1999 - Willennium (SRCS 2131) (JP)\07 - Afro Angel.wav

Peak level 100.0 %
Extraction speed 7.1 X
Track quality 100.0 %
Test CRC 9EB9029E
Copy CRC 9EB9029E
Accurately ripped (confidence 3) [A4493B5A] (AR v2)
Copy OK

Track 8

Filename F:\Will Smith - 1999 - Willennium (SRCS 2131) (JP)\08 - So Fresh (feat. Biz Markie & Slick Rick).wav

Peak level 100.0 %
Extraction speed 7.3 X
Track quality 100.0 %
Test CRC 956428E3
Copy CRC 956428E3
Accurately ripped (confidence 3) [ACFA9D23] (AR v2)
Copy OK

Track 9

Filename F:\Will Smith - 1999 - Willennium (SRCS 2131) (JP)\09 - Pump Me Up.wav

Peak level 100.0 %
Extraction speed 7.5 X
Track quality 100.0 %
Test CRC 2654CD9A
Copy CRC 2654CD9A
Accurately ripped (confidence 3) [CCB68003] (AR v2)
Copy OK

Track 10

Filename F:\Will Smith - 1999 - Willennium (SRCS 2131) (JP)\10 - Can You Feel Me (feat. Eve).wav

Peak level 100.0 %
Extraction speed 7.6 X
Track quality 100.0 %
Test CRC CFB667C4
Copy CRC CFB667C4
Accurately ripped (confidence 3) [0E32015E] (AR v2)
Copy OK

Track 11

Filename F:\Will Smith - 1999 - Willennium (SRCS 2131) (JP)\11 - Potnas - Interlude.wav

Peak level 100.0 %
Extraction speed 7.2 X
Track quality 99.9 %
Test CRC 7124AAF6
Copy CRC 7124AAF6
Accurately ripped (confidence 3) [C1CA8714] (AR v2)
Copy OK

Track 12

Filename F:\Will Smith - 1999 - Willennium (SRCS 2131) (JP)\12 - No More (feat. Breeze).wav

Peak level 100.0 %
Extraction speed 8.1 X
Track quality 100.0 %
Test CRC 6317BE83
Copy CRC 6317BE83
Accurately ripped (confidence 3) [E0A27FE4] (AR v2)
Copy OK

Track 13

Filename F:\Will Smith - 1999 - Willennium (SRCS 2131) (JP)\13 - Uuhhh (feat. Kel Spencer).wav

Peak level 100.0 %
Extraction speed 8.3 X
Track quality 100.0 %
Test CRC 93BDC4E4
Copy CRC 93BDC4E4
Accurately ripped (confidence 3) [0132627F] (AR v2)
Copy OK

Track 14

Filename F:\Will Smith - 1999 - Willennium (SRCS 2131) (JP)\14 - Wild Wild West (feat. Dru Hill & Kool Mo Dee).wav

Peak level 97.7 %
Extraction speed 8.7 X
Track quality 100.0 %
Test CRC F9282F69
Copy CRC F9282F69
Accurately ripped (confidence 3) [6114C1E1] (AR v2)
Copy OK

Track 15

Filename F:\Will Smith - 1999 - Willennium (SRCS 2131) (JP)\15 - The Rain (feat. Jill Scott).wav

Peak level 100.0 %
Extraction speed 9.1 X
Track quality 100.0 %
Test CRC 7270405C
Copy CRC 7270405C
Accurately ripped (confidence 3) [299D8DEC] (AR v2)
Copy OK

All tracks accurately ripped

No errors occurred

End of status report

---- CUETools DB Plugin V2.1.6

[CTDB TOCID: tQa8lyaBO00hnfY0gVpuhhg.dJA-] found
Submit result: tQa8lyaBO00hnfY0gVpuhhg.dJA- has been confirmed
Track | CTDB Status
1 | (4/4) Accurately ripped
2 | (4/4) Accurately ripped
3 | (4/4) Accurately ripped
4 | (4/4) Accurately ripped
5 | (4/4) Accurately ripped
6 | (4/4) Accurately ripped
7 | (4/4) Accurately ripped
8 | (4/4) Accurately ripped
9 | (4/4) Accurately ripped
10 | (4/4) Accurately ripped
11 | (4/4) Accurately ripped
12 | (4/4) Accurately ripped
13 | (4/4) Accurately ripped
14 | (4/4) Accurately ripped
15 | (4/4) Accurately ripped

==== Log checksum 5C0F100E72B8CD5946D7D0BE760685B2A736697042461E9C6D64D8463070A250 ====

 
REM GENRE Hip-Hop
REM DATE 1999
REM DISCID F50EB30F
REM COMMENT "ExactAudioCopy v1.1"
PERFORMER "Will Smith"
TITLE "Willennium"
FILE "01 - I'm Comin'.wav" WAVE
TRACK 01 AUDIO
TITLE "I'm Comin'"
PERFORMER "Will Smith"
ISRC USSM19924121
INDEX 01 00:00:00
FILE "02 - Will 2K.wav" WAVE
TRACK 02 AUDIO
TITLE "Will 2K"
PERFORMER "Will Smith"
ISRC USSM19918929
INDEX 01 00:00:00
FILE "03 - Freakin' It.wav" WAVE
TRACK 03 AUDIO
TITLE "Freakin' It"
PERFORMER "Will Smith"
ISRC USSM19918929
INDEX 01 00:00:00
FILE "04 - Da Butta.wav" WAVE
TRACK 04 AUDIO
TITLE "Da Butta"
PERFORMER "Will Smith"
ISRC USSM19924123
INDEX 01 00:00:00
FILE "05 - La Fiesta.wav" WAVE
TRACK 05 AUDIO
TITLE "La Fiesta"
PERFORMER "Will Smith"
ISRC USSM19924124
INDEX 01 00:00:00
FILE "06 - Who Am I.wav" WAVE
TRACK 06 AUDIO
TITLE "Who Am I"
PERFORMER "Will Smith"
ISRC USSM19924606
INDEX 01 00:00:00
FILE "07 - Afro Angel.wav" WAVE
TRACK 07 AUDIO
TITLE "Afro Angel"
PERFORMER "Will Smith"
ISRC USSM19924125
INDEX 01 00:00:00
FILE "08 - So Fresh.wav" WAVE
TRACK 08 AUDIO
TITLE "So Fresh"
PERFORMER "Will Smith"
ISRC USSM19922373
INDEX 01 00:00:00
FILE "09 - Pump Me Up.wav" WAVE
TRACK 09 AUDIO
TITLE "Pump Me Up"
PERFORMER "Will Smith"
ISRC USSM19924716
INDEX 01 00:00:00
FILE "10 - Can You Feel Me.wav" WAVE
TRACK 10 AUDIO
TITLE "Can You Feel Me"
PERFORMER "Will Smith"
ISRC USSM19924126
INDEX 01 00:00:00
FILE "11 - Potnas - Interlude.wav" WAVE
TRACK 11 AUDIO
TITLE "Potnas - Interlude"
PERFORMER "Will Smith"
ISRC USSM19924126
INDEX 01 00:00:00
FILE "12 - No More.wav" WAVE
TRACK 12 AUDIO
TITLE "No More"
PERFORMER "Will Smith"
ISRC USSM19924129
INDEX 01 00:00:00
FILE "13 - Uuhhh.wav" WAVE
TRACK 13 AUDIO
TITLE "Uuhhh"
PERFORMER "Will Smith"
ISRC USSM19924130
INDEX 01 00:00:00
FILE "14 - Wild Wild West.wav" WAVE
TRACK 14 AUDIO
TITLE "Wild Wild West"
PERFORMER "Will Smith"
ISRC USSM19901505
INDEX 01 00:00:00
FILE "15 - The Rain.wav" WAVE
TRACK 15 AUDIO
TITLE "The Rain"
PERFORMER "Will Smith"
ISRC USSM19924131
INDEX 01 00:00:00

Born To Reign


Country Of Manufacture: Japan
Released: 2002
Label: Sony
Catalog:: SICP 165
Audio Codec: FLAC (tracks+.cue)
Duration:: 57:30
Source: My Personal Rip / CD из Личной Коллекции


TRACKLIST

01. Born To Reign
02. Act Like You Know
03. I Can't Stop
04. Jaden's Interlude
05. 1000 Kisses (feat. Jada)
06. Willow Is A Player
07. Black Suits Comin' (Nod Ya Head)
08. How Da Beat Goes
09. Block Party
10. Give Me Tonite
11. I Gotta Go Home
12. Maybe
13. Nod Ya Head (The Remix)
14. Momma Knows
15. Nothin' On My Mind
 
Exact Audio Copy V1.1 from 23. June 2015

EAC extraction logfile from 20. February 2016, 10:11

Will Smith / Born To Reign

Used drive : TSSTcorpCDDVDW SH-224BB Adapter: 1 ID: 0

Read mode : Secure
Utilize accurate stream : Yes
Defeat audio cache : Yes
Make use of C2 pointers : No

Read offset correction : 6
Overread into Lead-In and Lead-Out : No
Fill up missing offset samples with silence : Yes
Delete leading and trailing silent blocks : No
Null samples used in CRC calculations : Yes
Used interface : Native Win32 interface for Win NT & 2000
Gap handling : Appended to previous track

Used output format : User Defined Encoder
Selected bitrate : 1024 kBit/s
Quality : High
Add ID3 tag : No
Command line compressor : C:\Program Files (x86)\Exact Audio Copy\FLAC\FLAC.EXE
Additional command line options : -8 -V -T "ARTIST=%artist%" -T "TITLE=%title%" -T "ALBUM=%albumtitle%" -T "DATE=%year%" -T "TRACKNUMBER=%tracknr%" -T "GENRE=%genre%" -T "COMMENT=%comment%" -T "BAND=%albuminterpret%" -T "ALBUMARTIST=%albuminterpret%" -T "COMPOSER=%composer%" %haslyrics%--tag-from-file=LYRICS="%lyricsfile%"%haslyrics% -T "DISCNUMBER=%cdnumber%" -T "TOTALDISCS=%totalcds%" -T "TOTALTRACKS=%numtracks%" %hascover%--picture="%coverfile%"%hascover% %source% -o %dest%

TOC of the extracted CD

Track | Start | Length | Start sector | End sector
---------------------------------------------------------
1 | 0:00.00 | 1:53.35 | 0 | 8509
2 | 1:53.35 | 4:02.00 | 8510 | 26659
3 | 5:55.35 | 4:58.00 | 26660 | 49009
4 | 10:53.35 | 0:55.62 | 49010 | 53196
5 | 11:49.22 | 4:17.45 | 53197 | 72516
6 | 16:06.67 | 3:48.58 | 72517 | 89674
7 | 19:55.50 | 4:19.47 | 89675 | 109146
8 | 24:15.22 | 4:14.50 | 109147 | 128246
9 | 28:29.72 | 4:13.60 | 128247 | 147281
10 | 32:43.57 | 3:41.63 | 147282 | 163919
11 | 36:25.45 | 4:32.60 | 163920 | 184379
12 | 40:58.30 | 4:07.55 | 184380 | 202959
13 | 45:06.10 | 3:43.65 | 202960 | 219749
14 | 48:50.00 | 3:57.50 | 219750 | 237574
15 | 52:47.50 | 4:43.05 | 237575 | 258804

Track 1

Filename D:\Will Smith - 2002 - Born To Reign (Promo) (SICP 165) (JP)\01 - Born To Reign.wav

Pre-gap length 0:00:02.00

Peak level 98.8 %
Extraction speed 3.5 X
Track quality 100.0 %
Test CRC C9953B26
Copy CRC C9953B26
Accurately ripped (confidence 1) [2028D687] (AR v1)
Copy OK

Track 2

Filename D:\Will Smith - 2002 - Born To Reign (Promo) (SICP 165) (JP)\02 - Act Like You Know.wav

Peak level 97.7 %
Extraction speed 3.6 X
Track quality 99.9 %
Test CRC 1038E28E
Copy CRC 1038E28E
Accurately ripped (confidence 1) [EF877F5B] (AR v1)
Copy OK

Track 3

Filename D:\Will Smith - 2002 - Born To Reign (Promo) (SICP 165) (JP)\03 - I Can't Stop.wav

Peak level 98.8 %
Extraction speed 5.1 X
Track quality 100.0 %
Test CRC 4884C0FE
Copy CRC 4884C0FE
Accurately ripped (confidence 1) [57BAD6B7] (AR v1)
Copy OK

Track 4

Filename D:\Will Smith - 2002 - Born To Reign (Promo) (SICP 165) (JP)\04 - Jaden's Interlude.wav

Peak level 56.3 %
Extraction speed 3.5 X
Track quality 100.0 %
Test CRC 8D9661D2
Copy CRC 8D9661D2
Accurately ripped (confidence 1) [996F553A] (AR v1)
Copy OK

Track 5

Filename D:\Will Smith - 2002 - Born To Reign (Promo) (SICP 165) (JP)\05 - 1000 Kisses (feat. Jada).wav

Peak level 97.7 %
Extraction speed 4.5 X
Track quality 99.9 %
Test CRC 5BFE383E
Copy CRC 5BFE383E
Accurately ripped (confidence 1) [3DDDEEE6] (AR v1)
Copy OK

Track 6

Filename D:\Will Smith - 2002 - Born To Reign (Promo) (SICP 165) (JP)\06 - Willow Is A Player.wav

Peak level 98.8 %
Extraction speed 5.7 X
Track quality 100.0 %
Test CRC 441AD09E
Copy CRC 441AD09E
Accurately ripped (confidence 1) [8F6716FD] (AR v1)
Copy OK

Track 7

Filename D:\Will Smith - 2002 - Born To Reign (Promo) (SICP 165) (JP)\07 - Black Suits Comin' (Nod Ya Head) (feat. Tra-Knox).wav

Peak level 98.8 %
Extraction speed 5.0 X
Track quality 99.9 %
Test CRC BFE39ED1
Copy CRC BFE39ED1
Accurately ripped (confidence 1) [4CF565DE] (AR v1)
Copy OK

Track 8

Filename D:\Will Smith - 2002 - Born To Reign (Promo) (SICP 165) (JP)\08 - How Da Beat Goes.wav

Peak level 98.8 %
Extraction speed 6.4 X
Track quality 100.0 %
Test CRC 5ED1DF67
Copy CRC 5ED1DF67
Accurately ripped (confidence 1) [EC0F1A39] (AR v1)
Copy OK

Track 9

Filename D:\Will Smith - 2002 - Born To Reign (Promo) (SICP 165) (JP)\09 - Block Party.wav

Peak level 98.8 %
Extraction speed 6.7 X
Track quality 100.0 %
Test CRC FABD2BED
Copy CRC FABD2BED
Accurately ripped (confidence 1) [3E58907F] (AR v1)
Copy OK

Track 10

Filename D:\Will Smith - 2002 - Born To Reign (Promo) (SICP 165) (JP)\10 - Give Me Tonite.wav

Peak level 98.8 %
Extraction speed 6.8 X
Track quality 100.0 %
Test CRC B28FB423
Copy CRC B28FB423
Accurately ripped (confidence 1) [C7C7D6DD] (AR v1)
Copy OK

Track 11

Filename D:\Will Smith - 2002 - Born To Reign (Promo) (SICP 165) (JP)\11 - I Gotta Go Home.wav

Peak level 98.8 %
Extraction speed 7.2 X
Track quality 100.0 %
Test CRC 788DDB08
Copy CRC 788DDB08
Accurately ripped (confidence 1) [DEC6A533] (AR v1)
Copy OK

Track 12

Filename D:\Will Smith - 2002 - Born To Reign (Promo) (SICP 165) (JP)\12 - Maybe.wav

Peak level 97.7 %
Extraction speed 7.4 X
Track quality 100.0 %
Test CRC AFF5BEC0
Copy CRC AFF5BEC0
Accurately ripped (confidence 1) [4377CAFB] (AR v1)
Copy OK

Track 13

Filename D:\Will Smith - 2002 - Born To Reign (Promo) (SICP 165) (JP)\13 - Nod Ya Head (The Remix) (feat. Christina Vidal & Tra-Knox).wav

Peak level 97.7 %
Extraction speed 7.6 X
Track quality 100.0 %
Test CRC 31780DD4
Copy CRC 31780DD4
Accurately ripped (confidence 1) [026FD790] (AR v1)
Copy OK

Track 14

Filename D:\Will Smith - 2002 - Born To Reign (Promo) (SICP 165) (JP)\14 - Momma Knows.wav

Peak level 97.7 %
Extraction speed 7.8 X
Track quality 100.0 %
Test CRC D797B2C7
Copy CRC D797B2C7
Accurately ripped (confidence 1) [F5047899] (AR v1)
Copy OK

Track 15

Filename D:\Will Smith - 2002 - Born To Reign (Promo) (SICP 165) (JP)\15 - Nothin' On My Mind (Bonus Track).wav

Peak level 98.8 %
Extraction speed 8.2 X
Track quality 100.0 %
Test CRC A0371155
Copy CRC A0371155
Accurately ripped (confidence 1) [E104FD16] (AR v1)
Copy OK

All tracks accurately ripped

No errors occurred

End of status report

---- CUETools DB Plugin V2.1.6

[CTDB TOCID: CpFblot5_LLM94FcOD91v3MMvUw-] found
Submit result: CpFblot5_LLM94FcOD91v3MMvUw- has been confirmed
Track | CTDB Status
1 | (4/4) Accurately ripped
2 | (4/4) Accurately ripped
3 | (4/4) Accurately ripped
4 | (4/4) Accurately ripped
5 | (4/4) Accurately ripped
6 | (4/4) Accurately ripped
7 | (4/4) Accurately ripped
8 | (4/4) Accurately ripped
9 | (4/4) Accurately ripped
10 | (4/4) Accurately ripped
11 | (4/4) Accurately ripped
12 | (4/4) Accurately ripped
13 | (4/4) Accurately ripped
14 | (4/4) Accurately ripped
15 | (4/4) Accurately ripped

==== Log checksum C87910655D4BF286DA2751B49F165BCADD4039354DEED63F846DE18B2A06C140 ====

 
REM GENRE Hip-Hop
REM DATE 2002
REM DISCID DC0D7A0F
REM COMMENT "ExactAudioCopy v1.1"
PERFORMER "Will Smith"
TITLE "Born To Reign"
FILE "01 - Born To Reign.wav" WAVE
TRACK 01 AUDIO
TITLE "Born To Reign"
PERFORMER "Will Smith"
ISRC USSM10208052
INDEX 01 00:00:00
FILE "02 - Act Like You Know.wav" WAVE
TRACK 02 AUDIO
TITLE "Act Like You Know"
PERFORMER "Will Smith"
ISRC USSM10208054
INDEX 01 00:00:00
FILE "03 - I Can't Stop.wav" WAVE
TRACK 03 AUDIO
TITLE "I Can't Stop"
PERFORMER "Will Smith"
ISRC USSM10208055
INDEX 01 00:00:00
FILE "04 - Jaden's Interlude.wav" WAVE
TRACK 04 AUDIO
TITLE "Jaden's Interlude"
PERFORMER "Will Smith"
ISRC USSM10208063
INDEX 01 00:00:00
FILE "05 - 1000 Kisses.wav" WAVE
TRACK 05 AUDIO
TITLE "1000 Kisses"
PERFORMER "Will Smith"
ISRC USSM10208056
INDEX 01 00:00:00
FILE "06 - Willow Is A Player.wav" WAVE
TRACK 06 AUDIO
TITLE "Willow Is A Player"
PERFORMER "Will Smith"
ISRC USSM10208057
INDEX 01 00:00:00
FILE "07 - Black Suits Comin' (Nod Ya Head).wav" WAVE
TRACK 07 AUDIO
TITLE "Black Suits Comin' (Nod Ya Head)"
PERFORMER "Will Smith"
ISRC USSM10205167
INDEX 01 00:00:00
FILE "08 - How Da Beat Goes.wav" WAVE
TRACK 08 AUDIO
TITLE "How Da Beat Goes"
PERFORMER "Will Smith"
ISRC USSM10208053
INDEX 01 00:00:00
FILE "09 - Block Party.wav" WAVE
TRACK 09 AUDIO
TITLE "Block Party"
PERFORMER "Will Smith"
ISRC USSM10208059
INDEX 01 00:00:00
FILE "10 - Give Me Tonite.wav" WAVE
TRACK 10 AUDIO
TITLE "Give Me Tonite"
PERFORMER "Will Smith"
ISRC USSM10208060
INDEX 01 00:00:00
FILE "11 - I Gotta Go Home.wav" WAVE
TRACK 11 AUDIO
TITLE "I Gotta Go Home"
PERFORMER "Will Smith"
ISRC USSM10208058
INDEX 01 00:00:00
FILE "12 - Maybe.wav" WAVE
TRACK 12 AUDIO
TITLE "Maybe"
PERFORMER "Will Smith"
ISRC USSM10208062
INDEX 01 00:00:00
FILE "13 - Nod Ya Head (The Remix).wav" WAVE
TRACK 13 AUDIO
TITLE "Nod Ya Head (The Remix)"
PERFORMER "Will Smith"
ISRC USSM10207779
INDEX 01 00:00:00
FILE "14 - Momma Knows.wav" WAVE
TRACK 14 AUDIO
TITLE "Momma Knows"
PERFORMER "Will Smith"
ISRC USSM10208064
INDEX 01 00:00:00
FILE "15 - Nothin' On My Mind.wav" WAVE
TRACK 15 AUDIO
TITLE "Nothin' On My Mind"
PERFORMER "Will Smith"
ISRC USSM10208064
INDEX 01 00:00:00

info [Профиль]  [ЛС] 

psyvamp

Пол: Пол:Муж

Стаж: 10 лет

Сообщений: 179

Россия
Рейтинг

post 08-Июн-2024 10:27 (спустя 18 часов) [-]0[+]

[Цитировать] 

В свое время фанател от него Улыбаюсь Да и сейчас есть в плейлисте)
Да и актер один из любимых Улыбаюсь
info [Профиль]  [ЛС] 
Показать сообщения:    
Ответить на тему

Текущее время: 20-Июн 10:19

Часовой пояс: GMT + 4



Вы не можете начинать темы
Вы не можете отвечать на сообщения
Вы не можете редактировать свои сообщения
Вы не можете удалять свои сообщения
Вы не можете голосовать в опросах
Вы не можете прикреплять файлы к сообщениям
Вы не можете скачивать файлы