Ошибка

(East Coast Rap, Hardcore Rap) [CD] M.O.P. - First Family 4 Life (Japan) - 1998, FLAC (tracks+.cue), lossless

Ответить на тему
 
Автор Сообщение

F.A.N.T.O.M

Пол: Пол:Муж

Стаж: 5 месяцев 28 дней

Сообщений: 425

Россия
Рейтинг

post 07-Июн-2024 16:17 1[+]

[Цитировать] 

M.O.P. - First Family 4 Life


Genre: East Coast Rap, Hardcore Rap
Носитель: CD
Страна-производитель диска: Japan
Год издания: 1998
Издатель (лейбл): Sony
Номер по каталогу: SRCS 8647
Страна: USA
Аудиокодек: FLAC (*.flac)
Тип рипа: tracks+.cue
Битрейт аудио: lossless
Продолжительность: 01:13:36
Источник (релизер): My Personal Rip / CD из Личной Коллекции
Наличие сканов в содержимом раздачи: Да


TRACKLIST

01. Billy Skit
02. Breakin' The Rules
03. Alarm Blaze
04. Blood Sweat And Tears
05. Down 4 Whateva
06. Facing Off
07. My Kinda Nigga Part II
08. I Luv
09. Salute Part II
10. Ride With Us
11. Handle Ur Bizness (DJ Premier Remix)
12. Fly Nigga Hill Figga
13. What The Future Holds
14. Downtown Swinga '98
15. Fame Skit
16. Brooklyn-Jersey Get Wild
17. New York Salute
18. Way Of The World
19. Move Something
 
Exact Audio Copy V1.1 from 23. June 2015

EAC extraction logfile from 6. October 2015, 18:12

M.O.P. / First Family 4 Life

Used drive : TSSTcorpCDDVDW SH-224BB Adapter: 1 ID: 0

Read mode : Secure
Utilize accurate stream : Yes
Defeat audio cache : Yes
Make use of C2 pointers : No

Read offset correction : 6
Overread into Lead-In and Lead-Out : No
Fill up missing offset samples with silence : Yes
Delete leading and trailing silent blocks : No
Null samples used in CRC calculations : Yes
Used interface : Native Win32 interface for Win NT & 2000
Gap handling : Appended to previous track

Used output format : User Defined Encoder
Selected bitrate : 1024 kBit/s
Quality : High
Add ID3 tag : No
Command line compressor : C:\Program Files (x86)\Exact Audio Copy\FLAC\FLAC.EXE
Additional command line options : -8 -V -T "ARTIST=%artist%" -T "TITLE=%title%" -T "ALBUM=%albumtitle%" -T "DATE=%year%" -T "TRACKNUMBER=%tracknr%" -T "GENRE=%genre%" -T "COMMENT=%comment%" -T "BAND=%albuminterpret%" -T "ALBUMARTIST=%albuminterpret%" -T "COMPOSER=%composer%" %haslyrics%--tag-from-file=LYRICS="%lyricsfile%"%haslyrics% -T "DISCNUMBER=%cdnumber%" -T "TOTALDISCS=%totalcds%" -T "TOTALTRACKS=%numtracks%" %hascover%--picture="%coverfile%"%hascover% %source% -o %dest%

TOC of the extracted CD

Track | Start | Length | Start sector | End sector
---------------------------------------------------------
1 | 0:00.00 | 0:58.12 | 0 | 4361
2 | 0:58.12 | 4:12.25 | 4362 | 23286
3 | 5:10.37 | 4:29.03 | 23287 | 43464
4 | 9:39.40 | 4:43.02 | 43465 | 64691
5 | 14:22.42 | 3:33.20 | 64692 | 80686
6 | 17:55.62 | 3:38.18 | 80687 | 97054
7 | 21:34.05 | 4:07.02 | 97055 | 115581
8 | 25:41.07 | 4:50.08 | 115582 | 137339
9 | 30:31.15 | 4:17.00 | 137340 | 156614
10 | 34:48.15 | 4:43.15 | 156615 | 177854
11 | 39:31.30 | 4:15.07 | 177855 | 196986
12 | 43:46.37 | 4:07.65 | 196987 | 215576
13 | 47:54.27 | 3:57.40 | 215577 | 233391
14 | 51:51.67 | 4:13.30 | 233392 | 252396
15 | 56:05.22 | 1:52.53 | 252397 | 260849
16 | 57:58.00 | 4:08.15 | 260850 | 279464
17 | 62:06.15 | 2:57.02 | 279465 | 292741
18 | 65:03.17 | 4:05.35 | 292742 | 311151
19 | 69:08.52 | 4:27.25 | 311152 | 331201

Track 1

Filename F:\M.O.P. - 1998 - First Family 4 Life (Promo) (SRCS 8647) (JP)\01 - Billy Skit.wav

Pre-gap length 0:00:02.00

Peak level 95.9 %
Extraction speed 3.2 X
Track quality 100.0 %
Test CRC 36CA6DA7
Copy CRC 36CA6DA7
Track not present in AccurateRip database
Copy OK

Track 2

Filename F:\M.O.P. - 1998 - First Family 4 Life (Promo) (SRCS 8647) (JP)\02 - Breakin' The Rules.wav

Peak level 95.9 %
Extraction speed 4.1 X
Track quality 99.9 %
Test CRC 9A4266DA
Copy CRC 9A4266DA
Track not present in AccurateRip database
Copy OK

Track 3

Filename F:\M.O.P. - 1998 - First Family 4 Life (Promo) (SRCS 8647) (JP)\03 - Alarm Blaze (feat. Teflon & Jay-Z).wav

Peak level 95.9 %
Extraction speed 5.5 X
Track quality 100.0 %
Test CRC 75862E7E
Copy CRC 75862E7E
Track not present in AccurateRip database
Copy OK

Track 4

Filename F:\M.O.P. - 1998 - First Family 4 Life (Promo) (SRCS 8647) (JP)\04 - Blood Sweat And Tears.wav

Peak level 95.9 %
Extraction speed 6.0 X
Track quality 100.0 %
Test CRC 47E9F0C5
Copy CRC 47E9F0C5
Track not present in AccurateRip database
Copy OK

Track 5

Filename F:\M.O.P. - 1998 - First Family 4 Life (Promo) (SRCS 8647) (JP)\05 - Down 4 Whateva (feat. O.C.).wav

Peak level 95.9 %
Extraction speed 6.1 X
Track quality 100.0 %
Test CRC BA1CB859
Copy CRC BA1CB859
Track not present in AccurateRip database
Copy OK

Track 6

Filename F:\M.O.P. - 1998 - First Family 4 Life (Promo) (SRCS 8647) (JP)\06 - Facing Off.wav

Peak level 95.9 %
Extraction speed 6.4 X
Track quality 100.0 %
Test CRC 92B6B38C
Copy CRC 92B6B38C
Track not present in AccurateRip database
Copy OK

Track 7

Filename F:\M.O.P. - 1998 - First Family 4 Life (Promo) (SRCS 8647) (JP)\07 - My Kinda Nigga Part II (feat. Heather B).wav

Peak level 95.9 %
Extraction speed 6.7 X
Track quality 100.0 %
Test CRC 81EF229F
Copy CRC 81EF229F
Track not present in AccurateRip database
Copy OK

Track 8

Filename F:\M.O.P. - 1998 - First Family 4 Life (Promo) (SRCS 8647) (JP)\08 - I Luv (feat. Freddie Foxxx).wav

Peak level 95.9 %
Extraction speed 7.3 X
Track quality 100.0 %
Test CRC BFC9997F
Copy CRC BFC9997F
Track not present in AccurateRip database
Copy OK

Track 9

Filename F:\M.O.P. - 1998 - First Family 4 Life (Promo) (SRCS 8647) (JP)\09 - Salute Part II (feat. Gang Starr).wav

Peak level 95.9 %
Extraction speed 7.5 X
Track quality 100.0 %
Test CRC D80F02EB
Copy CRC D80F02EB
Track not present in AccurateRip database
Copy OK

Track 10

Filename F:\M.O.P. - 1998 - First Family 4 Life (Promo) (SRCS 8647) (JP)\10 - Ride With Us.wav

Peak level 95.9 %
Extraction speed 6.5 X
Track quality 99.9 %
Test CRC F9B2D3AF
Copy CRC F9B2D3AF
Track not present in AccurateRip database
Copy OK

Track 11

Filename F:\M.O.P. - 1998 - First Family 4 Life (Promo) (SRCS 8647) (JP)\11 - Handle Ur Bizness (DJ Premier Remix).wav

Peak level 95.9 %
Extraction speed 8.0 X
Track quality 100.0 %
Test CRC 9AA3FD6C
Copy CRC 9AA3FD6C
Track not present in AccurateRip database
Copy OK

Track 12

Filename F:\M.O.P. - 1998 - First Family 4 Life (Promo) (SRCS 8647) (JP)\12 - Fly Nigga Hill Figga.wav

Peak level 95.9 %
Extraction speed 8.2 X
Track quality 100.0 %
Test CRC 2995DD28
Copy CRC 2995DD28
Track not present in AccurateRip database
Copy OK

Track 13

Filename F:\M.O.P. - 1998 - First Family 4 Life (Promo) (SRCS 8647) (JP)\13 - What The Future Holds.wav

Peak level 95.9 %
Extraction speed 8.4 X
Track quality 100.0 %
Test CRC ECD6E2D1
Copy CRC ECD6E2D1
Track not present in AccurateRip database
Copy OK

Track 14

Filename F:\M.O.P. - 1998 - First Family 4 Life (Promo) (SRCS 8647) (JP)\14 - Downtown Swinga '98.wav

Peak level 95.9 %
Extraction speed 8.6 X
Track quality 100.0 %
Test CRC 0414C786
Copy CRC 0414C786
Track not present in AccurateRip database
Copy OK

Track 15

Filename F:\M.O.P. - 1998 - First Family 4 Life (Promo) (SRCS 8647) (JP)\15 - Fame Skit.wav

Peak level 95.9 %
Extraction speed 7.7 X
Track quality 100.0 %
Test CRC 13A46285
Copy CRC 13A46285
Track not present in AccurateRip database
Copy OK

Track 16

Filename F:\M.O.P. - 1998 - First Family 4 Life (Promo) (SRCS 8647) (JP)\16 - Brooklyn-Jersey Get Wild (feat. Treach).wav

Peak level 95.9 %
Extraction speed 9.0 X
Track quality 100.0 %
Test CRC 4831C6DE
Copy CRC 4831C6DE
Track not present in AccurateRip database
Copy OK

Track 17

Filename F:\M.O.P. - 1998 - First Family 4 Life (Promo) (SRCS 8647) (JP)\17 - New York Salute.wav

Peak level 95.9 %
Extraction speed 8.8 X
Track quality 100.0 %
Test CRC 90C18C88
Copy CRC 90C18C88
Track not present in AccurateRip database
Copy OK

Track 18

Filename F:\M.O.P. - 1998 - First Family 4 Life (Promo) (SRCS 8647) (JP)\18 - Way Of The World (Bonus Track).wav

Peak level 95.9 %
Extraction speed 9.4 X
Track quality 100.0 %
Test CRC 84A7CD81
Copy CRC 84A7CD81
Track not present in AccurateRip database
Copy OK

Track 19

Filename F:\M.O.P. - 1998 - First Family 4 Life (Promo) (SRCS 8647) (JP)\19 - Move Something (Bonus Track).wav

Peak level 85.4 %
Extraction speed 9.6 X
Track quality 100.0 %
Test CRC A4BF7A83
Copy CRC A4BF7A83
Track not present in AccurateRip database
Copy OK

None of the tracks are present in the AccurateRip database

No errors occurred

End of status report

---- CUETools DB Plugin V2.1.6

[CTDB TOCID: 3_2tDsYBzx7l6PdHScywLwccM.E-] disk not present in database
Submit result: 3_2tDsYBzx7l6PdHScywLwccM.E- has been uploaded

==== Log checksum B76DA2B22E3611A9862EEC5385F7524EF6E40EDBA1DC692833CFA6BE395E4D8F ====

 
REM GENRE Hip-Hop
REM DATE 1998
REM DISCID 08114013
REM COMMENT "ExactAudioCopy v1.1"
PERFORMER "M.O.P."
TITLE "First Family 4 Life"
FILE "01 - Billy Skit.wav" WAVE
TRACK 01 AUDIO
TITLE "Billy Skit"
PERFORMER "M.O.P."
INDEX 01 00:00:00
FILE "02 - Breakin' The Rules.wav" WAVE
TRACK 02 AUDIO
TITLE "Breakin' The Rules"
PERFORMER "M.O.P."
INDEX 01 00:00:00
FILE "03 - Alarm Blaze.wav" WAVE
TRACK 03 AUDIO
TITLE "Alarm Blaze"
PERFORMER "M.O.P."
INDEX 01 00:00:00
FILE "04 - Blood Sweat And Tears.wav" WAVE
TRACK 04 AUDIO
TITLE "Blood Sweat And Tears"
PERFORMER "M.O.P."
INDEX 01 00:00:00
FILE "05 - Down 4 Whateva.wav" WAVE
TRACK 05 AUDIO
TITLE "Down 4 Whateva"
PERFORMER "M.O.P."
INDEX 01 00:00:00
FILE "06 - Facing Off.wav" WAVE
TRACK 06 AUDIO
TITLE "Facing Off"
PERFORMER "M.O.P."
INDEX 01 00:00:00
FILE "07 - My Kinda Nigga Part II.wav" WAVE
TRACK 07 AUDIO
TITLE "My Kinda Nigga Part II"
PERFORMER "M.O.P."
INDEX 01 00:00:00
FILE "08 - I Luv.wav" WAVE
TRACK 08 AUDIO
TITLE "I Luv"
PERFORMER "M.O.P."
INDEX 01 00:00:00
FILE "09 - Salute Part II.wav" WAVE
TRACK 09 AUDIO
TITLE "Salute Part II"
PERFORMER "M.O.P."
INDEX 01 00:00:00
FILE "10 - Ride With Us.wav" WAVE
TRACK 10 AUDIO
TITLE "Ride With Us"
PERFORMER "M.O.P."
INDEX 01 00:00:00
FILE "11 - Handle Ur Bizness (DJ Premier Remix).wav" WAVE
TRACK 11 AUDIO
TITLE "Handle Ur Bizness (DJ Premier Remix)"
PERFORMER "M.O.P."
INDEX 01 00:00:00
FILE "12 - Fly Nigga Hill Figga.wav" WAVE
TRACK 12 AUDIO
TITLE "Fly Nigga Hill Figga"
PERFORMER "M.O.P."
INDEX 01 00:00:00
FILE "13 - What The Future Holds.wav" WAVE
TRACK 13 AUDIO
TITLE "What The Future Holds"
PERFORMER "M.O.P."
INDEX 01 00:00:00
FILE "14 - Downtown Swinga '98.wav" WAVE
TRACK 14 AUDIO
TITLE "Downtown Swinga '98"
PERFORMER "M.O.P."
INDEX 01 00:00:00
FILE "15 - Fame Skit.wav" WAVE
TRACK 15 AUDIO
TITLE "Fame Skit"
PERFORMER "M.O.P."
INDEX 01 00:00:00
FILE "16 - Brooklyn-Jersey Get Wild.wav" WAVE
TRACK 16 AUDIO
TITLE "Brooklyn-Jersey Get Wild"
PERFORMER "M.O.P."
INDEX 01 00:00:00
FILE "17 - New York Salute.wav" WAVE
TRACK 17 AUDIO
TITLE "New York Salute"
PERFORMER "M.O.P."
INDEX 01 00:00:00
FILE "18 - Way Of The World.wav" WAVE
TRACK 18 AUDIO
TITLE "Way Of The World"
PERFORMER "M.O.P."
INDEX 01 00:00:00
FILE "19 - Move Something.wav" WAVE
TRACK 19 AUDIO
TITLE "Move Something"
PERFORMER "M.O.P."
INDEX 01 00:00:00

info [Профиль]  [ЛС] 
Показать сообщения:    
Ответить на тему

Текущее время: 19-Июн 18:05

Часовой пояс: GMT + 4



Вы не можете начинать темы
Вы не можете отвечать на сообщения
Вы не можете редактировать свои сообщения
Вы не можете удалять свои сообщения
Вы не можете голосовать в опросах
Вы не можете прикреплять файлы к сообщениям
Вы не можете скачивать файлы