Ошибка

(Hip-Hop) [CD] Muggs - Soul Assassins II (2000), FLAC (image+.cue), lossless

Ответить на тему
 
Автор Сообщение

F.A.N.T.O.M

Пол: Пол:Муж

Стаж: 5 месяцев 29 дней

Сообщений: 432

Россия
Рейтинг

post 31-Май-2024 20:58 0[+]

[Цитировать] 



(Hip-Hop) [CD]Muggs - Soul Assassins II




Жанр: Hip-Hop
Носитель: CD
Страна-производитель диска (релиза): US
Год издания: 2000
Издатель (лейбл): RuffLife Records
Номер по каталогу: 60002
Аудиокодек: FLAC (*.flac)
Тип рипа: image+.cue
Продолжительность: 00:48:11
Источник: собственный рип
Наличие сканов: нет

[i]01. Kool G. Rap - Real Life (4:04)
02. G.O.D. Pt. III - We Will Survive (4:19)
03. X'zibit & King Tee - You Better Believe It (4:04)
04. GZA - When The Fat Lady Sings (3:16)
05. Goodie Mob - This Some'n To (3:25)
06. Kurupt - Armageddon (Interlude) (2:15)
07. Hostyle - Victory Or Defeat (4:01)
08. Chace Infinite, Krondon, Phenam, Ras Kass - Heart Of The Assassin (2:26)
09. Dilated Peoples - Suckers Are Hidin (3:03)
10. Kurupt & Roscoe - When The Pain Inflict (3:30)
11. Cypress Hill - Don't Trip (2:55)
12. Everlast - Razor To Your Throat (2:38)
13. Self-Scientific - Millennium Thrust (8:17)[i]
 
Exact Audio Copy V1.3 from 2. September 2016

Отчёт EAC об извлечении, выполненном 25. июля 2019, 14:46

Muggs / Soul Assassins II

Дисковод: hp DVD A DS8A5LH Adapter: 1 ID: 0

Режим чтения : Достоверность
Использование точного потока : Да
Отключение кэша аудио : Да
Использование указателей C2 : Нет

Коррекция смещения при чтении : 6
Способность читать области Lead-in и Lead-out : Нет
Заполнение пропущенных сэмплов тишиной : Да
Удаление блоков с тишиной в начале и конце : Нет
При вычислениях CRC использовались нулевые сэмплы : Да
Интерфейс : Встроенный Win32-интерфейс для Win NT/2000

Выходной формат : Внутренние WAV-операции
Формат сэмплов : 44.100 Гц; 16 бит; стерео

TOC извлечённого CD

Трек | Старт | Длительность | Начальный сектор | Конечный сектор
---------------------------------------------------------------------
1 | 0:00.00 | 4:03.51 | 0 | 18275
2 | 4:03.51 | 4:19.05 | 18276 | 37705
3 | 8:22.56 | 4:03.50 | 37706 | 55980
4 | 12:26.31 | 3:15.47 | 55981 | 70652
5 | 15:42.03 | 3:24.43 | 70653 | 85995
6 | 19:06.46 | 2:15.09 | 85996 | 96129
7 | 21:21.55 | 4:01.24 | 96130 | 114228
8 | 25:23.04 | 2:26.09 | 114229 | 125187
9 | 27:49.13 | 3:03.04 | 125188 | 138916
10 | 30:52.17 | 3:29.53 | 138917 | 154644
11 | 34:21.70 | 2:54.38 | 154645 | 167732
12 | 37:16.33 | 2:38.16 | 167733 | 179598
13 | 39:54.49 | 8:16.71 | 179599 | 216869

Характеристики диапазона извлечения и сообщения об ошибках

Выбранный диапазон

Имя файла C:\EAC\ru_tracker\Muggs - Soul Assassins II.wav

Пиковый уровень 100.0 %
Скорость извлечения 1.8 X
Качество диапазона 100.0 %
CRC теста 1AA40998
CRC копии 1AA40998
Копирование... OK

Ошибок не произошло

AccurateRip: сводка

Трек 1 : извлечено точно (доверие 2) [01F4EDD1] (AR v1)
Трек 2 : извлечено точно (доверие 2) [772FCD9E] (AR v1)
Трек 3 точность не определена (достоверность 3) [63ECBB73], AccurateRip вернул [E878DEE0] (AR v2)
Трек 4 точность не определена (достоверность 4) [8FA1EEB6], AccurateRip вернул [D2147F49] (AR v2)
Трек 5 точность не определена (достоверность 3) [649692A0], AccurateRip вернул [47590D64] (AR v2)
Трек 6 точность не определена (достоверность 4) [19418C20], AccurateRip вернул [14FD9EA9] (AR v2)
Трек 7 точность не определена (достоверность 3) [5E936587], AccurateRip вернул [87095613] (AR v2)
Трек 8 точность не определена (достоверность 2) [41C2EF3D], AccurateRip вернул [CF56D758] (AR v2)
Трек 9 точность не определена (достоверность 3) [B6F595A5], AccurateRip вернул [5097C559] (AR v2)
Трек 10 точность не определена (достоверность 3) [FCDD52A0], AccurateRip вернул [42D02073] (AR v2)
Трек 11 точность не определена (достоверность 3) [275B2931], AccurateRip вернул [796A8A27] (AR v2)
Трек 12 : извлечено точно (доверие 2) [D1EDC093] (AR v1)
Трек 13 точность не определена (достоверность 3) [FA7C547B], AccurateRip вернул [6C0B50D2] (AR v2)

3 трек(и) скопированы точно
10 трек(и) не удалось проверить на точность

Некоторые треки не прошли проверку на точность

Конец отчёта

---- CUETools DB Plugin V2.1.6

[CTDB TOCID: RaPf6iehthQpo6B_OlbmS9Jnsuc-] found
Submit result: RaPf6iehthQpo6B_OlbmS9Jnsuc- has been confirmed
Track | CTDB Status
1 | (12/12) Accurately ripped
2 | (12/12) Accurately ripped
3 | (12/12) Accurately ripped
4 | (12/12) Accurately ripped
5 | (12/12) Accurately ripped
6 | (12/12) Accurately ripped
7 | (12/12) Accurately ripped
8 | (12/12) Accurately ripped
9 | (12/12) Accurately ripped
10 | (12/12) Accurately ripped
11 | (12/12) Accurately ripped
12 | (12/12) Accurately ripped
13 | (12/12) Accurately ripped

==== Контрольная сумма отчёта 355A93B1F45992892E896611AB08BD8108176E29432B5071E4FB9457125C9EBF ====

info [Профиль]  [ЛС] 
Показать сообщения:    
Ответить на тему

Текущее время: 20-Июн 10:16

Часовой пояс: GMT + 4



Вы не можете начинать темы
Вы не можете отвечать на сообщения
Вы не можете редактировать свои сообщения
Вы не можете удалять свои сообщения
Вы не можете голосовать в опросах
Вы не можете прикреплять файлы к сообщениям
Вы не можете скачивать файлы