Ошибка

(Hip Hop) DJ Krush - Only The Strong Survive - 1996, FLAC (tracks+.cue), lossless

Ответить на тему
 
Автор Сообщение

F.A.N.T.O.M

Пол: Пол:Муж

Стаж: 5 месяцев 29 дней

Сообщений: 432

Россия
Рейтинг

post 31-Май-2024 20:55 0[+]

[Цитировать] 



DJ Krush - Only The Strong Survive




Жанр: Hip Hop
Страна-производитель диска (релиза): US
Год издания: 1996
Страна исполнителя (группы): UK

Аудиокодек: FLAC (*.flac)
Тип рипа: tracks+.cue
Продолжительность: 38m
Источник: собственный рип
Наличие сканов в содержимом раздачи: нет

[i]01. Funky fresh (feat.Ursula Rucker)
02. Skipping stones (feat. Alison Moyet)
03. Romeos fate (feat. Mark Bell)
04. One and only (feat. Martin Fry (ABC))
05. Rinsing (feat. Kathy Sledge)
06. Happiness (feat. Alma Horton)
07. I can't wait (feat. Twyla)
08. I'll do it for you (feat. Vikter Duplaix)
09. For love (feat. Grover Washington jr.)
10. Incident on a couch, pt. 2 (feat. James Poyser)
11. All the way live (feat. Capitol A)
12. Cobbs Creek (feat Pos and Trugoy of De La Soul)
13. '84 Fantastik (feat. Cee Knowledge and The Cosmic Funk Orchestra)
14. Beauty of machines
15. Next[i]
 

Exact Audio Copy V0.99 prebeta 3 from 28. July 2007

EAC extraction logfile from 26. December 2008, 15:07

DJ Krush / Only The Strong Survive

Used drive : DVD-16X DVD-ROM BDV316C Adapter: 1 ID: 0

Read mode : Secure
Utilize accurate stream : Yes
Defeat audio cache : No
Make use of C2 pointers : Yes

Read offset correction : 0
Overread into Lead-In and Lead-Out : No
Fill up missing offset samples with silence : Yes
Delete leading and trailing silent blocks : No
Null samples used in CRC calculations : Yes
Used interface : Native Win32 interface for Win NT & 2000
Gap handling : Not detected, thus appended to previous track

Used output format : User Defined Encoder
Selected bitrate : 768 kBit/s
Quality : High
Add ID3 tag : No
Command line compressor : C:\Program Files\Exact Audio Copy\FLAC\FLAC.EXE
Additional command line options : -6 -V -T "ARTIST=%a" -T "TITLE=%t" -T "ALBUM=%g" -T "DATE=%y" -T "TRACKNUMBER=%n" -T "GENRE=%m" -T "COMMENT=%e" %s -o %d

TOC of the extracted CD

Track | Start | Length | Start sector | End sector
---------------------------------------------------------
1 | 0:00.00 | 4:17.37 | 0 | 19311
2 | 4:17.37 | 4:32.23 | 19312 | 39734
3 | 8:49.60 | 5:08.05 | 39735 | 62839
4 | 13:57.65 | 4:41.37 | 62840 | 83951
5 | 18:39.27 | 5:11.25 | 83952 | 107301
6 | 23:50.52 | 4:22.68 | 107302 | 127019
7 | 28:13.45 | 7:01.10 | 127020 | 158604

Track 1

Filename F:\soul\- Azureus\MW060CD - DJ Krush - Only The Strong Survive - 1996\01 - DJ Krush - Only The Strong Survive (DJ Krush Album Version).wav

Peak level 98.8 %
Track quality 100.0 %
Test CRC 2F2A761A
Copy CRC 2F2A761A
Copy OK

Track 2

Filename F:\soul\- Azureus\MW060CD - DJ Krush - Only The Strong Survive - 1996\02 - DJ Krush - Only The Strong Survive (DJ Krush Remix).wav

Peak level 98.8 %
Track quality 100.0 %
Test CRC 69396500
Copy CRC 69396500
Copy OK

Track 3

Filename F:\soul\- Azureus\MW060CD - DJ Krush - Only The Strong Survive - 1996\03 - DJ Krush - Only The Strong Survive (The 7th Samurai Mix, by Attica Blues).wav

Peak level 98.8 %
Track quality 100.0 %
Test CRC B7554251
Copy CRC B7554251
Copy OK

Track 4

Filename F:\soul\- Azureus\MW060CD - DJ Krush - Only The Strong Survive - 1996\04 - DJ Krush - Only The Strong Survive (Underdog Remix No.1).wav

Peak level 98.8 %
Track quality 100.0 %
Test CRC C164AF76
Copy CRC C164AF76
Copy OK

Track 5

Filename F:\soul\- Azureus\MW060CD - DJ Krush - Only The Strong Survive - 1996\05 - DJ Krush - Only The Strong Survive (Automator Remix).wav

Peak level 98.8 %
Track quality 100.0 %
Test CRC 8006CEC5
Copy CRC 8006CEC5
Copy OK

Track 6

Filename F:\soul\- Azureus\MW060CD - DJ Krush - Only The Strong Survive - 1996\06 - DJ Krush - Only The Strong Survive (Dillinja Remix).wav

Peak level 82.6 %
Track quality 100.0 %
Test CRC FA9B0A14
Copy CRC FA9B0A14
Copy OK

Track 7

Filename F:\soul\- Azureus\MW060CD - DJ Krush - Only The Strong Survive - 1996\07 - DJ Krush - Only The Strong Survive (Two Parts Mix, by Forme).wav

Peak level 98.8 %
Track quality 100.0 %
Test CRC 66B0A645
Copy CRC 66B0A645
Copy OK

No errors occurred

End of status report

info [Профиль]  [ЛС] 
Показать сообщения:    
Ответить на тему

Текущее время: 20-Июн 10:08

Часовой пояс: GMT + 4



Вы не можете начинать темы
Вы не можете отвечать на сообщения
Вы не можете редактировать свои сообщения
Вы не можете удалять свои сообщения
Вы не можете голосовать в опросах
Вы не можете прикреплять файлы к сообщениям
Вы не можете скачивать файлы