Ошибка

(Hip Hop,R&B,Electro Soul,Funk) [CD] King Britt Presents Sylk 130 - Re-Members Only - 2001, FLAC (image+.cue), lossless

Ответить на тему
 
Автор Сообщение

F.A.N.T.O.M

Пол: Пол:Муж

Стаж: 6 месяцев 24 дня

Сообщений: 476

Россия
Рейтинг

post 31-Май-2024 20:51 0[+]

[Цитировать] 



King Britt Presents Sylk 130 / Re-Members Only




Жанр: Hip Hop,R&B,Electro Soul,Funk
Носитель: CD
Страна-производитель диска: US
Год издания: 2001
Издатель (лейбл): Ovum/Six Degrees
Номер по каталогу: 657036 1040-2
Страна исполнителя (группы): US
Аудиокодек: FLAC (*.flac)
Тип рипа: image+.cue
Битрейт аудио: lossless
Продолжительность: 01:06:07
Источник (релизер): собственный рип
Наличие сканов в содержимом раздачи: [/b]: нет

[i]01. Funky fresh (feat.Ursula Rucker)
02. Skipping stones (feat. Alison Moyet)
03. Romeos fate (feat. Mark Bell)
04. One and only (feat. Martin Fry (ABC))
05. Rinsing (feat. Kathy Sledge)
06. Happiness (feat. Alma Horton)
07. I can't wait (feat. Twyla)
08. I'll do it for you (feat. Vikter Duplaix)
09. For love (feat. Grover Washington jr.)
10. Incident on a couch, pt. 2 (feat. James Poyser)
11. All the way live (feat. Capitol A)
12. Cobbs Creek (feat Pos and Trugoy of De La Soul)
13. '84 Fantastik (feat. Cee Knowledge and The Cosmic Funk Orchestra)
14. Beauty of machines
15. Next[i]
 

Exact Audio Copy V1.0 beta 3 from 29. August 2011

EAC extraction logfile from 21. November 2014, 22:29

King Britt Sylk 130 / Re-Members only

Used drive : hp DVD RW AD-7586H Adapter: 0 ID: 1

Read mode : Secure
Utilize accurate stream : Yes
Defeat audio cache : Yes
Make use of C2 pointers : No

Read offset correction : 6
Overread into Lead-In and Lead-Out : No
Fill up missing offset samples with silence : Yes
Delete leading and trailing silent blocks : No
Null samples used in CRC calculations : Yes
Used interface : Installed external ASPI interface

Used output format : User Defined Encoder
Selected bitrate : 768 kBit/s
Quality : High
Add ID3 tag : No
Command line compressor : C:\Program Files (x86)\Exact Audio Copy\FLAC\FLAC.EXE
Additional command line options : -6 -V -T "ARTIST=%artist%" -T "TITLE=%title%" -T "ALBUM=%albumtitle%" -T "DATE=%year%" -T "TRACKNUMBER=%tracknr%" -T "GENRE=%genre%" -T "COMMENT=%comment%" -T "BAND=%albuminterpret%" -T "ALBUMARTIST=%albuminterpret%" -T "COMPOSER=%composer%" %haslyrics%--tag-from-file=LYRICS="%lyricsfile%"%haslyrics% -T "DISCNUMBER=%cdnumber%" -T "TOTALDISCS=%totalcds%" -T "TOTALTRACKS=%numtracks%" %hascover%--picture="%coverfile%"%hascover% %source% -o %dest%

TOC of the extracted CD

Track | Start | Length | Start sector | End sector
---------------------------------------------------------
1 | 0:00.00 | 0:59.07 | 0 | 4431
2 | 0:59.07 | 5:27.10 | 4432 | 28966
3 | 6:26.17 | 4:21.58 | 28967 | 48599
4 | 10:48.00 | 3:39.37 | 48600 | 65061
5 | 14:27.37 | 4:21.23 | 65062 | 84659
6 | 18:48.60 | 5:09.05 | 84660 | 107839
7 | 23:57.65 | 3:33.00 | 107840 | 123814
8 | 27:30.65 | 5:08.47 | 123815 | 146961
9 | 32:39.37 | 5:41.20 | 146962 | 172556
10 | 38:20.57 | 8:08.28 | 172557 | 209184
11 | 46:29.10 | 4:16.15 | 209185 | 228399
12 | 50:45.25 | 5:33.05 | 228400 | 253379
13 | 56:18.30 | 5:00.17 | 253380 | 275896
14 | 61:18.47 | 4:39.18 | 275897 | 296839
15 | 65:57.65 | 0:09.17 | 296840 | 297531

Range status and errors

Selected range

Filename C:\Users\HP\Music\5.UKRAINIAN MUSIC\King Britt Sylk 130 - Re-Members only.wav

Peak level 99.8 %
Extraction speed 2.1 X
Range quality 99.9 %
Test CRC CE6DD954
Copy CRC CE6DD954
Copy OK

No errors occurred

AccurateRip summary

Track 1 accurately ripped (confidence 8) [C396C281] (AR v2)
Track 2 accurately ripped (confidence 9) [8B2C7632] (AR v2)
Track 3 accurately ripped (confidence 9) [F3696CEF] (AR v2)
Track 4 accurately ripped (confidence 9) [A0A303E0] (AR v2)
Track 5 accurately ripped (confidence 9) [36F502D1] (AR v2)
Track 6 accurately ripped (confidence 9) [65ACAC6D] (AR v2)
Track 7 accurately ripped (confidence 9) [177A38A3] (AR v2)
Track 8 accurately ripped (confidence 9) [CFC535A9] (AR v2)
Track 9 accurately ripped (confidence 9) [B458E345] (AR v2)
Track 10 accurately ripped (confidence 9) [70803043] (AR v2)
Track 11 accurately ripped (confidence 9) [2C645454] (AR v2)
Track 12 accurately ripped (confidence 9) [2206CCB0] (AR v2)
Track 13 accurately ripped (confidence 8) [6B8929E4] (AR v2)
Track 14 accurately ripped (confidence 9) [2D6A3A53] (AR v2)
Track 15 accurately ripped (confidence 9) [BC112B8B] (AR v2)

All tracks accurately ripped

End of status report

==== Log checksum 80C27BEAED077C686D5BD971E49819FBB74C81780064AC4DEDE9E6B6467032D7 ====

info [Профиль]  [ЛС] 
Показать сообщения:    
Ответить на тему

Текущее время: 15-Июл 02:42

Часовой пояс: GMT + 4



Вы не можете начинать темы
Вы не можете отвечать на сообщения
Вы не можете редактировать свои сообщения
Вы не можете удалять свои сообщения
Вы не можете голосовать в опросах
Вы не можете прикреплять файлы к сообщениям
Вы не можете скачивать файлы