Ошибка

(Hip Hop, Acid Jazz, Future Jazz, Conscious) [CD] King Britt Presents Sylk 130 - When The Funk Hits The Fan - 1997, FLAC (image+.cue), lossless

Ответить на тему
 
Автор Сообщение

F.A.N.T.O.M

Пол: Пол:Муж

Стаж: 5 месяцев 29 дней

Сообщений: 432

Россия
Рейтинг

post 31-Май-2024 20:47 0[+]

[Цитировать] 



King Britt Presents Sylk 130 / When The Funk Hits The Fan




Жанр: Hip Hop, Acid Jazz, Future Jazz, Conscious
Носитель: CD
Страна-производитель диска: Austria
Год издания: 1997
Издатель (лейбл): Ovum/Ruff House/Columbia/Sony
Номер по каталогу: 487523 2
Страна исполнителя (группы): US
Аудиокодек: FLAC (*.flac)
Тип рипа: image+.cue
Битрейт аудио: lossless
Продолжительность: 01:13:56
Источник (релизер): собственный рип
Наличие сканов в содержимом раздачи: нет

[i]01. Narration
02. Jimmy Leans Back
03. City (5-6 Theme)
04. The Reason
05. E.R.A.
06. Gettin' Into It
07. When The Funk Swings
08. Season's Change
09. "13"
10. Red Handed
11. Taggin' & Braggin'
12. Incident On The Couch
13. Gorgeous
14. A Day In The Life
15. New Love
16. Uptown
17. Last Night A Dj Saved My Life
18. When The Funk Hits The Fan
19. Next[i]
 

Exact Audio Copy V1.0 beta 3 from 29. August 2011

EAC extraction logfile from 21. November 2014, 21:22

Sylk 130 / When The Funk Hits The Fan

Used drive : hp DVD RW AD-7586H Adapter: 0 ID: 1

Read mode : Secure
Utilize accurate stream : Yes
Defeat audio cache : Yes
Make use of C2 pointers : No

Read offset correction : 6
Overread into Lead-In and Lead-Out : No
Fill up missing offset samples with silence : Yes
Delete leading and trailing silent blocks : No
Null samples used in CRC calculations : Yes
Used interface : Installed external ASPI interface

Used output format : User Defined Encoder
Selected bitrate : 768 kBit/s
Quality : High
Add ID3 tag : No
Command line compressor : C:\Program Files (x86)\Exact Audio Copy\FLAC\FLAC.EXE
Additional command line options : -6 -V -T "ARTIST=%artist%" -T "TITLE=%title%" -T "ALBUM=%albumtitle%" -T "DATE=%year%" -T "TRACKNUMBER=%tracknr%" -T "GENRE=%genre%" -T "COMMENT=%comment%" -T "BAND=%albuminterpret%" -T "ALBUMARTIST=%albuminterpret%" -T "COMPOSER=%composer%" %haslyrics%--tag-from-file=LYRICS="%lyricsfile%"%haslyrics% -T "DISCNUMBER=%cdnumber%" -T "TOTALDISCS=%totalcds%" -T "TOTALTRACKS=%numtracks%" %hascover%--picture="%coverfile%"%hascover% %source% -o %dest%

TOC of the extracted CD

Track | Start | Length | Start sector | End sector
---------------------------------------------------------
1 | 0:00.00 | 2:21.30 | 0 | 10604
2 | 2:21.30 | 2:41.55 | 10605 | 22734
3 | 5:03.10 | 5:09.42 | 22735 | 45951
4 | 10:12.52 | 4:53.50 | 45952 | 67976
5 | 15:06.27 | 3:33.28 | 67977 | 83979
6 | 18:39.55 | 4:29.42 | 83980 | 104196
7 | 23:09.22 | 7:14.30 | 104197 | 136776
8 | 30:23.52 | 6:01.30 | 136777 | 163881
9 | 36:25.07 | 1:31.20 | 163882 | 170726
10 | 37:56.27 | 1:09.35 | 170727 | 175936
11 | 39:05.62 | 3:19.00 | 175937 | 190861
12 | 42:24.62 | 1:03.35 | 190862 | 195621
13 | 43:28.22 | 5:04.18 | 195622 | 218439
14 | 48:32.40 | 3:42.05 | 218440 | 235094
15 | 52:14.45 | 6:17.00 | 235095 | 263369
16 | 58:31.45 | 4:32.57 | 263370 | 283826
17 | 63:04.27 | 5:07.05 | 283827 | 306856
18 | 68:11.32 | 5:36.10 | 306857 | 332066
19 | 73:47.42 | 0:09.05 | 332067 | 332746

Range status and errors

Selected range

Filename C:\Users\HP\Music\5.UKRAINIAN MUSIC\Sylk 130 - When The Funk Hits The Fan.wav

Peak level 98.8 %
Extraction speed 5.4 X
Range quality 100.0 %
Test CRC 7CA26DC5
Copy CRC 7CA26DC5
Copy OK

No errors occurred

AccurateRip summary

Track 1 accurately ripped (confidence 9) [0B04DC97] (AR v2)
Track 2 accurately ripped (confidence 9) [C200E61E] (AR v2)
Track 3 accurately ripped (confidence 9) [7186A28C] (AR v2)
Track 4 accurately ripped (confidence 9) [92EECAE5] (AR v2)
Track 5 accurately ripped (confidence 9) [DB256171] (AR v2)
Track 6 accurately ripped (confidence 9) [38095D61] (AR v2)
Track 7 accurately ripped (confidence 10) [1AA3370D] (AR v2)
Track 8 accurately ripped (confidence 10) [CC56594E] (AR v2)
Track 9 accurately ripped (confidence 9) [36AC4ADC] (AR v2)
Track 10 accurately ripped (confidence 9) [D7197815] (AR v2)
Track 11 accurately ripped (confidence 10) [273E389D] (AR v2)
Track 12 accurately ripped (confidence 10) [3FDF51B3] (AR v2)
Track 13 accurately ripped (confidence 10) [A1809AC1] (AR v2)
Track 14 accurately ripped (confidence 10) [02B5FEA2] (AR v2)
Track 15 accurately ripped (confidence 10) [DD528E46] (AR v2)
Track 16 accurately ripped (confidence 9) [05E9256C] (AR v2)
Track 17 accurately ripped (confidence 10) [94D462D4] (AR v2)
Track 18 accurately ripped (confidence 10) [C7028270] (AR v2)
Track 19 accurately ripped (confidence 10) [3D5C5DAA] (AR v2)

All tracks accurately ripped

End of status report

==== Log checksum ACE787AABBE43D645FD9B833CDDD6223F9173593EAF670D1106F50EC9871E689 ====

info [Профиль]  [ЛС] 
Показать сообщения:    
Ответить на тему

Текущее время: 20-Июн 09:30

Часовой пояс: GMT + 4



Вы не можете начинать темы
Вы не можете отвечать на сообщения
Вы не можете редактировать свои сообщения
Вы не можете удалять свои сообщения
Вы не можете голосовать в опросах
Вы не можете прикреплять файлы к сообщениям
Вы не можете скачивать файлы