Ошибка

(Hip-Hop) [CD] Loyle Carner - Yesterday's Gone - 2017, FLAC (tracks+.cue), lossless

Ответить на тему
 
Автор Сообщение

F.A.N.T.O.M

Пол: Пол:Муж

Стаж: 5 месяцев 25 дней

Сообщений: 421

Россия
Рейтинг

post 23-Май-2024 18:53 1[+]

[Цитировать] 



Loyle Carner / Yesterday's Gone




Жанр: Hip-Hop
Носитель: CD
Страна-производитель диска (релиза): UK
Год издания: 2017
Издатель (лейбл): AMF Records
Страна исполнителя (группы): UK

Аудиокодек: FLAC (*.flac)
Тип рипа: tracks+.cue
Продолжительность: 42:05
Источник: apollo
Наличие сканов в содержимом раздачи: нет

[i]1. The Isle Of Arran (03:34)
2. Mean It In The Morning (02:39)
3. +44 (02:39)
4. Damselfly (feat. Tom Misch) (02:52)
5. Aint Nothing Changed (03:14)
6. Swear (00:34)
7. Florence (feat. Kwes) (03:04)
8. The Seamstress (Tooting Masala) (02:31)
9. Stars & Shards (03:07)
10. No Worries (feat. Jehst & Rebel Kleff) (04:30)
11. Rebel 101 (00:28)
12. No CD (feat. Rebel Kleff) (04:17)
13. Mrs C (03:22)
14. Sun Of Jean (05:14)[i]
 
Exact Audio Copy V1.3 from 2. September 2016

EAC extraction logfile from 27. March 2017, 23:25

Loyle Carner / Yesterday's Gone

Used drive : Optiarc BD ROM BC-5650H Adapter: 1 ID: 1

Read mode : Secure
Utilize accurate stream : Yes
Defeat audio cache : Yes
Make use of C2 pointers : No

Read offset correction : 48
Overread into Lead-In and Lead-Out : No
Fill up missing offset samples with silence : Yes
Delete leading and trailing silent blocks : No
Null samples used in CRC calculations : Yes
Used interface : Native Win32 interface for Win NT & 2000
Gap handling : Appended to previous track

Used output format : User Defined Encoder
Selected bitrate : 1024 kBit/s
Quality : High
Add ID3 tag : No
Command line compressor : C:\Program Files\Exact Audio Copy\Flac\flac.exe
Additional command line options : -8 -e -V -T "ARTIST=%artist%" -T "TITLE=%title%" -T "ALBUM=%albumtitle%" -T "DATE=%year%" -T "TRACKNUMBER=%tracknr%" -T "GENRE=%genre%" -T "PERFORMER=%albuminterpret%" -T "COMPOSER=%composer%" %haslyrics%--tag-from-file=LYRICS="%lyricsfile%"%haslyrics% -T "ALBUMARTIST=%albumartist%" -T "DISCNUMBER=%cdnumber%" -T "TOTALDISCS=%totalcds%" -T "TOTALTRACKS=%numtracks%" -T "COMMENT=%comment%" %source% -o %dest%

TOC of the extracted CD

Track | Start | Length | Start sector | End sector
---------------------------------------------------------
1 | 0:00.00 | 3:34.57 | 0 | 16106
2 | 3:34.57 | 2:39.63 | 16107 | 28094
3 | 6:14.45 | 0:48.57 | 28095 | 31751
4 | 7:03.27 | 2:52.49 | 31752 | 44700
5 | 9:56.01 | 3:10.65 | 44701 | 59015
6 | 13:06.66 | 0:34.07 | 59016 | 61572
7 | 13:40.73 | 3:04.39 | 61573 | 75411
8 | 16:45.37 | 2:31.60 | 75412 | 86796
9 | 19:17.22 | 3:04.42 | 86797 | 100638
10 | 22:21.64 | 4:30.16 | 100639 | 120904
11 | 26:52.05 | 0:28.10 | 120905 | 123014
12 | 27:20.15 | 4:16.60 | 123015 | 142274
13 | 31:37.00 | 3:22.23 | 142275 | 157447
14 | 34:59.23 | 8:00.44 | 157448 | 193491

Track 1

Filename Z:\home\enconding\FLAC\Loyle Carner - Yesterday's Gone (2017)\01 - The Isle of Arran.wav

Pre-gap length 0:00:02.00

Peak level 98.8 %
Extraction speed 3.2 X
Track quality 99.9 %
Test CRC 585A48E4
Copy CRC 585A48E4
Track not present in AccurateRip database
Copy OK

Track 2

Filename Z:\home\enconding\FLAC\Loyle Carner - Yesterday's Gone (2017)\02 - Mean It in the Morning.wav

Peak level 98.8 %
Extraction speed 1.2 X
Track quality 100.0 %
Test CRC 5DA08041
Copy CRC 5DA08041
Track not present in AccurateRip database
Copy OK

Track 3

Filename Z:\home\enconding\FLAC\Loyle Carner - Yesterday's Gone (2017)\03 - +44.wav

Peak level 99.5 %
Extraction speed 7.2 X
Track quality 99.7 %
Test CRC F1EA9338
Copy CRC F1EA9338
Track not present in AccurateRip database
Copy OK

Track 4

Filename Z:\home\enconding\FLAC\Loyle Carner - Yesterday's Gone (2017)\04 - Damselfly.wav

Peak level 98.8 %
Extraction speed 1.1 X
Track quality 99.9 %
Test CRC FD769B88
Copy CRC FD769B88
Track not present in AccurateRip database
Copy OK

Track 5

Filename Z:\home\enconding\FLAC\Loyle Carner - Yesterday's Gone (2017)\05 - Ain't Nothing Changed.wav

Pre-gap length 0:00:01.21

Peak level 98.8 %
Extraction speed 1.2 X
Track quality 99.9 %
Test CRC 2DA844FD
Copy CRC 2DA844FD
Track not present in AccurateRip database
Copy OK

Track 6

Filename Z:\home\enconding\FLAC\Loyle Carner - Yesterday's Gone (2017)\06 - Swear.wav

Peak level 71.4 %
Extraction speed 0.9 X
Track quality 100.0 %
Test CRC 44615E0D
Copy CRC 44615E0D
Track not present in AccurateRip database
Copy OK

Track 7

Filename Z:\home\enconding\FLAC\Loyle Carner - Yesterday's Gone (2017)\07 - Florence.wav

Peak level 98.8 %
Extraction speed 0.0 X
Track quality 100.0 %
Test CRC 75B12D39
Copy CRC 75B12D39
Track not present in AccurateRip database
Copy OK

Track 8

Filename Z:\home\enconding\FLAC\Loyle Carner - Yesterday's Gone (2017)\08 - The Seamstress (Tooting Masala).wav

Peak level 99.8 %
Extraction speed 12.6 X
Track quality 100.0 %
Test CRC D084FD2C
Copy CRC D084FD2C
Track not present in AccurateRip database
Copy OK

Track 9

Filename Z:\home\enconding\FLAC\Loyle Carner - Yesterday's Gone (2017)\09 - Stars & Shards.wav

Peak level 98.8 %
Extraction speed 11.8 X
Track quality 99.9 %
Test CRC 3D5379CD
Copy CRC 3D5379CD
Track not present in AccurateRip database
Copy OK

Track 10

Filename Z:\home\enconding\FLAC\Loyle Carner - Yesterday's Gone (2017)\10 - No Worries.wav

Peak level 98.8 %
Extraction speed 13.1 X
Track quality 99.9 %
Test CRC A3654BD3
Copy CRC A3654BD3
Track not present in AccurateRip database
Copy OK

Track 11

Filename Z:\home\enconding\FLAC\Loyle Carner - Yesterday's Gone (2017)\11 - Rebel 101.wav

Peak level 56.9 %
Extraction speed 8.9 X
Track quality 100.0 %
Test CRC FA8D6CF9
Copy CRC FA8D6CF9
Track not present in AccurateRip database
Copy OK

Track 12

Filename Z:\home\enconding\FLAC\Loyle Carner - Yesterday's Gone (2017)\12 - No CD.wav

Peak level 98.8 %
Extraction speed 14.9 X
Track quality 100.0 %
Test CRC 3F674559
Copy CRC 3F674559
Track not present in AccurateRip database
Copy OK

Track 13

Filename Z:\home\enconding\FLAC\Loyle Carner - Yesterday's Gone (2017)\13 - Mrs C.wav

Pre-gap length 0:00:01.08

Peak level 99.6 %
Extraction speed 15.2 X
Track quality 100.0 %
Test CRC E408F4A5
Copy CRC E408F4A5
Track not present in AccurateRip database
Copy OK

Track 14

Filename Z:\home\enconding\FLAC\Loyle Carner - Yesterday's Gone (2017)\14 - Sun of Jean.wav

Peak level 100.0 %
Extraction speed 17.0 X
Track quality 100.0 %
Test CRC 7962B81A
Copy CRC 7962B81A
Track not present in AccurateRip database
Copy OK

None of the tracks are present in the AccurateRip database

No errors occurred

End of status report

==== Log checksum 30406DFA85B470B75E772E649B9F415359AC8B49731C5C060FEA3319804E0C4B ====

 
REM GENRE Hip-Hop
REM DATE 2017
REM DISCID BA0A130E
REM COMMENT "ExactAudioCopy v1.3"
CATALOG 0602557332612
PERFORMER "Loyle Carner"
TITLE "Yesterday's Gone"
REM COMPOSER ""
FILE "01 - The Isle of Arran.wav" WAVE
TRACK 01 AUDIO
TITLE "The Isle of Arran"
PERFORMER "Loyle Carner"
REM COMPOSER ""
ISRC GBUM71605988
INDEX 01 00:00:00
FILE "02 - Mean It in the Morning.wav" WAVE
TRACK 02 AUDIO
TITLE "Mean It in the Morning"
PERFORMER "Loyle Carner"
REM COMPOSER ""
INDEX 01 00:00:00
FILE "03 - +44.wav" WAVE
TRACK 03 AUDIO
TITLE "+44"
PERFORMER "Loyle Carner"
REM COMPOSER ""
INDEX 01 00:00:00
FILE "04 - Damselfly.wav" WAVE
TRACK 04 AUDIO
TITLE "Damselfly"
PERFORMER "Loyle Carner"
REM COMPOSER ""
INDEX 01 00:00:00
TRACK 05 AUDIO
TITLE "Ain't Nothing Changed"
PERFORMER "Loyle Carner"
REM COMPOSER ""
ISRC GBUM71506632
INDEX 00 02:51:28
FILE "05 - Ain't Nothing Changed.wav" WAVE
INDEX 01 00:00:00
FILE "06 - Swear.wav" WAVE
TRACK 06 AUDIO
TITLE "Swear"
PERFORMER "Loyle Carner"
REM COMPOSER ""
INDEX 01 00:00:00
FILE "07 - Florence.wav" WAVE
TRACK 07 AUDIO
TITLE "Florence"
PERFORMER "Loyle Carner"
REM COMPOSER ""
INDEX 01 00:00:00
FILE "08 - The Seamstress (Tooting Masala).wav" WAVE
TRACK 08 AUDIO
TITLE "The Seamstress (Tooting Masala)"
PERFORMER "Loyle Carner"
REM COMPOSER ""
INDEX 01 00:00:00
FILE "09 - Stars & Shards.wav" WAVE
TRACK 09 AUDIO
TITLE "Stars & Shards"
PERFORMER "Loyle Carner"
REM COMPOSER ""
INDEX 01 00:00:00
FILE "10 - No Worries.wav" WAVE
TRACK 10 AUDIO
TITLE "No Worries"
PERFORMER "Loyle Carner"
REM COMPOSER ""
INDEX 01 00:00:00
FILE "11 - Rebel 101.wav" WAVE
TRACK 11 AUDIO
TITLE "Rebel 101"
PERFORMER "Loyle Carner"
REM COMPOSER ""
INDEX 01 00:00:00
FILE "12 - No CD.wav" WAVE
TRACK 12 AUDIO
TITLE "No CD"
PERFORMER "Loyle Carner"
REM COMPOSER ""
INDEX 01 00:00:00
TRACK 13 AUDIO
TITLE "Mrs C"
PERFORMER "Loyle Carner"
REM COMPOSER ""
ISRC GBUM71606018
INDEX 00 04:15:52
FILE "13 - Mrs C.wav" WAVE
INDEX 01 00:00:00
FILE "14 - Sun of Jean.wav" WAVE
TRACK 14 AUDIO
TITLE "Sun of Jean"
PERFORMER "Loyle Carner"
REM COMPOSER ""
INDEX 01 00:00:00

info [Профиль]  [ЛС] 
Показать сообщения:    
Ответить на тему

Текущее время: 16-Июн 00:13

Часовой пояс: GMT + 4



Вы не можете начинать темы
Вы не можете отвечать на сообщения
Вы не можете редактировать свои сообщения
Вы не можете удалять свои сообщения
Вы не можете голосовать в опросах
Вы не можете прикреплять файлы к сообщениям
Вы не можете скачивать файлы