Ошибка

(Hip-Hop, R&B, Soul, Funk) [CD] Mark Ronson - Uptown Special - 2015, FLAC (image+.cue), lossless

Ответить на тему
 
Автор Сообщение

F.A.N.T.O.M

Пол: Пол:Муж

Стаж: 5 месяцев 29 дней

Сообщений: 432

Россия
Рейтинг

post 23-Май-2024 18:47 1[+]

[Цитировать] 



Mark Ronson - Uptown Special




Жанр: Hip-Hop, R&B, Soul, Funk
Носитель: CD
Страна-производитель диска (релиза): USA
Год издания: 2015
Издатель (лейбл): RCA ‎/ Sony Music
Страна исполнителя (группы): USA

Аудиокодек: FLAC (*.flac)
Тип рипа: image+.cue
Продолжительность: 00:38:44
Источник: THANKS TO A FRIEND !!!
Наличие сканов в содержимом раздачи: да

[i]01. Uptown’s First Finale (feat. Stevie Wonder & Andrew Wyatt) (1:38)
02. Summer Breaking (feat. Kevin Parker) (3:07)
03. Feel Right (feat. Mystikal) (3:42)
04. Uptown Funk (feat. Bruno Mars) (4:29)
05. I Can’t Lose (feat. Keyone Starr) (3:16)
06. Daffodils (feat. Kevin Parker) (4:58)
07. Crack In the Pearl (feat. Andrew Wyatt) (2:25)
08. In Case of Fire (feat. Jeff Bhasker) (4:33)
09. Leaving Los Feliz (feat. Kevin Parker) (4:18)
10. Heavy and Rolling (feat. Andrew Wyatt) (3:57)
11. Crack In the Pearl, Pt. II (feat. Stevie Wonder & Jeff Bhasker) (2:16)[i]
 
Exact Audio Copy V1.0 beta 3 from 29. August 2011

EAC extraction logfile from 17. January 2015, 17:25

Mark Ronson / Uptown Special

Used drive : PIONEER DVD-RW DVR-221L Adapter: 1 ID: 0

Read mode : Secure
Utilize accurate stream : Yes
Defeat audio cache : Yes
Make use of C2 pointers : No

Read offset correction : 6
Overread into Lead-In and Lead-Out : No
Fill up missing offset samples with silence : Yes
Delete leading and trailing silent blocks : No
Null samples used in CRC calculations : Yes
Used interface : Installed external ASPI interface

Used output format : Internal WAV Routines
Sample format : 44.100 Hz; 16 Bit; Stereo

TOC of the extracted CD

Track | Start | Length | Start sector | End sector
---------------------------------------------------------
1 | 0:00.00 | 1:38.62 | 0 | 7411
2 | 1:38.62 | 3:07.22 | 7412 | 21458
3 | 4:46.09 | 3:42.41 | 21459 | 38149
4 | 8:28.50 | 4:29.50 | 38150 | 58374
5 | 12:58.25 | 3:16.35 | 58375 | 73109
6 | 16:14.60 | 4:58.10 | 73110 | 95469
7 | 21:12.70 | 2:25.65 | 95470 | 106409
8 | 23:38.60 | 4:33.43 | 106410 | 126927
9 | 28:12.28 | 4:18.32 | 126928 | 146309
10 | 32:30.60 | 3:57.56 | 146310 | 164140
11 | 36:28.41 | 2:16.07 | 164141 | 174347

Range status and errors

Selected range

Filename D:\POST 2\Mark Ronson - Uptown Special (EAC)\Mark Ronson - Uptown Special.wav

Peak level 99.8 %
Extraction speed 7.2 X
Range quality 99.9 %
Test CRC DFAC8BFC
Copy CRC DFAC8BFC
Copy OK

No errors occurred

AccurateRip summary

Track 1 not present in database
Track 2 not present in database
Track 3 not present in database
Track 4 not present in database
Track 5 not present in database
Track 6 not present in database
Track 7 not present in database
Track 8 not present in database
Track 9 not present in database
Track 10 not present in database
Track 11 not present in database

None of the tracks are present in the AccurateRip database

End of status report

 
REM GENRE Pop
REM DATE 2015
REM DISCID 8609140B
REM COMMENT "ExactAudioCopy v1.0b3"
PERFORMER "Mark Ronson"
TITLE "Uptown Special"
FILE "Mark Ronson - Uptown Special.flac" WAVE
TRACK 01 AUDIO
TITLE "Uptown’s First Finale (feat. Stevie Wonder & Andrew Wyatt)"
PERFORMER "Mark Ronson"
INDEX 01 00:00:00
TRACK 02 AUDIO
TITLE "Summer Breaking (feat. Kevin Parker)"
PERFORMER "Mark Ronson"
INDEX 01 01:38:62
TRACK 03 AUDIO
TITLE "Feel Right (feat. Mystikal)"
PERFORMER "Mark Ronson"
INDEX 01 04:46:09
TRACK 04 AUDIO
TITLE "Uptown Funk (feat. Bruno Mars)"
PERFORMER "Mark Ronson"
INDEX 01 08:28:50
TRACK 05 AUDIO
TITLE "I Can’t Lose (feat. Keyone Starr)"
PERFORMER "Mark Ronson"
INDEX 01 12:58:25
TRACK 06 AUDIO
TITLE "Daffodils (feat. Kevin Parker)"
PERFORMER "Mark Ronson"
INDEX 01 16:14:60
TRACK 07 AUDIO
TITLE "Crack In the Pearl (feat. Andrew Wyatt)"
PERFORMER "Mark Ronson"
INDEX 01 21:12:70
TRACK 08 AUDIO
TITLE "In Case of Fire (feat. Jeff Bhasker)"
PERFORMER "Mark Ronson"
INDEX 01 23:38:60
TRACK 09 AUDIO
TITLE "Leaving Los Feliz (feat. Kevin Parker)"
PERFORMER "Mark Ronson"
INDEX 01 28:12:28
TRACK 10 AUDIO
TITLE "Heavy and Rolling (feat. Andrew Wyatt)"
PERFORMER "Mark Ronson"
INDEX 01 32:30:60
TRACK 11 AUDIO
TITLE "Crack In the Pearl, Pt. II (feat. Stevie Wonder & Jeff Bhasker)"
PERFORMER "Mark Ronson"
INDEX 01 36:28:41

Четвертый студийный альбом американского музыканта Марка Ронсона (Mark Ronson) - "Uptown Special". Лид-сингл "Uptown Funk" вошёл в топ-10 в двадцати странах и возглавил американский чарт US Billboard Hot 100. "Uptown Special" вошёл в пятерку самых ожидаемых альбомов января...
info [Профиль]  [ЛС] 
Показать сообщения:    
Ответить на тему

Текущее время: 20-Июн 09:40

Часовой пояс: GMT + 4



Вы не можете начинать темы
Вы не можете отвечать на сообщения
Вы не можете редактировать свои сообщения
Вы не можете удалять свои сообщения
Вы не можете голосовать в опросах
Вы не можете прикреплять файлы к сообщениям
Вы не можете скачивать файлы