Ошибка

(KRap) [CD] Agust D - D-DAY - 2023, FLAC (tracks+.cue), lossless

Ответить на тему
 
Автор Сообщение

F.A.N.T.O.M

Пол: Пол:Муж

Стаж: 5 месяцев 28 дней

Сообщений: 425

Россия
Рейтинг

post 23-Май-2024 18:31 0[+]

[Цитировать] 



Agust D / D-DAY




Жанр: K-Rap
Носитель: CD
Страна-производитель диска (релиза): KR
Год издания: 2023
Издатель (лейбл): Bighit Music
Страна исполнителя (группы): Республика Корея (Южная)

Аудиокодек: FLAC (*.flac)
Тип рипа: tracks+.cue
Продолжительность: 00:32:21
Наличие сканов в содержимом раздачи: нет

[i]01. Agust D - D‐Day
02. Agust D - Haegeum
03. Agust D feat. j‐hope - HUH?!
04. Agust D - AMYGDALA
05. Agust D - SDL
06. Agust D feat. IU - People Pt.2
07. Agust D - Polar Night
08. Agust D - Interlude : Dawn
09. Agust D feat. Ryuichi Sakamoto, WOOSUNG of The Rose - Snooze
10. Agust D - Life Goes On[i]
 
Exact Audio Copy V1.6 from 23. October 2020

EAC extraction logfile from 5. January 2024, 22:22

Agust D / D‐DAY

Used drive : MATSHITADVD-RAM UJ8C0 Adapter: 1 ID: 0

Read mode : Secure
Utilize accurate stream : Yes
Defeat audio cache : Yes
Make use of C2 pointers : No

Read offset correction : 103
Overread into Lead-In and Lead-Out : No
Fill up missing offset samples with silence : Yes
Delete leading and trailing silent blocks : No
Null samples used in CRC calculations : Yes
Used interface : Native Win32 interface for Win NT & 2000
Gap handling : Appended to previous track

Used output format : User Defined Encoder
Selected bitrate : 896 kBit/s
Quality : High
Add ID3 tag : No
Command line compressor : C:\Program Files (x86)\Exact Audio Copy\FLAC\FLAC.EXE
Additional command line options : -8 -V -T "ARTIST=%artist%" -T "TITLE=%title%" -T "ALBUM=%albumtitle%" -T "DATE=%year%" -T "TRACKNUMBER=%tracknr%" -T "GENRE=%genre%" -T "COMMENT=%comment%" -T "BAND=%albuminterpret%" -T "ALBUMARTIST=%albuminterpret%" -T "COMPOSER=%composer%" %haslyrics%--tag-from-file=LYRICS="%lyricsfile%"%haslyrics% -T "DISCNUMBER=%cdnumber%" -T "TOTALDISCS=%totalcds%" -T "TOTALTRACKS=%numtracks%" %hascover%--picture="%coverfile%"%hascover% %source% -o %dest%

TOC of the extracted CD

Track | Start | Length | Start sector | End sector
---------------------------------------------------------
1 | 0:00.00 | 3:31.28 | 0 | 15852
2 | 3:31.28 | 2:50.04 | 15853 | 28606
3 | 6:21.32 | 3:04.15 | 28607 | 42421
4 | 9:25.47 | 4:12.24 | 42422 | 61345
5 | 13:37.71 | 2:52.59 | 61346 | 74304
6 | 16:30.55 | 3:34.00 | 74305 | 90354
7 | 20:04.55 | 2:46.37 | 90355 | 102841
8 | 22:51.17 | 1:45.11 | 102842 | 110727
9 | 24:36.28 | 4:26.27 | 110728 | 130704
10 | 29:02.55 | 3:17.50 | 130705 | 145529

Track 1

Filename C:\Users\moonz\Music\D-DAY\01. Agust D - D‐Day.wav

Pre-gap length 0:00:02.00

Peak level 90.8 %
Extraction speed 2.3 X
Track quality 100.0 %
Test CRC E3AD47BA
Copy CRC E3AD47BA
Accurately ripped (confidence 1) [37779891] (AR v2)
Copy OK

Track 2

Filename C:\Users\moonz\Music\D-DAY\02. Agust D - Haegeum.wav

Peak level 98.2 %
Extraction speed 2.5 X
Track quality 100.0 %
Test CRC 42B68BB6
Copy CRC 42B68BB6
Accurately ripped (confidence 1) [B432AB23] (AR v2)
Copy OK

Track 3

Filename C:\Users\moonz\Music\D-DAY\03. Agust D feat. j‐hope - HUH?!.wav

Peak level 98.1 %
Extraction speed 2.7 X
Track quality 100.0 %
Test CRC 27C18A0B
Copy CRC 27C18A0B
Accurately ripped (confidence 1) [DE06814C] (AR v2)
Copy OK

Track 4

Filename C:\Users\moonz\Music\D-DAY\04. Agust D - AMYGDALA.wav

Peak level 98.2 %
Extraction speed 2.3 X
Track quality 99.9 %
Test CRC BF42CE97
Copy CRC BF42CE97
Accurately ripped (confidence 1) [3D308D83] (AR v2)
Copy OK

Track 5

Filename C:\Users\moonz\Music\D-DAY\05. Agust D - SDL.wav

Peak level 97.7 %
Extraction speed 3.0 X
Track quality 100.0 %
Test CRC 2BFE24E7
Copy CRC 2BFE24E7
Accurately ripped (confidence 1) [F2BFCFCE] (AR v2)
Copy OK

Track 6

Filename C:\Users\moonz\Music\D-DAY\06. Agust D feat. IU - People Pt.2.wav

Peak level 98.7 %
Extraction speed 3.3 X
Track quality 100.0 %
Test CRC B2DD62EF
Copy CRC B2DD62EF
Accurately ripped (confidence 1) [5B0FDC23] (AR v2)
Copy OK

Track 7

Filename C:\Users\moonz\Music\D-DAY\07. Agust D - Polar Night.wav

Peak level 98.1 %
Extraction speed 3.2 X
Track quality 100.0 %
Test CRC 80A72EDC
Copy CRC 80A72EDC
Accurately ripped (confidence 1) [1A0F622C] (AR v2)
Copy OK

Track 8

Filename C:\Users\moonz\Music\D-DAY\08. Agust D - Interlude : Dawn.wav

Peak level 98.7 %
Extraction speed 2.8 X
Track quality 100.0 %
Test CRC 52F24005
Copy CRC 52F24005
Accurately ripped (confidence 1) [21CB9CE8] (AR v2)
Copy OK

Track 9

Filename C:\Users\moonz\Music\D-DAY\09. Agust D feat. Ryuichi Sakamoto, WOOSUNG of The Rose - Snooze.wav

Peak level 98.7 %
Extraction speed 3.8 X
Track quality 100.0 %
Test CRC 3D72FD20
Copy CRC 3D72FD20
Accurately ripped (confidence 1) [3C0B8424] (AR v2)
Copy OK

Track 10

Filename C:\Users\moonz\Music\D-DAY\10. Agust D - Life Goes On.wav

Peak level 98.2 %
Extraction speed 3.8 X
Track quality 100.0 %
Test CRC 322D245A
Copy CRC 322D245A
Accurately ripped (confidence 1) [825E8E73] (AR v2)
Copy OK

All tracks accurately ripped

No errors occurred

End of status report

---- CUETools DB Plugin V2.1.6

[CTDB TOCID: PTrER0lYT5rbUcvZDf4alPgUIHM-] found
Submit result: PTrER0lYT5rbUcvZDf4alPgUIHM- has been confirmed
Track | CTDB Status
1 | (27/27) Accurately ripped
2 | (27/27) Accurately ripped
3 | (27/27) Accurately ripped
4 | (27/27) Accurately ripped
5 | (27/27) Accurately ripped
6 | (26/27) Accurately ripped
7 | (27/27) Accurately ripped
8 | (27/27) Accurately ripped
9 | (27/27) Accurately ripped
10 | (27/27) Accurately ripped

==== Log checksum 3094F77D6A42E725AA696D630C039519D5750C4AC3BE4C56D0BE3142DC794E7A ====

 
REM GENRE K-Pop
REM DATE 2023
REM DISCID 8907940A
REM COMMENT "ExactAudioCopy v1.6"
PERFORMER "Agust D"
TITLE "D-DAY"
REM COMPOSER ""
FILE "01. Agust D - D‐Day.wav" WAVE
TRACK 01 AUDIO
TITLE "D‐Day"
PERFORMER "Agust D"
REM COMPOSER ""
INDEX 01 00:00:00
FILE "02. Agust D - Haegeum.wav" WAVE
TRACK 02 AUDIO
TITLE "Haegeum"
PERFORMER "Agust D"
REM COMPOSER ""
INDEX 01 00:00:00
FILE "03. Agust D feat. j‐hope - HUH?!.wav" WAVE
TRACK 03 AUDIO
TITLE "HUH?!"
PERFORMER "Agust D feat. j-hope"
REM COMPOSER ""
INDEX 01 00:00:00
FILE "04. Agust D - AMYGDALA.wav" WAVE
TRACK 04 AUDIO
TITLE "AMYGDALA"
PERFORMER "Agust D"
REM COMPOSER ""
FLAGS DCP
INDEX 01 00:00:00
FILE "05. Agust D - SDL.wav" WAVE
TRACK 05 AUDIO
TITLE "SDL"
PERFORMER "Agust D"
REM COMPOSER ""
INDEX 01 00:00:00
FILE "06. Agust D feat. IU - People Pt.2.wav" WAVE
TRACK 06 AUDIO
TITLE "People Pt.2"
PERFORMER "Agust D feat. IU"
REM COMPOSER ""
INDEX 01 00:00:00
FILE "07. Agust D - Polar Night.wav" WAVE
TRACK 07 AUDIO
TITLE "Polar Night"
PERFORMER "Agust D"
REM COMPOSER ""
FLAGS DCP
INDEX 01 00:00:00
FILE "08. Agust D - Interlude : Dawn.wav" WAVE
TRACK 08 AUDIO
TITLE "Interlude : Dawn"
PERFORMER "Agust D"
REM COMPOSER ""
INDEX 01 00:00:00
FILE "09. Agust D feat. Ryuichi Sakamoto, WOOSUNG of The Rose - Snooze.wav" WAVE
TRACK 09 AUDIO
TITLE "Snooze"
PERFORMER "Agust D feat. Ryuichi Sakamoto, WOOSUNG of The Rose"
REM COMPOSER ""
INDEX 01 00:00:00
FILE "10. Agust D - Life Goes On.wav" WAVE
TRACK 10 AUDIO
TITLE "Life Goes On"
PERFORMER "Agust D"
REM COMPOSER ""
INDEX 01 00:00:00

 
-----------------------

DON'T MODIFY THIS FILE

-----------------------

PERFORMER: auCDtect Task Manager, ver. 1.6.0 RC1 build 1.6.0.1
Copyright (c) 2008-2010 y-soft. All rights reserved
http://y-soft.org

ANALYZER: auCDtect: CD records authenticity detector, version 0.8.2
Copyright (c) 2004 Oleg Berngardt. All rights reserved.
Copyright (c) 2004 Alexander Djourik. All rights reserved.

FILE: 10. Agust D - Life Goes On.flac
Size: 26823692 Hash: 26BE3C7FCADB8A1EBC5D0B0A379AE669 Accuracy: -m0
Conclusion: CDDA 100%
Signature: 5691831D70E02E716946D4A04D08EEDC0B7A4F4C
FILE: 09. Agust D feat. Ryuichi Sakamoto, WOOSUNG of The Rose - Snooze.flac
Size: 32420989 Hash: F382033CC5E94D3044A46876D8F62050 Accuracy: -m0
Conclusion: CDDA 100%
Signature: DCFB78E51219840DF8FBF1DEA961737CB0680C48
FILE: 08. Agust D - Interlude : Dawn.flac
Size: 11431090 Hash: C1450EECBA0AF4E797E7B26FB657B0C8 Accuracy: -m0
Conclusion: CDDA 100%
Signature: D01D76B67902898F370F6C773EFB5E8B4C689825
FILE: 07. Agust D - Polar Night.flac
Size: 21066637 Hash: 197B65AC1ED5B88459847E2DA7D7A15E Accuracy: -m0
Conclusion: CDDA 100%
Signature: 8A6656B890D31BC00BF79FC22F0032CBE1D9DC94
FILE: 06. Agust D feat. IU - People Pt.2.flac
Size: 26244262 Hash: CEAC38C47AD9DDF8ACA526409FCC0141 Accuracy: -m0
Conclusion: CDDA 100%
Signature: E8A46CEB0C56B167814F1606D1CF26E724AE8F5B
FILE: 05. Agust D - SDL.flac
Size: 23151288 Hash: B5A48C3A2F11C5C1D8EE328B740EA875 Accuracy: -m0
Conclusion: CDDA 100%
Signature: 63DB7283B4E917F072B1231AED3D4F80FD45B12B
FILE: 04. Agust D - AMYGDALA.flac
Size: 31240603 Hash: FAB747E01434D3E4AC936C83540C7DE1 Accuracy: -m0
Conclusion: CDDA 58%
Signature: D1B2588D84629660D7D56DB41679711235AE7464
FILE: 03. Agust D feat. j‐hope - HUH?!.flac
Size: 21053219 Hash: 458C9055FE47441C86630B7A3E05CD90 Accuracy: -m0
Conclusion: MPEG 95%
Signature: 12F0952410BE9C41F24AAAC9CD259879C65772CD
FILE: 02. Agust D - Haegeum.flac
Size: 20794991 Hash: 0DBA1433A9B19DBAF218EAD9332F5E59 Accuracy: -m0
Conclusion: CDDA 100%
Signature: 6295463C692A5D9075BAE901EE647C3CF44BAEC7
FILE: 01. Agust D - D‐Day.flac
Size: 29796674 Hash: 10D0C85C97B04DE27BED2268336FC54A Accuracy: -m0
Conclusion: CDDA 100%
Signature: 35D5948F85C8A0595058466FD515A0E78720F331

 

Folder Path: C:\Users\moonz\Music\D-DAY

File Name | Format | SR | Word Length | Max. TPL | LUFSi | DR (PMF) |

01. Agust D - D‐Day | .flac | 44.1k | 16 | +0.66 | -6.24 | 4 |
02. Agust D - Haegeum | .flac | 44.1k | 16 | +0.05 | -5.88 | 4 |
03. Agust D feat. j‐hope - HUH?! | .flac | 44.1k | 16 | -0.16 | -6.14 | 4 |
04. Agust D - AMYGDALA | .flac | 44.1k | 16 | +0.05 | -6.50 | 3 |
05. Agust D - SDL | .flac | 44.1k | 16 | -0.06 | -6.38 | 5 |
06. Agust D feat. IU - People Pt.2 | .flac | 44.1k | 16 | -0.11 | -7.15 | 4 |
07. Agust D - Polar Night | .flac | 44.1k | 16 | -0.16 | -6.54 | 5 |
08. Agust D - Interlude : Dawn | .flac | 44.1k | 16 | -0.11 | -9.68 | 6 |
09. Agust D feat. Ryuichi Sakamoto, WOOSUNG of The Rose - Snooze | .flac | 44.1k | 16 | -0.11 | -7.03 | 4 |
10. Agust D - Life Goes On | .flac | 44.1k | 16 | -0.10 | -6.72 | 5 |

Number of EP/Album Files: 10
Official EP/Album DR: 5
Южнокорейский музыкальный продюсер, певец, автор песен и рэпер. Он является участником мужской группы BTS компании Big Hit Music, состоящей из семи человек, и является ведущим рэпером.
Это первый полноформатный альбом Agust D, выпущенный в 13:00 21 апреля 2023 года. Этим альбомом он завершил трилогию Agust D (серию из трех частей) после микстейпов <Agust D> (2016) и <D-2> (2020).
info [Профиль]  [ЛС] 
Показать сообщения:    
Ответить на тему

Текущее время: 19-Июн 17:22

Часовой пояс: GMT + 4



Вы не можете начинать темы
Вы не можете отвечать на сообщения
Вы не можете редактировать свои сообщения
Вы не можете удалять свои сообщения
Вы не можете голосовать в опросах
Вы не можете прикреплять файлы к сообщениям
Вы не можете скачивать файлы