Ошибка

(Rap/Hip Hop) [WEB] Juice WRLD - Fighting Demons (Digital Deluxe) - 2022, FLAC (tracks), lossless

Ответить на тему
 
Автор Сообщение

F.A.N.T.O.M

Пол: Пол:Муж

Стаж: 5 месяцев 29 дней

Сообщений: 432

Россия
Рейтинг

post 20-Май-2024 22:31 0[+]

[Цитировать] 



Juice WRLD / Fighting Demons (Digital Deluxe)




Жанр: Rap/Hip Hop
Носитель: WEB
Страна-производитель диска (релиза): USA
Год издания: 2022
Издатель (лейбл): Grade A Productions/Interscope Records
Страна исполнителя (группы): USA

Аудиокодек: FLAC (*.flac)
Тип рипа: tracks
Продолжительность: 01:14:25
Источник: Qobuz
Наличие сканов в содержимом раздачи: Только обложка альбома

[i]01. Burn
02. Already Dead
03. Cigarettes
04. You Wouldn't Understand
05. Sometimes
06. Wandered To LA
07. Eminem Speaks
08. Rockstar In His Prime
09. Doom
10. Go Hard 2.0
11. Juice WRLD Speaks
12. Not Enough
13. Feline
14. Relocate
15. Juice WRLD Speaks 2
16. Until The Plug Comes Back Around
17. From My Window
18. Girl Of My Dreams
19. Feel Alone
20. Go Hard
21. My Life In A Nutshell
22. Rich And Blind
23. Legends[i]
-----------------------

DON'T MODIFY THIS FILE

-----------------------

PERFORMER: auCDtect Task Manager, ver. 1.6.0 RC1 build 1.6.0.1
Copyright (c) 2008-2010 y-soft. All rights reserved
http://y-soft.org

ANALYZER: auCDtect: CD records authenticity detector, version 0.8.2
Copyright (c) 2004 Oleg Berngardt. All rights reserved.
Copyright (c) 2004 Alexander Djourik. All rights reserved.

FILE: 01. Burn.flac
Size: 21636759 Hash: CABCFD6B48C9D04D63A66FDBCB33884C Accuracy: -m0
Conclusion: CDDA 99%
Signature: 39DCCAD06C8415AE6A9EA9382DF35D1C2E3B7325
FILE: 02. Already Dead.flac
Size: 23195023 Hash: 44821F8E79273948E84A6F9D592B1392 Accuracy: -m0
Conclusion: CDDA 100%
Signature: FF0609CE81FE4D73C3546A52617DE2AB57296921
FILE: 03. Cigarettes.flac
Size: 24166292 Hash: D8F3D43A882270D590D45AFC118D7EE9 Accuracy: -m0
Conclusion: CDDA 100%
Signature: FF94A08941D1C0A46AA29EDAC954186E6EBF498D
FILE: 04. You Wouldn't Understand.flac
Size: 18594187 Hash: 6BFE45BE0E4F2AB1743006EFF7C91FAA Accuracy: -m0
Conclusion: CDDA 100%
Signature: 88956AFFF27439092BCE210402E160FB84116C16
FILE: 05. Sometimes.flac
Size: 29463238 Hash: F822A4361809F38434EFF23E2C8B1714 Accuracy: -m0
Conclusion: CDDA 100%
Signature: D201FCE61D77DE0FDE5A8415EF4F2B553CCEF5AA
FILE: 06. Wandered To LA.flac
Size: 20932344 Hash: 824A43A17087C9011E7F32D6E06DA209 Accuracy: -m0
Conclusion: CDDA 100%
Signature: AE9DE866BAC99DB7B37EF809F76FD431740B0AA1
FILE: 07. Eminem Speaks.flac
Size: 9391783 Hash: 854B7F89D87501860AD7C2A3FFCE2C62 Accuracy: -m0
Conclusion: CDDA 43%
Signature: FE64CFB294F78D6B2CBFF4B600B0DB9DAFC3EABD
FILE: 08. Rockstar In His Prime.flac
Size: 17196569 Hash: 61986741E287174C170C138243B96C0F Accuracy: -m0
Conclusion: CDDA 100%
Signature: A1CF46D709436DBAD631A6078328AB5DFBB2FAB1
FILE: 09. Doom.flac
Size: 21958856 Hash: 3229B6583E1CFC6D4931D9132F3FAF89 Accuracy: -m0
Conclusion: CDDA 100%
Signature: 1F9FA5E7AB8F011B9DD524A1D9044A10912D8375
FILE: 10. Go Hard 2.0.flac
Size: 21373311 Hash: 7670902BE34B85C65B36BE5D2A71FF1A Accuracy: -m0
Conclusion: CDDA 99%
Signature: 25C5D911C9C58EE739ADE8F0057D21639BF4E372
FILE: 11. Juice WRLD Speaks.flac
Size: 6893194 Hash: 40715A6D7C1E22A37CD8484510053E57 Accuracy: -m0
Conclusion: MPEG 95%
Signature: CE0F63BB231C56EC40F05F20B65A48AD2F2AADE1
FILE: 12. Not Enough.flac
Size: 19277932 Hash: 1942362BA11EEBC2430423F91F2FA5D0 Accuracy: -m0
Conclusion: CDDA 100%
Signature: 82A19EBE33A82521218F1E38056DB87319378FAF
FILE: 13. Feline.flac
Size: 23875050 Hash: B5544938184842820D7859C36F7EEE92 Accuracy: -m0
Conclusion: MPEG 95%
Signature: 4FF0F1B258843163F1B374E99561194B1B7991A1
FILE: 14. Relocate.flac
Size: 22701606 Hash: 397DB4FD38DE0515F16DE93864B73C06 Accuracy: -m0
Conclusion: CDDA 99%
Signature: F9B00CEE6EA0659AB3AF11D5CFF4A255F32E15EC
FILE: 15. Juice WRLD Speaks 2.flac
Size: 12159267 Hash: 725D8CBB9608A0E15EFA31E7EC37EC77 Accuracy: -m0
Conclusion: MPEG 89%
Signature: 845487F1C95E7662F3CD3EDF058783957A1F06C1
FILE: 16. Until The Plug Comes Back Around.flac
Size: 19197560 Hash: 29F87F9EDD8D56500B2552AD45E1F305 Accuracy: -m0
Conclusion: CDDA 100%
Signature: 42561A974D0A8BF8B90A9CFE4635A6FEA053E8C4
FILE: 17. From My Window.flac
Size: 18540826 Hash: D63C4E82A88E89D100D0FF06B335DA12 Accuracy: -m0
Conclusion: CDDA 99%
Signature: 219E40104998624DB0CA2F57AA909C42328887A2
FILE: 18. Girl Of My Dreams.flac
Size: 26522883 Hash: 643000D28B7C4323F69ECC89BDFC13A3 Accuracy: -m0
Conclusion: CDDA 100%
Signature: AE475A7A4A4B7DF0BBE788AF0BB5AFB0E1A1404A
FILE: 19. Feel Alone.flac
Size: 24608623 Hash: CEBA3FCFF1E8EBFFEF25B74CEA17DFB2 Accuracy: -m0
Conclusion: CDDA 100%
Signature: C73F46A0F25BE32EE62FE9BEC8676F9A87E15E66
FILE: 20. Go Hard.flac
Size: 12915209 Hash: 37F804376D0CB443377D2D4E9C126C13 Accuracy: -m0
Conclusion: CDDA 100%
Signature: 2356D04E518E289B9820423DBA2E5D6473572372
FILE: 21. My Life In A Nutshell.flac
Size: 18180670 Hash: 6524EEC702765E510E0CED6F7872AA2B Accuracy: -m0
Conclusion: MPEG 95%
Signature: 1C10EAD4FE68286B76E9204F1F6217FEFFCECA70
FILE: 22. Rich And Blind.flac
Size: 24288800 Hash: 168D07586E9E357499A5664C31A1D390 Accuracy: -m0
Conclusion: MPEG 95%
Signature: AB30D851CFF72419809263E51262F73F55719ED4
FILE: 23. Legends.flac
Size: 21784590 Hash: 6633ADA8FA32330514713548131E10F1 Accuracy: -m0
Conclusion: MPEG 95%
Signature: 6F08097497C0EB518301665D68F74B72EFF4C8DD
foobar2000 2.0 / Dynamic Range Meter 1.1.1
log date: 2024-01-17 15:17:59

--------------------------------------------------------------------------------
Analyzed: Juice WRLD & Justin Bieber / Fighting Demons (Digital Deluxe) (1)
Juice WRLD ft. Polo G & Trippie Redd / Fighting Demons (Digital Deluxe) (2)
Juice WRLD, SUGA & BTS / Fighting Demons (Digital Deluxe) (3)
Juice WRLD / Fighting Demons (Digital Deluxe) (4-23)
--------------------------------------------------------------------------------

DR Peak RMS Duration Track
--------------------------------------------------------------------------------
DR6 -0.01 dB -8.18 dB 3:37 01-Burn
DR4 0.00 dB -5.62 dB 3:51 02-Already Dead
DR6 -0.01 dB -7.93 dB 3:48 03-Cigarettes
DR4 0.00 dB -6.13 dB 2:51 04-You Wouldn't Understand
DR4 0.00 dB -5.37 dB 4:20 05-Sometimes
DR2 0.00 dB -4.53 dB 3:09 06-Wantered To LA
DR15 0.00 dB -18.42 dB 2:13 07-Eminem Speaks
DR7 0.00 dB -10.42 dB 3:01 08-Rockstar In His Prime
DR3 -0.02 dB -3.50 dB 3:37 09-Doom
DR3 -0.01 dB -5.62 dB 3:35 10-Go Hard 2.0
DR11 -0.21 dB -14.85 dB 1:29 11-Juice WRLD Speaks
DR4 0.00 dB -6.41 dB 2:52 12-Not Enough
DR6 0.00 dB -7.36 dB 3:32 13-Feline
DR4 0.00 dB -6.09 dB 3:28 14-Relocate
DR11 0.00 dB -13.27 dB 3:11 15-Juice WRLD Speaks 2
DR5 0.00 dB -8.09 dB 2:54 16-Until The Plug Comes Back Around
DR6 0.00 dB -7.67 dB 3:07 17-From My Window
DR4 0.00 dB -5.64 dB 3:46 18-Girl Of My Dreams
DR5 -0.03 dB -5.75 dB 3:50 19-Feel Alone
DR3 -0.18 dB -6.31 dB 2:15 20-Go Hard
DR3 0.00 dB -5.11 dB 3:10 21-My Life In A Nutshell
DR4 -0.05 dB -5.90 dB 3:48 22-Rich And Blind
DR8 -0.05 dB -9.05 dB 3:12 23-Legends
--------------------------------------------------------------------------------

Number of tracks: 23
Official DR value: DR5

Samplerate: 44100 Hz
Channels: 2
Bits per sample: 16
Bitrate: 903 kbps
Codec: FLAC
================================================================================
info [Профиль]  [ЛС] 
Показать сообщения:    
Ответить на тему

Текущее время: 20-Июн 09:13

Часовой пояс: GMT + 4



Вы не можете начинать темы
Вы не можете отвечать на сообщения
Вы не можете редактировать свои сообщения
Вы не можете удалять свои сообщения
Вы не можете голосовать в опросах
Вы не можете прикреплять файлы к сообщениям
Вы не можете скачивать файлы