Ошибка

(Hip-Hop) Ja Rule - PIL2 - 2012 (Scene), FLAC (tracks+.cue), lossless

Ответить на тему
 
Автор Сообщение

F.A.N.T.O.M

Пол: Пол:Муж

Стаж: 5 месяцев 24 дня

Сообщений: 421

Россия
Рейтинг

post 20-Май-2024 22:26 0[+]

[Цитировать] 



Ja Rule - PIL2




Жанр: Hip-Hop
Страна-производитель диска: USA
Год издания диска: 2012
Издатель: MPire / Fontana
Страна: USA

Аудиокодек: FLAC (*.flac)
Тип рипа: tracks+.cue
Битрейт аудио: lossless
Продолжительность: 00:43:57
Источник: what.cd (Chesterchaz)
Наличие сканов в содержимом раздачи: нет

[i]01. Intro (Fuck Fame) (Feat. Leah Siegel)
02. Real Life Fantasy (Feat. Anita Louise)
03. Parachute (Feat. Leah Siegel)
04. Superstar (Intro)
05. Superstar
06. Black Vodka
07. Drown (Feat. Somong & Kenny Dark)
08. Never Had Time (Feat. Jon Doe)
09. Strange Days (Feat. 700 & Ramzo)
10. To The Top (Feat. Kalenna)
11. Pray 4 The Day (Feat. Leah Siegel)
12. Believe
13. Spun A Web (Feat. AminA)[i]
Exact Audio Copy V1.0 beta 3 from 29. August 2011

EAC extraction logfile from 25. February 2012, 16:56

Ja Rule / PIL2

Used drive : PLDS DVD+-RW DS-8A5SH Adapter: 1 ID: 0

Read mode : Secure
Utilize accurate stream : Yes
Defeat audio cache : Yes
Make use of C2 pointers : No

Read offset correction : 6
Overread into Lead-In and Lead-Out : No
Fill up missing offset samples with silence : Yes
Delete leading and trailing silent blocks : No
Null samples used in CRC calculations : Yes
Used interface : Native Win32
interface for Win NT & 2000
Gap handling : Appended to
previous track

Used output format : User Defined Encoder
Selected bitrate : 32 kBit/s
Quality : High
Add ID3 tag : No
Command line compressor : C:\Program Files
(x86)\FLAC\flac.exe
Additional command line options : -T "artist=%artist%" -T
"title=%title%" -T "album=%albumtitle%" -T "date=%year%"
-T "tracknumber=%tracknr%" -T "genre=%genre%" -8 %source%

TOC of the extracted CD

Track | Start | Length | Start sector | End sector
---------------------------------------------------------
1 | 0:00.00 | 2:33.53 | 0 | 11527
2 | 2:33.53 | 3:38.42 | 11528 | 27919
3 | 6:12.20 | 3:23.08 | 27920 | 43152
4 | 9:35.28 | 0:16.01 | 43153 | 44353
5 | 9:51.29 | 4:54.41 | 44354 | 66444
6 | 14:45.70 | 5:01.01 | 66445 | 89020
7 | 19:46.71 | 4:40.49 | 89021 | 110069
8 | 24:27.45 | 3:15.51 | 110070 | 124745
9 | 27:43.21 | 2:44.57 | 124746 | 137102
10 | 30:28.03 | 3:28.48 | 137103 | 152750
11 | 33:56.51 | 3:12.35 | 152751 | 167185
12 | 37:09.11 | 2:57.49 | 167186 | 180509
13 | 40:06.60 | 3:51.01 | 180510 | 197835

Track 1

Filename
G:\ja\201-Ja_Rule-Intro-_Fuck_Fame_(Feat._Leah_Siegal).wav

Pre-gap length 0:00:02.00

Peak level 99.8 %
Extraction speed 2.1 X
Track quality 99.9 %
Test CRC DCF7B8CB
Copy CRC DCF7B8CB
Track not present in AccurateRip database
Copy OK

Track 2

Filename
G:\ja\202-Ja_Rule-Real_Life_Fantasy_(Feat._Anita_Louise).w
av

Peak level 99.8 %
Extraction speed 3.1 X
Track quality 100.0 %
Test CRC 3B581131
Copy CRC 3B581131
Track not present in AccurateRip database
Copy OK

Track 3

Filename
G:\ja\203-Ja_Rule-Parachute__(Feat._Leah_Siegal).wav

Peak level 99.8 %
Extraction speed 3.3 X
Track quality 100.0 %
Test CRC 9FC9F06D
Copy CRC 9FC9F06D
Track not present in AccurateRip database
Copy OK

Track 4

Filename G:\ja\204-Ja_Rule-Superstar_(Intro).wav

Peak level 69.0 %
Extraction speed 1.1 X
Track quality 100.0 %
Test CRC BE11A099
Copy CRC BE11A099
Track not present in AccurateRip database
Copy OK

Track 5

Filename G:\ja\205-Ja_Rule-Superstar.wav

Peak level 99.8 %
Extraction speed 3.7 X
Track quality 100.0 %
Test CRC C9465EB1
Copy CRC C9465EB1
Track not present in AccurateRip database
Copy OK

Track 6

Filename G:\ja\206-Ja_Rule-Black_Vodka.wav

Peak level 99.8 %
Extraction speed 4.0 X
Track quality 100.0 %
Test CRC ACE274A8
Copy CRC ACE274A8
Track not present in AccurateRip database
Copy OK

Track 7

Filename
G:\ja\207-Ja_Rule-Drown_(Feat._Somong_&_Kenny_Dark).wav

Peak level 99.8 %
Extraction speed 4.2 X
Track quality 100.0 %
Test CRC 832A87AC
Copy CRC 832A87AC
Track not present in AccurateRip database
Copy OK

Track 8

Filename
G:\ja\208-Ja_Rule-Never_Had_Time_(Feat._Jon_Doe).wav

Peak level 99.8 %
Extraction speed 4.2 X
Track quality 100.0 %
Test CRC 508CC7BD
Copy CRC 508CC7BD
Track not present in AccurateRip database
Copy OK

Track 9

Filename
G:\ja\209-Ja_Rule-Strangr_Days_(Feat._700_&_Ramzo).wav

Peak level 99.8 %
Extraction speed 4.2 X
Track quality 100.0 %
Test CRC 48F41F1C
Copy CRC 48F41F1C
Track not present in AccurateRip database
Copy OK

Track 10

Filename
G:\ja\210-Ja_Rule-To_The_Top_(Feat._Kalina_Of_Dirty_Money)
.wav

Peak level 99.8 %
Extraction speed 4.5 X
Track quality 100.0 %
Test CRC B784675F
Copy CRC B784675F
Track not present in AccurateRip database
Copy OK

Track 11

Filename
G:\ja\211-Ja_Rule-Pray_4_The_Day_(Feat._Leah_Siegal).wav

Pre-gap length 0:00:01.52

Peak level 99.8 %
Extraction speed 4.6 X
Track quality 100.0 %
Test CRC 864123B4
Copy CRC 864123B4
Track not present in AccurateRip database
Copy OK

Track 12

Filename G:\ja\212-Ja_Rule-Believe.wav

Peak level 99.8 %
Extraction speed 4.6 X
Track quality 100.0 %
Test CRC FD9ACCB9
Copy CRC FD9ACCB9
Track not present in AccurateRip database
Copy OK

Track 13

Filename G:\ja\213-Ja_Rule-Spun_A_Web_(Feat._Amina).wav

Pre-gap length 0:00:00.74

Peak level 100.0 %
Extraction speed 4.9 X
Track quality 100.0 %
Test CRC B17DBF79
Copy CRC B17DBF79
Track not present in AccurateRip database
Copy OK

None of the tracks are present in the AccurateRip database

No errors occurred

End of status report

==== Log checksum
12B4B0B6F0DCD3E88416FD7E4134A58149A7E7269C42CC96AD553125E4
9DA30A ====
REM GENRE Hip-Hop
REM DATE 2012
REM DISCID BD0A4D0D
REM COMMENT "ExactAudioCopy v1.0b3"
CATALOG 0044003149229
PERFORMER "Ja Rule"
TITLE "PIL2"
FILE "01-ja_rule-intro_fuck_fame_(feat._leah_siegal).wav" WAVE
TRACK 01 AUDIO
TITLE "Intro: Fuck Fame (Feat. Leah Siegal)"
PERFORMER "Ja Rule"
ISRC USZXT1130099
INDEX 01 00:00:00
FILE "02-ja_rule-real_life_fantasy_(feat._anita_louise).wav" WAVE
TRACK 02 AUDIO
TITLE "Real Life Fantasy (Feat. Anita Louise)"
PERFORMER "Ja Rule"
ISRC USZXT1130101
INDEX 01 00:00:00
FILE "03-ja_rule-parachute_(feat._leah_siegal).wav" WAVE
TRACK 03 AUDIO
TITLE "Parachute (Feat. Leah Siegal)"
PERFORMER "Ja Rule"
ISRC USZXT1130104
INDEX 01 00:00:00
FILE "04-ja_rule-superstar_(intro).wav" WAVE
TRACK 04 AUDIO
TITLE "Superstar (Intro)"
PERFORMER "Ja Rule"
ISRC USZXT1130105
INDEX 01 00:00:00
FILE "05-ja_rule-superstar.wav" WAVE
TRACK 05 AUDIO
TITLE "Superstar"
PERFORMER "Ja Rule"
ISRC USZXT1130108
INDEX 01 00:00:00
FILE "06-ja_rule-black_vodka.wav" WAVE
TRACK 06 AUDIO
TITLE "Black Vodka"
PERFORMER "Ja Rule"
ISRC USZXT1130110
INDEX 01 00:00:00
FILE "07-ja_rule-drown_(feat._somong_and_kenny_dark).wav" WAVE
TRACK 07 AUDIO
TITLE "Drown (Feat. Somong & Kenny Dark)"
PERFORMER "Ja Rule"
ISRC USZXT1130113
INDEX 01 00:00:00
FILE "08-ja_rule-never_had_time_(feat._jon_doe).wav" WAVE
TRACK 08 AUDIO
TITLE "Never Had Time (Feat. Jon Doe)"
PERFORMER "Ja Rule"
ISRC USZXT1130122
INDEX 01 00:00:00
FILE "09-ja_rule-strange_days_(feat._700_and_ramzo).wav" WAVE
TRACK 09 AUDIO
TITLE "Strange Days (Feat. 700 & Ramzo)"
PERFORMER "Ja Rule"
ISRC USZXT1130123
INDEX 01 00:00:00
FILE "10-ja_rule-to_the_top_(feat._kalina_of_dirty_money).wav" WAVE
TRACK 10 AUDIO
TITLE "To The Top (Feat. Kalina Of Dirty Money)"
PERFORMER "Ja Rule"
ISRC USZXT1130124
INDEX 01 00:00:00
TRACK 11 AUDIO
TITLE "Pray 4 The Day (Feat. Leah Siegal)"
PERFORMER "Ja Rule"
ISRC USZXT1130125
INDEX 00 03:26:71
FILE "11-ja_rule-pray_4_the_day_(feat._leah_siegal).wav" WAVE
INDEX 01 00:00:00
FILE "12-ja_rule-believe.wav" WAVE
TRACK 12 AUDIO
TITLE "Believe"
PERFORMER "Ja Rule"
ISRC USZXT1130509
INDEX 01 00:00:00
TRACK 13 AUDIO
TITLE "Spun A Web (Feat. Amina)"
PERFORMER "Ja Rule"
ISRC USZXT1134559
INDEX 00 02:56:50
FILE "13-ja_rule-spun_a_web_(feat._amina).wav" WAVE
INDEX 01 00:00:00
info [Профиль]  [ЛС] 
Показать сообщения:    
Ответить на тему

Текущее время: 15-Июн 14:02

Часовой пояс: GMT + 4



Вы не можете начинать темы
Вы не можете отвечать на сообщения
Вы не можете редактировать свои сообщения
Вы не можете удалять свои сообщения
Вы не можете голосовать в опросах
Вы не можете прикреплять файлы к сообщениям
Вы не можете скачивать файлы