Ошибка

(Rap) Fat Joe - Represent - 1993, FLAC (tracks+.cue), lossless

Ответить на тему
 
Автор Сообщение

F.A.N.T.O.M

Пол: Пол:Муж

Стаж: 5 месяцев 29 дней

Сообщений: 432

Россия
Рейтинг

post 20-Май-2024 22:17 0[+]

[Цитировать] 



Fat Joe - Represent




Жанр: Rap
Страна-производитель диска: USA
Год издания: 1993
Издатель (лейбл): Relativity
Номер по каталогу: 88561-1175-2
Страна: USA

Аудиокодек: FLAC (*.flac)
Тип рипа: tracks+.cue
Битрейт аудио: lossless
Продолжительность: 00:49:41
Источник (релизер): What.cd
Наличие сканов в содержимом раздачи: нет

01. Fat Joe - A Word To Da Wise
02. Fat Joe - Livin' Fat
03. Fat Joe - My Man Ski
04. Fat Joe - Bad Bad Man
05. Fat Joe - Watch The Sound (feat. Grand Puba & Diamond D)
06. Fat Joe - Flow Joe
07. Fat Joe - Da Fat Gangsta
08. Fat Joe - Shorty Gotta Fat Ass
09. Fat Joe - The Shit Is Real
10. Fat Joe - You Must Be Out Of Your Fuckin' Mind (feat. Apache & Kool G. Rap)
11. Fat Joe - I Got This In A Smash
12. Fat Joe - Another Wild Nigger From The Bronx (feat. Gismo, Kieth Kieth & King Sun)
13. Fat Joe - Get On Up
14. Fat Joe - I'm A Hit That
Exact Audio Copy V0.99 prebeta 4 from 23. January 2008

EAC extraction logfile from 15. May 2009, 15:30

Fat Joe / Represent

Used drive : MATSHITAUJ-840D Adapter: 1 ID: 0

Read mode : Secure
Utilize accurate stream : Yes
Defeat audio cache : Yes
Make use of C2 pointers : No

Read offset correction : 102
Overread into Lead-In and Lead-Out : No
Fill up missing offset samples with silence : Yes
Delete leading and trailing silent blocks : No
Null samples used in CRC calculations : Yes
Used interface : Installed external ASPI interface
Gap handling : Appended to previous track

Used output format : User Defined Encoder
Selected bitrate : 192 kBit/s
Quality : High
Add ID3 tag : No
Command line compressor : C:\Programme\Exact Audio Copy\Flac\flac.exe
Additional command line options : -V -8 -T "artist=%a" -T "title=%t" -T "album=%g" -T "date=%y" -T "tracknumber=%n" -T "genre=%m" %s

TOC of the extracted CD

Track | Start | Length | Start sector | End sector
---------------------------------------------------------
1 | 0:00.47 | 0:21.03 | 47 | 1624
2 | 0:21.50 | 3:38.17 | 1625 | 17991
3 | 3:59.67 | 0:49.38 | 17992 | 21704
4 | 4:49.30 | 3:50.15 | 21705 | 38969
5 | 8:39.45 | 4:22.10 | 38970 | 58629
6 | 13:01.55 | 4:17.12 | 58630 | 77916
7 | 17:18.67 | 4:07.08 | 77917 | 96449
8 | 21:26.00 | 3:18.47 | 96450 | 111346
9 | 24:44.47 | 4:44.68 | 111347 | 132714
10 | 29:29.40 | 3:57.47 | 132715 | 150536
11 | 33:27.12 | 4:11.60 | 150537 | 169421
12 | 37:38.72 | 5:31.38 | 169422 | 194284
13 | 43:10.35 | 4:06.37 | 194285 | 212771
14 | 47:16.72 | 2:24.50 | 212772 | 223621

Track 1

Filename C:\EACrips\01 - Fat Joe - A Word To Da Wise.wav

Pre-gap length 0:00:02.62

Peak level 50.5 %
Track quality 100.0 %
Test CRC 21FFB70F
Copy CRC 21FFB70F
Accurately ripped (confidence 1) [C61B8526]
Copy OK

Track 2

Filename C:\EACrips\02 - Fat Joe - Livin' Fat.wav

Peak level 100.0 %
Track quality 100.0 %
Test CRC 9986A86A
Copy CRC 9986A86A
Accurately ripped (confidence 1) [726FB0B9]
Copy OK

Track 3

Filename C:\EACrips\03 - Fat Joe - My Man Ski.wav

Pre-gap length 0:00:01.22

Peak level 87.4 %
Track quality 100.0 %
Test CRC 1B23E221
Copy CRC 1B23E221
Accurately ripped (confidence 1) [725613BB]
Copy OK

Track 4

Filename C:\EACrips\04 - Fat Joe - Bad Bad Man.wav

Peak level 100.0 %
Track quality 100.0 %
Test CRC D5372E50
Copy CRC D5372E50
Accurately ripped (confidence 1) [7B42282F]
Copy OK

Track 5

Filename C:\EACrips\05 - Fat Joe - Watch The Sound (feat. Grand Puba & Diamond D).wav

Peak level 100.0 %
Track quality 100.0 %
Test CRC 97E41F0F
Copy CRC 97E41F0F
Accurately ripped (confidence 1) [BFF5F7AD]
Copy OK

Track 6

Filename C:\EACrips\06 - Fat Joe - Flow Joe.wav

Peak level 100.0 %
Track quality 100.0 %
Test CRC EC5406A0
Copy CRC EC5406A0
Accurately ripped (confidence 1) [793DD060]
Copy OK

Track 7

Filename C:\EACrips\07 - Fat Joe - Da Fat Gangsta.wav

Pre-gap length 0:00:00.36

Peak level 88.2 %
Track quality 100.0 %
Test CRC D149BAA7
Copy CRC D149BAA7
Accurately ripped (confidence 1) [76C0DB9F]
Copy OK

Track 8

Filename C:\EACrips\08 - Fat Joe - Shorty Gotta Fat Ass.wav

Pre-gap length 0:00:00.49

Peak level 90.8 %
Track quality 100.0 %
Test CRC 0D9A1195
Copy CRC 0D9A1195
Accurately ripped (confidence 1) [AA26ABAD]
Copy OK

Track 9

Filename C:\EACrips\09 - Fat Joe - The Shit Is Real.wav

Pre-gap length 0:00:00.76

Peak level 90.6 %
Track quality 99.9 %
Test CRC 992ED0F9
Copy CRC 992ED0F9
Accurately ripped (confidence 1) [7862AD8D]
Copy OK

Track 10

Filename C:\EACrips\10 - Fat Joe - You Must Be Out Of Your Fuckin' Mind (feat. Apache & Kool G. Rap).wav

Peak level 94.7 %
Track quality 100.0 %
Test CRC 76264445
Copy CRC 76264445
Cannot be verified as accurate (confidence 1) [873C4EEF], AccurateRip returned [65727C70]
Copy OK

Track 11

Filename C:\EACrips\11 - Fat Joe - I Got This In A Smash.wav

Peak level 94.7 %
Track quality 100.0 %
Test CRC 7C2B1298
Copy CRC 7C2B1298
Accurately ripped (confidence 1) [157DB99A]
Copy OK

Track 12

Filename C:\EACrips\12 - Fat Joe - Another Wild Nigger From The Bronx (feat. Gismo, Kieth Kieth & King Sun).wav

Pre-gap length 0:00:00.42

Peak level 95.0 %
Track quality 100.0 %
Test CRC 601548E9
Copy CRC 601548E9
Cannot be verified as accurate (confidence 1) [5CC3510A], AccurateRip returned [13544A94]
Copy OK

Track 13

Filename C:\EACrips\13 - Fat Joe - Get On Up.wav

Pre-gap length 0:00:01.40

Peak level 75.2 %
Track quality 100.0 %
Test CRC D3FD856D
Copy CRC D3FD856D
Accurately ripped (confidence 1) [EB7A799E]
Copy OK

Track 14

Filename C:\EACrips\14 - Fat Joe - I'm A Hit That.wav

Pre-gap length 0:00:00.49

Peak level 77.7 %
Track quality 100.0 %
Test CRC 9BD0B315
Copy CRC 9BD0B315
Accurately ripped (confidence 1) [C8BB2ED5]
Copy OK

12 track(s) accurately ripped
2 track(s) could not be verified as accurate

Some tracks could not be verified as accurate

No errors occurred

End of status report
REM GENRE Hip-Hop
REM DATE 1993
REM DISCID AB0BA50E
REM COMMENT "ExactAudioCopy v0.99pb4"
PERFORMER "Fat Joe "
TITLE "Represent"
FILE "01 - Fat Joe - A Word To Da Wise.wav" WAVE
TRACK 01 AUDIO
TITLE "A Word To Da Wise"
PERFORMER "Fat Joe "
PREGAP 00:00:47
INDEX 01 00:00:00
FILE "02 - Fat Joe - Livin' Fat.wav" WAVE
TRACK 02 AUDIO
TITLE "Livin' Fat"
PERFORMER "Fat Joe "
INDEX 01 00:00:00
TRACK 03 AUDIO
TITLE "My Man Ski"
PERFORMER "Fat Joe "
INDEX 00 03:37:00
FILE "03 - Fat Joe - My Man Ski.wav" WAVE
INDEX 01 00:00:00
FILE "04 - Fat Joe - Bad Bad Man.wav" WAVE
TRACK 04 AUDIO
TITLE "Bad Bad Man"
PERFORMER "Fat Joe "
INDEX 01 00:00:00
FILE "05 - Fat Joe - Watch The Sound (feat. Grand Puba & Diamond D).wav" WAVE
TRACK 05 AUDIO
TITLE "Watch The Sound (feat. Grand Puba & Diamond D)"
PERFORMER "Fat Joe "
INDEX 01 00:00:00
FILE "06 - Fat Joe - Flow Joe.wav" WAVE
TRACK 06 AUDIO
TITLE "Flow Joe"
PERFORMER "Fat Joe "
INDEX 01 00:00:00
TRACK 07 AUDIO
TITLE "Da Fat Gangsta"
PERFORMER "Fat Joe "
INDEX 00 04:16:60
FILE "07 - Fat Joe - Da Fat Gangsta.wav" WAVE
INDEX 01 00:00:00
TRACK 08 AUDIO
TITLE "Shorty Gotta Fat Ass"
PERFORMER "Fat Joe "
INDEX 00 04:06:46
FILE "08 - Fat Joe - Shorty Gotta Fat Ass.wav" WAVE
INDEX 01 00:00:00
TRACK 09 AUDIO
TITLE "The Shit Is Real"
PERFORMER "Fat Joe "
INDEX 00 03:17:65
FILE "09 - Fat Joe - The Shit Is Real.wav" WAVE
INDEX 01 00:00:00
FILE "10 - Fat Joe - You Must Be Out Of Your Fuckin' Mind (feat. Apache & Kool G. Rap).wav" WAVE
TRACK 10 AUDIO
TITLE "You Must Be Out Of Your Fuckin' Mind (feat. Apache & Kool G. Rap)"
PERFORMER "Fat Joe "
INDEX 01 00:00:00
FILE "11 - Fat Joe - I Got This In A Smash.wav" WAVE
TRACK 11 AUDIO
TITLE "I Got This In A Smash"
PERFORMER "Fat Joe "
INDEX 01 00:00:00
TRACK 12 AUDIO
TITLE "Another Wild Nigger From The Bronx (feat. Gismo, Kieth Kieth & King Sun)"
PERFORMER "Fat Joe "
INDEX 00 04:11:28
FILE "12 - Fat Joe - Another Wild Nigger From The Bronx (feat. Gismo, Kieth Kieth & King Sun).wav" WAVE
INDEX 01 00:00:00
TRACK 13 AUDIO
TITLE "Get On Up"
PERFORMER "Fat Joe "
INDEX 00 05:30:08
FILE "13 - Fat Joe - Get On Up.wav" WAVE
INDEX 01 00:00:00
TRACK 14 AUDIO
TITLE "I'm A Hit That"
PERFORMER "Fat Joe "
INDEX 00 04:06:00
FILE "14 - Fat Joe - I'm A Hit That.wav" WAVE
INDEX 01 00:00:00
-----------------------

DON'T MODIFY THIS FILE

-----------------------

PERFORMER: auCDtect Task Manager, ver. 1.5.1RC6 build 1.5.1.7
Copyright (c) 2008-2010 y-soft. All rights reserved
http://y-soft.org

ANALYZER: auCDtect: CD records authenticity detector, version 0.8.2
Copyright (c) 2004 Oleg Berngardt. All rights reserved.
Copyright (c) 2004 Alexander Djourik. All rights reserved.

FILE: 14 - Fat Joe - I'm A Hit That.flac
Size: 13460666 Hash: A64C3E9BF43695D76DC4E9CE8ACF4E50 Accuracy: -m0
Conclusion: CDDA 100%
Signature: 458149D8D89477E224E122E445D37DB3918AEA01
FILE: 13 - Fat Joe - Get On Up.flac
Size: 23389534 Hash: C1B3F4859BA95F8C286E61803EF2E908 Accuracy: -m0
Conclusion: CDDA 100%
Signature: BD7E67C1EC204D5402CEE7231136AA8338A35C1E
FILE: 12 - Fat Joe - Another Wild Nigger From The Bronx (feat. Gismo, Kieth Kieth & King Sun).flac
Size: 34344262 Hash: 4780E709AA658DA6717C1BE79A37DBC2 Accuracy: -m0
Conclusion: CDDA 100%
Signature: 38F129D98868A0EA3F3079332E75113DF94D8F20
FILE: 11 - Fat Joe - I Got This In A Smash.flac
Size: 25278163 Hash: 11E7D4C786C508C5FA076582035D7ACF Accuracy: -m0
Conclusion: CDDA 100%
Signature: 3A3F6A65ADE4C5D645F0D40781B2F6DE4C950B08
FILE: 10 - Fat Joe - You Must Be Out Of Your Fuckin' Mind (feat. Apache & Kool G. Rap).flac
Size: 21975851 Hash: 5627F12DF3417B088FD7EE54407343F0 Accuracy: -m0
Conclusion: CDDA 100%
Signature: F1629DF25B661C1915BD9F0116FF750A91AC927D
FILE: 09 - Fat Joe - The Shit Is Real.flac
Size: 27137907 Hash: A388FE7129B311873AED7030BB1021D5 Accuracy: -m0
Conclusion: CDDA 100%
Signature: 61EB72012B64C6E368AC5EE6B52A3EE94411CC6D
FILE: 08 - Fat Joe - Shorty Gotta Fat Ass.flac
Size: 19317632 Hash: B6576B9B6D3201E9D17B11E76C5999B6 Accuracy: -m0
Conclusion: CDDA 100%
Signature: 92EA8A138249AEB19000FBEEA85E3D9ED4FA8F75
FILE: 07 - Fat Joe - Da Fat Gangsta.flac
Size: 21074196 Hash: 2959C667E309A80B84B1A9A50832782F Accuracy: -m0
Conclusion: CDDA 100%
Signature: C6FC8DA48CC894CC6E3068A7179DF1D285E7534C
FILE: 06 - Fat Joe - Flow Joe.flac
Size: 23417940 Hash: 1D71CDA5189A1061B1F92A195DB28B6A Accuracy: -m0
Conclusion: CDDA 100%
Signature: DF91EB37CC0DF857C7AFEB0BDF0A87487F5FE53E
FILE: 05 - Fat Joe - Watch The Sound (feat. Grand Puba & Diamond D).flac
Size: 25746118 Hash: E62DFD5FA2D713413EB068C68C4AB2AA Accuracy: -m0
Conclusion: CDDA 100%
Signature: F4D9542B6EC2B372A0B86A6CC795D2C38E1FF8BA
FILE: 04 - Fat Joe - Bad Bad Man.flac
Size: 21595631 Hash: 2DC7BD0B1971EEB254E58AD448611112 Accuracy: -m0
Conclusion: CDDA 100%
Signature: 8373D1FCAF6E2E5EA63E474E965A5FDD66685E35
FILE: 03 - Fat Joe - My Man Ski.flac
Size: 4146482 Hash: 1805D51215DEF6B83B2419520B5CDC85 Accuracy: -m0
Conclusion: CDDA 100%
Signature: 37A9A2FCAE61E530A83F4FC8E828B69FB4B8B882
FILE: 02 - Fat Joe - Livin' Fat.flac
Size: 22022585 Hash: 295F692CC9EDA2914C0426753908EEC2 Accuracy: -m0
Conclusion: CDDA 100%
Signature: 62AA9D5D7B96131F1D9BD29B2290CA6CFE7EE372
FILE: 01 - Fat Joe - A Word To Da Wise.flac
Size: 1563911 Hash: 0D7BB5AA1ED8D7498854BEAB0F904964 Accuracy: -m0
Conclusion: CDDA 100%
Signature: 79A8438A1053CE333B99B7EE77066FD0BCE3DC05
info [Профиль]  [ЛС] 
Показать сообщения:    
Ответить на тему

Текущее время: 20-Июн 08:58

Часовой пояс: GMT + 4



Вы не можете начинать темы
Вы не можете отвечать на сообщения
Вы не можете редактировать свои сообщения
Вы не можете удалять свои сообщения
Вы не можете голосовать в опросах
Вы не можете прикреплять файлы к сообщениям
Вы не можете скачивать файлы