Ошибка

(Instrumental Hip-Hop, Jazz-Hop, Beats, Chillout, Lo-Fi, Abstract Hip-Hop, Beats) [WEB] Plushka (+Case B1, Case B1zzie, kbkbts.) - Дискография (2015-2023), 23 releases, FLAC (tracks), lossless

Ответить на тему
 
Автор Сообщение

F.A.N.T.O.M

Пол: Пол:Муж

Стаж: 5 месяцев 25 дней

Сообщений: 421

Россия
Рейтинг

post 19-Май-2024 17:59 0[+]

[Цитировать] 

Plushka - Дискография



Жанр: Instrumental Hip-Hop/Jazz-Hop/Beats/Chillout/Lo-Fi/Abstract Hip-Hop/Beats
Год издания данного носителя: 2015-2023
Страна-производитель носителя: Беларусь
Аудио кодек: FLAC
Тип рипа: tracks
Битрейт аудио: lossless
Продолжительность: 07:38:27
Наличие сканов в содержимом раздачи: Да

Продолжительность: 00:20:34
Трэклист:
01. Thomas Newman - Any Other Name (Plushka Cover) (3:10)
02. Plushka - Fellow Feeling (2:06)
03. Plushka - Sad Girls (3:04)
04. Plushka - Abstraction (2:58)
05. Plushka - Aura (2:14)
06. Plushka - Come Back (ft. Mazur) (3:49)
07. Plushka - Oblivion (3:16)
-----------------------

DON'T MODIFY THIS FILE

-----------------------

PERFORMER: auCDtect Task Manager, ver. 1.6.0 RC1 build 1.6.0.1
Copyright (c) 2008-2010 y-soft. All rights reserved
http://y-soft.org

ANALYZER: auCDtect: CD records authenticity detector, version 0.8.2
Copyright (c) 2004 Oleg Berngardt. All rights reserved.
Copyright (c) 2004 Alexander Djourik. All rights reserved.

FILE: 07. Plushka - Oblivion.flac
Size: 11561818 Hash: 9413C7A52E4F931868BC4BE895D883C5 Accuracy: -m0
Conclusion: CDDA 42%
Signature: 22EB5B19B87E61DAC5343E67EB99626B50A365BE
FILE: 06. Plushka - Come Back (ft. Mazur).flac
Size: 18644193 Hash: 4F7381F867F9787790B0D69ACFCD6D76 Accuracy: -m0
Conclusion: MPEG 89%
Signature: 83072FD49EAC446336A18598E482CEA3E3E31B80
FILE: 05. Plushka - Aura.flac
Size: 18592313 Hash: E169C7ED165C188B71197E4429436AC9 Accuracy: -m0
Conclusion: ???
Signature: B3552C7A5F8855569012FAD22C085C84B6C4D034
FILE: 04. Plushka - Abstraction.flac
Size: 14929088 Hash: DE61EB0EE86F295DA137E1CD2C347C86 Accuracy: -m0
Conclusion: MPEG 99%
Signature: 4A6DC0BB9B4434E8CCFC6A797B9211DD40800082
FILE: 03. Plushka - Sad Girls.flac
Size: 13155327 Hash: 810AD13662777CC4F61ADE7C2474A9A9 Accuracy: -m0
Conclusion: MPEG 100%
Signature: 058CAA1C0571AC83230704C968E744E635B8849D
FILE: 02. Plushka - Fellow Feeling.flac
Size: 10622414 Hash: B2D790C9E37E802DA99680EBFAC10472 Accuracy: -m0
Conclusion: MPEG 95%
Signature: E82D4D48FEA9ABD7497FF2CFC1A89CB8ACEE1599
FILE: 01. Thomas Newman - Any Other Name (Plushka Cover).flac
Size: 18706979 Hash: 97E62D46A7055EB5B5543B817B7FBC97 Accuracy: -m0
Conclusion: ???
Signature: 7FB20495E83F2BBCA7C53DE66C82C45BF6D51B0F
foobar2000 1.4 / Dynamic Range Meter 1.1.1 
log date: 2023-09-01 13:29:17

--------------------------------------------------------------------------------
Analyzed: Plushka / Aura (1-6)
Thomas Newman / Aura (7)
--------------------------------------------------------------------------------

DR Peak RMS Duration Track
--------------------------------------------------------------------------------
DR9 0.00 dB -12.56 dB 2:05 02-Fellow Feeling
DR11 0.00 dB -14.59 dB 3:04 03-Sad Girls
DR7 0.00 dB -12.33 dB 2:58 04-Abstraction
DR4 0.00 dB -6.37 dB 2:13 05-Aura
DR8 0.00 dB -11.20 dB 3:48 06-Come Back (ft. Mazur)
DR8 0.00 dB -11.93 dB 3:16 07-Oblivion
DR8 0.00 dB -11.40 dB 3:10 01-Any Other Name (Plushka Cover)
--------------------------------------------------------------------------------

Number of tracks: 7
Official DR value: DR8

Samplerate: 44100 Hz
Channels: 2
Bits per sample: 16
Bitrate: 759 kbps
Codec: FLAC
================================================================================
[/i]
Продолжительность: 00:13:58
Трэклист:
01. Intro (1:24)
02. Soft Touch (1:42)
03. Again, Yes (2:22)
04. What Do You See (2:49)
05. Fall Down Seven Times, Stand Up Eight (1:35)
06. I'll Get Everything I Want (3:08)
07. Outro (1:01)
-----------------------

DON'T MODIFY THIS FILE

-----------------------

PERFORMER: auCDtect Task Manager, ver. 1.6.0 RC1 build 1.6.0.1
Copyright (c) 2008-2010 y-soft. All rights reserved
http://y-soft.org

ANALYZER: auCDtect: CD records authenticity detector, version 0.8.2
Copyright (c) 2004 Oleg Berngardt. All rights reserved.
Copyright (c) 2004 Alexander Djourik. All rights reserved.

FILE: 07. Outro.flac
Size: 4066361 Hash: 85C1ABC91049513332F2B3C84F55AD78 Accuracy: -m0
Conclusion: MPEG 92%
Signature: 19B50D8FBF9FEE8E2980D0FCEB2F390F8DE6F6E0
FILE: 06. I'll Get Everything I Want.flac
Size: 15908414 Hash: C2DFC1732DCEB0E09A52ED4353BA8B09 Accuracy: -m0
Conclusion: MPEG 95%
Signature: 3F43F2910E90CE7123E7B44C84F56B8B4B9B4C78
FILE: 05. Fall Down Seven Times, Stand Up Eight.flac
Size: 7641712 Hash: DBDB86AB1894C10D528D2B4D41EB7C18 Accuracy: -m0
Conclusion: MPEG 92%
Signature: CC2C2594508FAFD33725A616D079563B3391DE5C
FILE: 04. What Do You See.flac
Size: 15675133 Hash: 9174F8689960E495A9F33F6056280A01 Accuracy: -m0
Conclusion: CDDA 42%
Signature: 099B31F54321F6FFFF5723D9A74F04CC3056F1FC
FILE: 03. Again, Yes.flac
Size: 12820876 Hash: 49B5AD0EBFAB3DA115FE03695044E559 Accuracy: -m0
Conclusion: CDDA 100%
Signature: D13F35BC725B333E87D761146981FBF794FEBFAD
FILE: 02. Soft Touch.flac
Size: 8393955 Hash: 104FF4E4801F4013B51DB70E16B359B0 Accuracy: -m0
Conclusion: MPEG 95%
Signature: 6C792CA1A97EFA8100ECEABC82848A4A42CA674D
FILE: 01. Intro.flac
Size: 6253664 Hash: A7531BED26CFBD901D0276C31CF6B3FC Accuracy: -m0
Conclusion: MPEG 100%
Signature: 70AC5193AFE18C8426FFBA64BAF3FF878D87124C
foobar2000 1.4 / Dynamic Range Meter 1.1.1 
log date: 2023-09-01 13:29:29

--------------------------------------------------------------------------------
Analyzed: Plushka / What Do You See
--------------------------------------------------------------------------------

DR Peak RMS Duration Track
--------------------------------------------------------------------------------
DR9 0.00 dB -13.11 dB 1:23 01-Intro
DR9 0.00 dB -12.60 dB 1:41 02-Soft Touch
DR8 0.00 dB -11.58 dB 2:22 03-Again, Yes
DR8 0.00 dB -11.51 dB 2:48 04-What Do You See
DR8 0.00 dB -10.43 dB 1:34 05-Fall Down Seven Times, Stand Up Eight
DR8 0.00 dB -11.29 dB 3:08 06-I'll Get Everything I Want
DR9 0.00 dB -13.56 dB 1:01 07-Outro
--------------------------------------------------------------------------------

Number of tracks: 7
Official DR value: DR9

Samplerate: 44100 Hz
Channels: 2
Bits per sample: 16
Bitrate: 526 kbps
Codec: FLAC
================================================================================
[/i]
Продолжительность: 00:19:01
Трэклист:
01. Night City (2:27)
02. Children Illusions (3:13)
03. Take It Easy (2:19)
04. August (2:28)
05. Error (2:19)
06. Level Up (ft. Ksenia Kosach) (3:05)
07. Candle Light (3:13)
-----------------------

DON'T MODIFY THIS FILE

-----------------------

PERFORMER: auCDtect Task Manager, ver. 1.6.0 RC1 build 1.6.0.1
Copyright (c) 2008-2010 y-soft. All rights reserved
http://y-soft.org

ANALYZER: auCDtect: CD records authenticity detector, version 0.8.2
Copyright (c) 2004 Oleg Berngardt. All rights reserved.
Copyright (c) 2004 Alexander Djourik. All rights reserved.

FILE: 07. Candle Light.flac
Size: 15743136 Hash: C2B169083D1D67787A4678E905DAAF08 Accuracy: -m0
Conclusion: CDDA 43%
Signature: 73B78078DD6FD267D403DE3AFFC063D9B316D2A0
FILE: 06. Level Up (ft. Ksenia Kosach).flac
Size: 16513158 Hash: 27DB26707EC37289A8ACE188CC9A03AD Accuracy: -m0
Conclusion: MPEG 98%
Signature: EFE23FEACC30107D5944AD7D7F90B6E602D46E38
FILE: 05. Error.flac
Size: 10632401 Hash: D5C7E4203EE9AC79F35AF5F141B89E70 Accuracy: -m0
Conclusion: MPEG 95%
Signature: 372ACEBA591FA7218311BFE866A60364B7C2D466
FILE: 04. August.flac
Size: 10961632 Hash: A03D2751C4B9CCD833C14745BC972751 Accuracy: -m0
Conclusion: MPEG 92%
Signature: A90A486F9AE49145837BD9AD9D795CD49C761E89
FILE: 03. Take It Easy.flac
Size: 13080400 Hash: E1EE20608A6F37129608C52F8E3B68B0 Accuracy: -m0
Conclusion: MPEG 95%
Signature: 77A1E8D9BD647CE991EA02F6E79F61776B140CF5
FILE: 02. Children Illusions.flac
Size: 16584353 Hash: 3253A37A527DD460130BB8998102B12B Accuracy: -m0
Conclusion: MPEG 95%
Signature: C19695CB3E30325FE9E4BAE4405956DC48986B2B
FILE: 01. Night City.flac
Size: 11673330 Hash: 9264811C8BA239444FB8227B037916C9 Accuracy: -m0
Conclusion: MPEG 79%
Signature: CAAB4ECAEEE1AC905EA8FC0E7DBE201F8C14139F
foobar2000 1.4 / Dynamic Range Meter 1.1.1 
log date: 2023-09-01 13:29:45

--------------------------------------------------------------------------------
Analyzed: Plushka / Night City
--------------------------------------------------------------------------------

DR Peak RMS Duration Track
--------------------------------------------------------------------------------
DR7 0.00 dB -11.17 dB 2:27 01-Night City
DR7 0.00 dB -10.28 dB 3:12 02-Children Illusions
DR9 -0.15 dB -12.50 dB 2:18 03-Take It Easy
DR7 0.00 dB -10.65 dB 2:28 04-August
DR6 0.00 dB -9.31 dB 2:18 05-Error
DR7 0.00 dB -11.31 dB 3:05 06-Level Up (ft. Ksenia Kosach)
DR13 0.00 dB -14.97 dB 3:13 07-Candle Light
--------------------------------------------------------------------------------

Number of tracks: 7
Official DR value: DR8

Samplerate: 44100 Hz
Channels: 2
Bits per sample: 16
Bitrate: 635 kbps
Codec: FLAC
================================================================================
[/i]
Продолжительность: 01:52:14
Трэклист:
01. Plushka - Stone (4:23)
02. Plushka - I'll Be Real With You (2:57)
03. Plushka - Revolution (4:19)
04. Mazur ft. Plushka - Remember Our Names (3:46)
05. Plushka feat. MazuR - Fight Club (5:10)
06. Plushka - Enya - Only Time (Plushka Remix) (4:56)
07. Plushka - My Home - Your Home, Bro (4:15)
08. Plushka - How To Wake Up (3:35)
09. Plushka - What The Fuck Is Going On (3:53)
10. Plushka - Everyone An Architect (4:38)
11. Plushka - Apathy? (2:40)
12. Plushka - This Game Has No Name (3:45)
13. Plushka - Forgotten (2:29)
14. Plushka - Ghosts Among Us (4:06)
15. Plushka - Leonardo da Vinci (4:03)
16. Plushka - I Knew This One Girl (2:57)
17. Plushka - Now (4:02)
18. Plushka - Writer (3:21)
19. Marat Antonov ft. Tina Binina - Goodnight (Plushka Remix) (5:25)
20. Plushka & Marat Antonov - Open Your Heart (3:52)
21. Plushka - Break This Hush (4:09)
22. Plushka - Who Are You (3:26)
23. Plushka - Go For A Dream (5:05)
24. Plushka - Around Me (2:26)
25. Plushka - Kefirka (3:16)
26. Plushka - Dementia (2:44)
27. Plushka - Sea (2:05)
28. Plushka - Woman (3:36)
29. Plushka - #Drop_Out (3:51)
30. Plushka - I Want To Run Away From You (3:20)
-----------------------

DON'T MODIFY THIS FILE

-----------------------

PERFORMER: auCDtect Task Manager, ver. 1.6.0 RC1 build 1.6.0.1
Copyright (c) 2008-2010 y-soft. All rights reserved
http://y-soft.org

ANALYZER: auCDtect: CD records authenticity detector, version 0.8.2
Copyright (c) 2004 Oleg Berngardt. All rights reserved.
Copyright (c) 2004 Alexander Djourik. All rights reserved.

FILE: 30. Plushka - I Want To Run Away From You.flac
Size: 22942821 Hash: 600F39742BFDA32B0F1A49DA40C9C894 Accuracy: -m0
Conclusion: MPEG 99%
Signature: D1D2D204DDD0C0EFCC6EAFE90B0061370FCC33FF
FILE: 29. Plushka - #drop_Out.flac
Size: 25015941 Hash: D93C760BAED4C7D9510A46D77FFD6B95 Accuracy: -m0
Conclusion: MPEG 95%
Signature: 5205F44187A156476102304C6C966180D98F616A
FILE: 28. Plushka - Woman.flac
Size: 25385620 Hash: E8A458298F6FF618B1EA76E4878DA734 Accuracy: -m0
Conclusion: MPEG 95%
Signature: EF8181461EC8F06608D4B8F02E7A059CFE865652
FILE: 27. Plushka - Sea.flac
Size: 12684253 Hash: 8F5C9AC38BD76DCC16B03405D512E6CD Accuracy: -m0
Conclusion: ???
Signature: 29046FAAFA1ABB3141A6CBE98246A4FDCC9631F6
FILE: 26. Plushka - Dementia.flac
Size: 10087012 Hash: 0ACEA27E93C8C29EAB0B0EA96E806B37 Accuracy: -m0
Conclusion: MPEG 95%
Signature: F6715D5BB417DE191A85AC6BD9B441F19F40F856
FILE: 25. Plushka - Kefirka.flac
Size: 23944453 Hash: E03D0D57973E9668C5D5A3CF75DCB868 Accuracy: -m0
Conclusion: MPEG 95%
Signature: 162F2CD7341023C510564E458F963C0CC4644677
FILE: 24. Plushka - Around Me.flac
Size: 14113540 Hash: 608A598D07A0B4DA10723B5FCA4748CF Accuracy: -m0
Conclusion: MPEG 95%
Signature: 9210BE68FA40927121824E904516B0DAF5D5D46A
FILE: 23. Plushka - Go For A Dream.flac
Size: 22506331 Hash: 8D33C503E448F157E297C38316D33337 Accuracy: -m0
Conclusion: CDDA 43%
Signature: C6C874F17C045D30E5BD0EDC1E6083BCC7562BA0
FILE: 22. Plushka - Who Are You.flac
Size: 20734338 Hash: 959D627055F6682ECE1E1E68AFB7EEB5 Accuracy: -m0
Conclusion: MPEG 95%
Signature: 9D91F8A81BF22356F14FB151B20094A6CBF0149E
FILE: 21. Plushka - Break This Hush.flac
Size: 29155871 Hash: 0435950A5E0D824AA63ACF4F6989CE1D Accuracy: -m0
Conclusion: MPEG 95%
Signature: 8090CA163D3EF9A716B766DAE5B0FBC8C1D1BE1E
FILE: 20. Plushka & Marat Antonov - Open Your Heart.flac
Size: 28722776 Hash: 0E336097E4D5C6465CECEAD247BADCEA Accuracy: -m0
Conclusion: MPEG 95%
Signature: 66CDEE98F6A817826ACA35D59F3CA20667FA86E6
FILE: 19. Marat Antonov ft. Tina Binina - Goodnight (Plushka Remix).flac
Size: 42286112 Hash: 674CD992107C4B872D98A4A64B4B0928 Accuracy: -m0
Conclusion: MPEG 95%
Signature: D188134C0956A2ADBBCE02F18D6F2A0B0494C8D1
FILE: 18. Plushka - Writer.flac
Size: 19220596 Hash: 3806CA591CD9BBD1D4669AB9C40BAEF3 Accuracy: -m0
Conclusion: MPEG 95%
Signature: BAD54877F7B7879C961EFA4C7078D2AACB5FADCC
FILE: 17. Plushka - Now.flac
Size: 28240091 Hash: 7808B96A8B88A90E9970FDE7AC1214E1 Accuracy: -m0
Conclusion: MPEG 95%
Signature: 75124C24F4A4AD4C7CC3C19A71DCFE12F56E8906
FILE: 16. Plushka - I Knew This One Girl.flac
Size: 19575957 Hash: 46E74BD5E17E6ECA95D63D3091B653E6 Accuracy: -m0
Conclusion: MPEG 95%
Signature: 7762B476BA8F7A6CFB0213260C54C37F1F69A117
FILE: 15. Plushka - Leonardo da Vinci.flac
Size: 21609096 Hash: 010DDCF2D8C563BE4ACDC1ED70DAC96E Accuracy: -m0
Conclusion: MPEG 100%
Signature: 30E1A83320E2CDE87482EA3C31199C54A3322CB0
FILE: 14. Plushka - Ghosts Among Us.flac
Size: 25090690 Hash: 0F9EBCED525B40380B57524B62F7D492 Accuracy: -m0
Conclusion: MPEG 95%
Signature: 1F7E6147C4F20F17F182F502E8FD21E485A5D5F3
FILE: 13. Plushka - Forgotten.flac
Size: 14895976 Hash: 1C16ACE2B28702411B8B47B6B20D7C1C Accuracy: -m0
Conclusion: MPEG 95%
Signature: 96DB6F5FE94EEE6EF26C8A7B59CB95F535F3BA9A
FILE: 12. Plushka - This Game Has No Name.flac
Size: 24234079 Hash: E04539716239CA27A6C5992B6C6CDB46 Accuracy: -m0
Conclusion: MPEG 95%
Signature: 77C8A3D30C3BB4E205D9BADCEB50A4E8428BE566
FILE: 11. Plushka - Apathy.flac
Size: 16739000 Hash: 5A6CB3572041DAF51D5DF6913AB4284D Accuracy: -m0
Conclusion: MPEG 95%
Signature: 0F32874C69EC7C117ED38E0C74AFC03832D4DD08
FILE: 10. Plushka - Everyone An Architect.flac
Size: 28676479 Hash: 78A20DC5BD7516696345FFF197891FAA Accuracy: -m0
Conclusion: MPEG 95%
Signature: 40AC15A282376CF2BEB12CE5565F543BFDEDD313
FILE: 09. Plushka - What The Fuck Is Going On.flac
Size: 25219647 Hash: DFC92D089CD4BDA1423313938DF2F8FA Accuracy: -m0
Conclusion: MPEG 95%
Signature: 0CD3EE296B8D6FDC0DB6C77D449C1A5B3ACD297C
FILE: 08. Plushka - How To Wake Up.flac
Size: 19616282 Hash: FD9983BFAFD118D8CD11CB143309D38F Accuracy: -m0
Conclusion: MPEG 95%
Signature: CDABA2ECA5CAC1797854CC4A62CC49654368CE13
FILE: 07. Plushka - My Home - Your Home, Bro.flac
Size: 25229152 Hash: 18E7257DF24852AF01FDC53CC3F1B7DA Accuracy: -m0
Conclusion: MPEG 95%
Signature: 0C79B3908D4E9668AADCFA25CEF943568CE06D49
FILE: 06. Plushka - Enya - Only Time (Plushka Remix).flac
Size: 34185273 Hash: 8740F9A60EBFC4C1B97D9BC57A81E904 Accuracy: -m0
Conclusion: MPEG 95%
Signature: BDE72D8F6B06E24C7C3D1E4B02CD2470BC4C5CB8
FILE: 05. Plushka feat. MazuR - Fight Club.flac
Size: 39487099 Hash: 316556DDE556533E3B4F84C565CBB2C8 Accuracy: -m0
Conclusion: MPEG 95%
Signature: 92809D4F8C39A09547B3E6C379914B698862AE22
FILE: 04. Mazur ft. Plushka - Remember Our Names.flac
Size: 23657771 Hash: 3A98D6C58BEC06574A75810A968D0FD7 Accuracy: -m0
Conclusion: MPEG 95%
Signature: 7A59C10C6BDFD5AA98C13B923562FE32C3D09D25
FILE: 03. Plushka - Revolution.flac
Size: 25674951 Hash: C45FBDACDEB5B43A136C28485863076A Accuracy: -m0
Conclusion: MPEG 95%
Signature: 533FBAD82147CD4567BF75EC16852FAFDB650541
FILE: 02. Plushka - I'll Be Real With You.flac
Size: 18936688 Hash: 0C54CBB066C43E4B5D9FD2E53503763D Accuracy: -m0
Conclusion: MPEG 95%
Signature: AEF94B17883CE7B3235D77EA008B6CD3C98514FC
FILE: 01. Plushka - Stone.flac
Size: 30139160 Hash: F7B2637DFE2CACEAF0CBC1E2C9E5431A Accuracy: -m0
Conclusion: MPEG 95%
Signature: 846B004803FFDB4FB1B4C5F8C54F446D46005C03
foobar2000 1.4 / Dynamic Range Meter 1.1.1 
log date: 2023-09-01 13:30:29

--------------------------------------------------------------------------------
Analyzed: Marat Antonov ft. Tina Binina / 2012-2016 Archive Beats (1)
Mazur ft. Plushka / 2012-2016 Archive Beats (2)
Plushka & Marat Antonov / 2012-2016 Archive Beats (3)
Plushka feat. MazuR / 2012-2016 Archive Beats (4)
Plushka / 2012-2016 Archive Beats (5-30)
--------------------------------------------------------------------------------

DR Peak RMS Duration Track
--------------------------------------------------------------------------------
DR6 0.00 dB -7.61 dB 5:25 19-Goodnight (Plushka Remix)
DR8 -1.83 dB -12.08 dB 3:46 04-Remember Our Names
DR5 0.00 dB -6.20 dB 3:51 20-Open Your Heart
DR4 0.00 dB -6.79 dB 5:09 05-Fight Club
DR8 0.00 dB -10.09 dB 4:23 01-Stone
DR8 0.00 dB -10.19 dB 2:56 02-I'll Be Real With You
DR8 0.00 dB -10.71 dB 4:18 03-Revolution
DR7 0.00 dB -8.26 dB 4:55 06-Enya - Only Time (Plushka Remix)
DR5 0.00 dB -7.29 dB 4:14 07-My Home - Your Home, Bro
DR6 0.00 dB -9.02 dB 3:34 08-How To Wake Up
DR3 0.00 dB -5.52 dB 3:52 09-What The Fuck Is Going On
DR4 0.00 dB -5.78 dB 4:38 10-Everyone An Architect
DR5 0.00 dB -7.17 dB 2:40 11-Apathy?
DR5 0.00 dB -6.21 dB 3:45 12-This Game Has No Name
DR7 0.00 dB -8.29 dB 2:28 13-Forgotten
DR5 0.00 dB -7.24 dB 4:06 14-Ghosts Among Us
DR10 0.00 dB -11.42 dB 4:03 15-Leonardo da Vinci
DR6 0.00 dB -7.73 dB 2:57 16-I Knew This One Girl
DR3 0.00 dB -5.85 dB 4:02 17-Now
DR5 0.00 dB -8.75 dB 3:20 18-Writer
DR4 0.00 dB -6.60 dB 4:08 21-Break This Hush
DR5 0.00 dB -8.84 dB 3:26 22-Who Are You
DR7 0.00 dB -9.85 dB 5:04 23-Go For A Dream
DR4 0.00 dB -7.18 dB 2:26 24-Around Me
DR7 0.00 dB -8.86 dB 3:15 25-Kefirka
DR7 0.00 dB -9.19 dB 2:43 26-Dementia
DR8 0.00 dB -10.59 dB 2:05 27-Sea
DR5 0.00 dB -7.65 dB 3:35 28-Woman
DR5 0.00 dB -8.13 dB 3:50 29-#Drop_Out
DR6 0.00 dB -9.92 dB 3:20 30-I Want To Run Away From You
--------------------------------------------------------------------------------

Number of tracks: 30
Official DR value: DR6

Samplerate: 44100 Hz
Channels: 2
Bits per sample: 16
Bitrate: 903 kbps
Codec: FLAC
================================================================================
[/i]
Продолжительность: 00:02:13
Трэклист:
01. Autumn Sunny Days (1:03)
02. Autumn Sunny Days 2 (1:11)
-----------------------

DON'T MODIFY THIS FILE

-----------------------

PERFORMER: auCDtect Task Manager, ver. 1.6.0 RC1 build 1.6.0.1
Copyright (c) 2008-2010 y-soft. All rights reserved
http://y-soft.org

ANALYZER: auCDtect: CD records authenticity detector, version 0.8.2
Copyright (c) 2004 Oleg Berngardt. All rights reserved.
Copyright (c) 2004 Alexander Djourik. All rights reserved.

FILE: 02. Autumn Sunny Days 2.flac
Size: 12727838 Hash: 0A448E7AEC465EDDD10BC07B8F77F12E Accuracy: -m0
Conclusion: CDDA 42%
Signature: 27148C7796EE14622980B8B676B11D75DA5CA871
FILE: 01. Autumn Sunny Days.flac
Size: 13074557 Hash: 61322E58AA80767ED82236E360F3F1C4 Accuracy: -m0
Conclusion: MPEG 95%
Signature: 9950BDB0C980225E092F852176BE2F16040FEFCA
foobar2000 1.4 / Dynamic Range Meter 1.1.1 
log date: 2023-09-01 13:30:43

--------------------------------------------------------------------------------
Analyzed: Plushka / Autumn Sunny Days
--------------------------------------------------------------------------------

DR Peak RMS Duration Track
--------------------------------------------------------------------------------
DR8 0.00 dB -11.31 dB 1:02 01-Autumn Sunny Days
DR9 -0.02 dB -12.42 dB 1:10 02-Autumn Sunny Days 2
--------------------------------------------------------------------------------

Number of tracks: 2
Official DR value: DR9

Samplerate: 44100 Hz
Channels: 2
Bits per sample: 16
Bitrate: 647 kbps
Codec: FLAC
================================================================================
[/i]
Продолжительность: 00:02:55
Трэклист:
01. Flowers For You (2:55)
-----------------------

DON'T MODIFY THIS FILE

-----------------------

PERFORMER: auCDtect Task Manager, ver. 1.6.0 RC1 build 1.6.0.1
Copyright (c) 2008-2010 y-soft. All rights reserved
http://y-soft.org

ANALYZER: auCDtect: CD records authenticity detector, version 0.8.2
Copyright (c) 2004 Oleg Berngardt. All rights reserved.
Copyright (c) 2004 Alexander Djourik. All rights reserved.

FILE: 01. Flowers For You.flac
Size: 17539525 Hash: B7F911F1670579E3B4CFBE39634C4080 Accuracy: -m0
Conclusion: CDDA 100%
Signature: 01C19C4D8BCBE683EDCC9FACAA1BFE90D2AA5C62

foobar2000 1.4 / Dynamic Range Meter 1.1.1 
log date: 2023-09-01 14:22:45

--------------------------------------------------------------------------------
Statistics for: 01-Flowers For You
Number of samples: 7703719
Duration: 2:55
--------------------------------------------------------------------------------

Left Right

Peak Value: 0.00 dB --- 0.00 dB
Avg RMS: -13.68 dB --- -13.73 dB
DR channel: 10.12 dB --- 10.15 dB
--------------------------------------------------------------------------------

Official DR Value: DR10

Samplerate: 44100 Hz
Channels: 2
Bits per sample: 16
Bitrate: 803 kbps
Codec: FLAC
================================================================================
[/i]
Продолжительность: 00:15:34
Трэклист:
01. Intro (feat. Vadim Puntus) (0:51)
02. Perfect Day (2:16)
03. Nostalgia 93 (feat. Vadim Puntus) (2:07)
04. Do It Right (2:03)
05. Something Is Wrong With Me, Baby (1:17)
06. Life As A Film (1:25)
07. Cosmic Signal (1:34)
08. Mood (1:05)
09. Dance 2 Step (1:15)
10. Сrazy (1:45)
-----------------------

DON'T MODIFY THIS FILE

-----------------------

PERFORMER: auCDtect Task Manager, ver. 1.6.0 RC1 build 1.6.0.1
Copyright (c) 2008-2010 y-soft. All rights reserved
http://y-soft.org

ANALYZER: auCDtect: CD records authenticity detector, version 0.8.2
Copyright (c) 2004 Oleg Berngardt. All rights reserved.
Copyright (c) 2004 Alexander Djourik. All rights reserved.

FILE: 10. Сrazy.flac
Size: 10453523 Hash: 94AE69EE5C721C590BFCA58E87DC8456 Accuracy: -m0
Conclusion: CDDA 100%
Signature: 5DB97ECCC555A9569863033C85FAE7B21E28FC67
FILE: 09. Dance 2 Step.flac
Size: 8348836 Hash: B6A48650497A52D4A7980AAE7B9D1A5F Accuracy: -m0
Conclusion: MPEG 95%
Signature: 7A3EA0A8FA28510C64FA95989FE6BD10016A0A38
FILE: 08. Mood.flac
Size: 6239608 Hash: 0334C894CC106EF4987EE477FA8015E5 Accuracy: -m0
Conclusion: CDDA 100%
Signature: 43BDC7285D1DC9CC235DDFD0823303174A8D0906
FILE: 07. Cosmic Signal.flac
Size: 9934884 Hash: 583C3B4010A65F9301FEA5EB093D4AD8 Accuracy: -m0
Conclusion: CDDA 100%
Signature: E59CDDED8BE73887EF61992F3B2D9504DDB0FA43
FILE: 06. Life As A Film.flac
Size: 7859988 Hash: 31F0E36FF4D36102723AD0F015286068 Accuracy: -m0
Conclusion: CDDA 100%
Signature: D8ADD0416768974C625F25A28FEA87401A5D5500
FILE: 05. Something Is Wrong With Me, Baby.flac
Size: 8831477 Hash: 29E17B626A31EF0CF30829C2483282EC Accuracy: -m0
Conclusion: CDDA 100%
Signature: B8604459664FDE1BE7026D79098A23D8B65EC824
FILE: 04. Do It Right.flac
Size: 11231510 Hash: 812B958ED65302CBB09C50E09C85B2EF Accuracy: -m0
Conclusion: CDDA 100%
Signature: 5C1FC59F3BFB2C9B89BE95AF98F921620A55BF10
FILE: 03. Nostalgia 93 (feat. Vadim Puntus).flac
Size: 13427953 Hash: D97BA6190323534FD5ECBDFF72B95B57 Accuracy: -m0
Conclusion: CDDA 99%
Signature: 8A299A44481987DBE4A8C68287047EE5D303EDEA
FILE: 02. Perfect Day.flac
Size: 13362649 Hash: 20BB0E62473589BA8BC3AE600F1027DF Accuracy: -m0
Conclusion: MPEG 95%
Signature: 4170C896D8AEE70A49D9F57D11D0CC14441A8C56
FILE: 01. Intro (feat. Vadim Puntus).flac
Size: 5005994 Hash: 3CF13547253B4CCF9F852C7FA4647C7B Accuracy: -m0
Conclusion: CDDA 100%
Signature: A4B05D473BC693179E787563A08F75AB16A7C06B
foobar2000 1.4 / Dynamic Range Meter 1.1.1 
log date: 2023-09-01 13:31:05

--------------------------------------------------------------------------------
Analyzed: Plushka / Boom Bap In My Head
--------------------------------------------------------------------------------

DR Peak RMS Duration Track
--------------------------------------------------------------------------------
DR6 -0.10 dB -7.94 dB 0:51 01-Intro (feat. Vadim Puntus)
DR5 -0.08 dB -7.52 dB 2:15 02-Perfect Day
DR7 0.00 dB -9.59 dB 2:06 03-Nostalgia 93 (feat. Vadim Puntus)
DR7 -0.22 dB -9.31 dB 2:03 04-Do It Right
DR8 -0.10 dB -9.62 dB 1:17 05-Something Is Wrong With Me, Baby
DR5 -0.10 dB -6.62 dB 1:24 06-Life As A Film
DR4 -0.10 dB -5.86 dB 1:34 07-Cosmic Signal
DR5 -0.06 dB -7.41 dB 1:05 08-Mood
DR5 0.00 dB -6.95 dB 1:15 09-Dance 2 Step
DR6 -0.10 dB -8.74 dB 1:44 10-Сrazy
--------------------------------------------------------------------------------

Number of tracks: 10
Official DR value: DR6

Samplerate: 44100 Hz
Channels: 2
Bits per sample: 16
Bitrate: 804 kbps
Codec: FLAC
================================================================================
[/i]
Продолжительность: 00:11:34
Трэклист:
01. Hip-Hop Is Not You (2:23)
02. Back To Old School (2:56)
03. Something Good (2:09)
04. The Glare Of The Lights In The Eyes (1:41)
05. Repeat To Win (2:27)
-----------------------

DON'T MODIFY THIS FILE

-----------------------

PERFORMER: auCDtect Task Manager, ver. 1.6.0 RC1 build 1.6.0.1
Copyright (c) 2008-2010 y-soft. All rights reserved
http://y-soft.org

ANALYZER: auCDtect: CD records authenticity detector, version 0.8.2
Copyright (c) 2004 Oleg Berngardt. All rights reserved.
Copyright (c) 2004 Alexander Djourik. All rights reserved.

FILE: 05. Repeat To Win.flac
Size: 12421027 Hash: 8C166CC940F0495CDDB40A4F4E580F81 Accuracy: -m0
Conclusion: CDDA 100%
Signature: 7FA5E161109CC829390C81F9B744C26B13783CAB
FILE: 04. The Glare Of The Lights In The Eyes.flac
Size: 9110250 Hash: 2A3AA4B718F75D62A602BE974F449D26 Accuracy: -m0
Conclusion: CDDA 100%
Signature: 49DC11791E3F75D218FB39764C48663191E6DFA5
FILE: 03. Something Good.flac
Size: 13950720 Hash: A66E7F633886F5A7DE7B4A71F927C094 Accuracy: -m0
Conclusion: CDDA 100%
Signature: 09542231AD7F3DFFBA479535BC8FB55C18AC12A3
FILE: 02. Back To Old School.flac
Size: 21295706 Hash: 9D44A3634D853F997D8087DB06CE7144 Accuracy: -m0
Conclusion: CDDA 100%
Signature: F463724332B3DB94D3F0E1E8C522F2A4D4E71B50
FILE: 01. Hip-Hop Is Not You.flac
Size: 12679078 Hash: CF30C6A6AC2C1CC6338A9719F3DC5B0B Accuracy: -m0
Conclusion: CDDA 100%
Signature: 4B26522C96969ADD2A9AC231434448F1487AACC3
foobar2000 1.4 / Dynamic Range Meter 1.1.1 
log date: 2023-09-01 13:31:22

--------------------------------------------------------------------------------
Analyzed: Plushka / Classic
--------------------------------------------------------------------------------

DR Peak RMS Duration Track
--------------------------------------------------------------------------------
DR8 -0.30 dB -10.54 dB 2:23 01-Hip-Hop Is Not You
DR7 -0.45 dB -9.39 dB 2:56 02-Back To Old School
DR8 -0.40 dB -9.80 dB 2:08 03-Something Good
DR10 -0.10 dB -13.07 dB 1:41 04-The Glare Of The Lights In The Eyes
DR8 -0.30 dB -10.88 dB 2:26 05-Repeat To Win
--------------------------------------------------------------------------------

Number of tracks: 5
Official DR value: DR8

Samplerate: 44100 Hz
Channels: 2
Bits per sample: 16
Bitrate: 679 kbps
Codec: FLAC
================================================================================
[/i]
Продолжительность: 00:25:19
Трэклист:
01. Close Your Eyes And Dream (4:21)
02. Night Romance (feat. Vadim Puntus) (3:01)
03. Road Home (3:28)
04. In Clouds (2:32)
05. Utopia (3:01)
06. Chill (feat. Pavel Klimenko) (3:43)
07. In Touch (5:16)
-----------------------

DON'T MODIFY THIS FILE

-----------------------

PERFORMER: auCDtect Task Manager, ver. 1.6.0 RC1 build 1.6.0.1
Copyright (c) 2008-2010 y-soft. All rights reserved
http://y-soft.org

ANALYZER: auCDtect: CD records authenticity detector, version 0.8.2
Copyright (c) 2004 Oleg Berngardt. All rights reserved.
Copyright (c) 2004 Alexander Djourik. All rights reserved.

FILE: 07. In Touch.flac
Size: 26890716 Hash: 41CC7EB987EAE550BA36B05F221E0CB9 Accuracy: -m0
Conclusion: CDDA 100%
Signature: 66D113E7B0096ACB1083349E40F91A234C7601E6
FILE: 06. Chill (feat. Pavel Klimenko).flac
Size: 16048143 Hash: 3D9B7E584E05924DB700BCC0F84A8D11 Accuracy: -m0
Conclusion: CDDA 100%
Signature: BBF59CC2FB9233259D7E0B161D2AA19D57674F10
FILE: 05. Utopia.flac
Size: 13607167 Hash: 8CF68EA889F74247F17E444A26DD2A93 Accuracy: -m0
Conclusion: CDDA 94%
Signature: BADF893049A8C1B94C73C67415B7C9415EEB71B5
FILE: 04. In Clouds.flac
Size: 12490488 Hash: 84746ABC4B09764B19FA12367C80837A Accuracy: -m0
Conclusion: CDDA 100%
Signature: 65BC4651672F693623B3A0C3AA77E7ADFCBCCB19
FILE: 03. Road Home.flac
Size: 15646038 Hash: 0B913F59F1A6969978183FC0AA432B2D Accuracy: -m0
Conclusion: CDDA 100%
Signature: B79EFF3706DBEBD59738D7D6B995A9AFF4B02BFA
FILE: 02. Night Romance (feat. Vadim Puntus).flac
Size: 17059203 Hash: 38EAE5A4F8865919A746123FBAE33801 Accuracy: -m0
Conclusion: CDDA 100%
Signature: DCAEE933101D57EC479BE1791A4568E9AD6A42D8
FILE: 01. Close Your Eyes And Dream.flac
Size: 21179538 Hash: 2DCF916E61BEF46B42A599C707578CE6 Accuracy: -m0
Conclusion: CDDA 94%
Signature: 9798564065A1FDE1F5D1AEEA4F472DCEF3D2271A
foobar2000 1.4 / Dynamic Range Meter 1.1.1 
log date: 2023-09-01 13:31:59

--------------------------------------------------------------------------------
Analyzed: Plushka / In Touch
--------------------------------------------------------------------------------

DR Peak RMS Duration Track
--------------------------------------------------------------------------------
DR6 -0.20 dB -9.72 dB 4:20 01-Close Your Eyes And Dream
DR8 -0.20 dB -10.58 dB 3:01 02-Night Romance (feat. Vadim Puntus)
DR8 -0.20 dB -12.42 dB 3:27 03-Road Home
DR10 -0.14 dB -13.35 dB 2:32 04-In Clouds
DR9 -0.39 dB -13.10 dB 3:00 05-Utopia
DR9 -0.13 dB -11.43 dB 3:42 06-Chill (feat. Pavel Klimenko)
DR10 -0.31 dB -14.53 dB 5:16 07-In Touch
--------------------------------------------------------------------------------

Number of tracks: 7
Official DR value: DR8

Samplerate: 44100 Hz
Channels: 2
Bits per sample: 16
Bitrate: 682 kbps
Codec: FLAC
================================================================================
Продолжительность: 00:26:05
Трэклист:
01. Record After Work (2:54)
02. Jazz For The Soul (3:15)
03. Deep Sleep (2:43)
04. Balance (1:37)
05. Back In The Days (3:04)
06. Countries In My Eyes (2:30)
07. Sunny Morning (1:44)
08. Thinking Of You (2:42)
09. Indoor Plants (3:17)
10. Broken Souls (2:24)
11. Love Till Death (2:56)
12. Desire To Do (4:26)
13. Low Pass Filter On Friends (2:27)
14. Love This Day. (2:28)
-----------------------

DON'T MODIFY THIS FILE

-----------------------

PERFORMER: auCDtect Task Manager, ver. 1.6.0 RC1 build 1.6.0.1
Copyright (c) 2008-2010 y-soft. All rights reserved
http://y-soft.org

ANALYZER: auCDtect: CD records authenticity detector, version 0.8.2
Copyright (c) 2004 Oleg Berngardt. All rights reserved.
Copyright (c) 2004 Alexander Djourik. All rights reserved.

FILE: 10. Broken Souls.flac
Size: 11528169 Hash: 2A7FAF9A034A13F30CE9A8D406A8AD8D Accuracy: -m0
Conclusion: CDDA 100%
Signature: 2BE9B008270EAECFF92EA662820CD80B106AC0E7
FILE: 09. Indoor Plants.flac
Size: 16244745 Hash: 3754B2FA96B277B2982AF42BBE336125 Accuracy: -m0
Conclusion: CDDA 100%
Signature: 38A67914F4D57139914BBD8CB227A7453598421A
FILE: 08. Thinking Of You.flac
Size: 18098220 Hash: D208B3876874A61D01FD376E47B8B162 Accuracy: -m0
Conclusion: CDDA 100%
Signature: 779D9AED97F5BAF1EE90E5A02AD8899078B24762
FILE: 07. Sunny Morning.flac
Size: 7811629 Hash: 5CC003CA05CC184DC3B44322FE2668A6 Accuracy: -m0
Conclusion: CDDA 100%
Signature: E49A9705380D29E45D80CECBE929166136481A10
FILE: 06. Countries In My Eyes.flac
Size: 14009062 Hash: 6DED4E0FFE283F67135E5B9E55EF4E26 Accuracy: -m0
Conclusion: CDDA 100%
Signature: 0B20B1FBAB5D4F5B819A2C11B63A98AA7A8EA041
FILE: 05. Back In The Days.flac
Size: 17171625 Hash: FD9F3F75C98ED557E33C76F8D9F326D5 Accuracy: -m0
Conclusion: CDDA 99%
Signature: 929EEDC15139C75774A9AF769AE2E7F5C7C2C7E1
FILE: 04. Balance.flac
Size: 7665635 Hash: 2D1990CBF1507FC930D7BB60F4F917B3 Accuracy: -m0
Conclusion: CDDA 99%
Signature: 0BDBD7F804EE22C443FA6469380CAFFD1741AEAC
FILE: 03. Deep Sleep.flac
Size: 9428111 Hash: 46E40ADDE04FDFB4438CF287197F99DB Accuracy: -m0
Conclusion: MPEG 80%
Signature: 3B627A88515EB430729D5544B628DD930C1CBAE0
FILE: 02. Jazz For The Soul.flac
Size: 16043484 Hash: 7BA871841D1A913258DCF93919533CEB Accuracy: -m0
Conclusion: CDDA 100%
Signature: ED08A182A2A5EDD28783CB9BF7A21D47C8933B85
FILE: 01. Record After Work.flac
Size: 14614724 Hash: 9C2B3DF2D1C78118E9C9FFA1A8317166 Accuracy: -m0
Conclusion: CDDA 100%
Signature: 28C332FFE66634C129D778467551CAB5713A1369
foobar2000 1.4 / Dynamic Range Meter 1.1.1 
log date: 2023-09-01 13:32:20

--------------------------------------------------------------------------------
Analyzed: Plushka / Days On The Pads
--------------------------------------------------------------------------------

DR Peak RMS Duration Track
--------------------------------------------------------------------------------
DR8 -0.20 dB -11.48 dB 2:54 01-Record After Work
DR8 -0.20 dB -9.88 dB 3:14 02-Jazz For The Soul
DR11 -0.20 dB -15.68 dB 2:43 03-Deep Sleep
DR7 -0.20 dB -9.61 dB 1:36 04-Balance
DR7 -0.20 dB -11.19 dB 3:03 05-Back In The Days
DR8 -0.20 dB -10.12 dB 2:29 06-Countries In My Eyes
DR11 -0.20 dB -13.63 dB 1:44 07-Sunny Morning
DR7 -0.20 dB -8.94 dB 2:41 08-Thinking Of You
DR12 -0.20 dB -14.74 dB 3:16 09-Indoor Plants
DR11 -0.20 dB -14.55 dB 2:24 10-Broken Souls
--------------------------------------------------------------------------------

Number of tracks: 10
Official DR value: DR9

Samplerate: 44100 Hz
Channels: 2
Bits per sample: 16
Bitrate: 641 kbps
Codec: FLAC
================================================================================
Продолжительность: 00:03:14
Трэклист:
01. Dreams Come True (3:14)
-----------------------

DON'T MODIFY THIS FILE

-----------------------

PERFORMER: auCDtect Task Manager, ver. 1.6.0 RC1 build 1.6.0.1
Copyright (c) 2008-2010 y-soft. All rights reserved
http://y-soft.org

ANALYZER: auCDtect: CD records authenticity detector, version 0.8.2
Copyright (c) 2004 Oleg Berngardt. All rights reserved.
Copyright (c) 2004 Alexander Djourik. All rights reserved.

FILE: 01. Dreams Come True.flac
Size: 15959839 Hash: 070F1F7E21092897D68F568E02F85D4A Accuracy: -m0
Conclusion: CDDA 100%
Signature: 288C248A2EAF80C890A0A0F71F753EC6605455B2
foobar2000 1.4 / Dynamic Range Meter 1.1.1 
log date: 2023-09-01 13:32:32

--------------------------------------------------------------------------------
Statistics for: 01-Dreams Come True
Number of samples: 8554788
Duration: 3:14
--------------------------------------------------------------------------------

Left Right

Peak Value: -0.10 dB --- -0.10 dB
Avg RMS: -8.75 dB --- -9.00 dB
DR channel: 6.09 dB --- 6.30 dB
--------------------------------------------------------------------------------

Official DR Value: DR6

Samplerate: 44100 Hz
Channels: 2
Bits per sample: 16
Bitrate: 658 kbps
Codec: FLAC
================================================================================
Продолжительность: 00:44:06
Трэклист:
01. Prahułki Pieššu (3:48)
02. Budź Praściej (3:33)
03. Pryvitańnie, Siabry (2:37)
04. Nastojlivasć (2:56)
05. Babulina Chata (3:51)
06. Doŭhi Dzień (2:55)
07. Dobra Na Dušy (2:55)
08. Minułaje (3:16)
09. Mastactva Paŭzy (3:08)
10. Miełodyja Serca (2:22)
11. Kali Prychodzić Noč (3:27)
12. Pra Što Maŭčyć Nieba (2:49)
13. Traviany Nastoj (3:21)
14. Dzie Žyvuć Mary (3:16)
-----------------------

DON'T MODIFY THIS FILE

-----------------------

PERFORMER: auCDtect Task Manager, ver. 1.6.0 RC1 build 1.6.0.1
Copyright (c) 2008-2010 y-soft. All rights reserved
http://y-soft.org

ANALYZER: auCDtect: CD records authenticity detector, version 0.8.2
Copyright (c) 2004 Oleg Berngardt. All rights reserved.
Copyright (c) 2004 Alexander Djourik. All rights reserved.

FILE: 14. Dzie Žyvuć Mary.flac
Size: 9077759 Hash: 3BC05986FE40D196B985BB6E820CBD6D Accuracy: -m0
Conclusion: MPEG 92%
Signature: FBD75397A863F2DED50917787EFC7368D8F127B1
FILE: 13. Traviany Nastoj.flac
Size: 13082993 Hash: 2EB8DC9A978BD91826D0A80F29B4D929 Accuracy: -m0
Conclusion: CDDA 100%
Signature: 6DEDCDAC08420D24020C0AA58AD5D5A509C5378F
FILE: 12. Pra Što Maŭčyć Nieba.flac
Size: 14221794 Hash: B287B7F353663921D1E4DE2364DEEA98 Accuracy: -m0
Conclusion: CDDA 100%
Signature: AA0965ADDD61E303BE709DB85B2F68090ADE76B4
FILE: 11. Kali Prychodzić Noč.flac
Size: 14268614 Hash: 010F3FCE6725AB083E0E3BC391BB4668 Accuracy: -m0
Conclusion: CDDA 100%
Signature: C672E60B20839A9D030780878D9B408E7FE487A1
FILE: 10. Miełodyja Serca.flac
Size: 8674458 Hash: C460265469882D1551256FA4FBC81F13 Accuracy: -m0
Conclusion: CDDA 99%
Signature: A4AF4150789D2E909F56189943215B509F5A2A56
FILE: 09. Mastactva Paŭzy.flac
Size: 12237595 Hash: DBAE4281B0537702C2D416D7732EBEC9 Accuracy: -m0
Conclusion: CDDA 92%
Signature: 760A3C83F2BE6DDD37521305FC1C751BB05A20AB
FILE: 08. Minułaje.flac
Size: 9148976 Hash: E81A20EF7BFAB1D6E3CD1F3D8472D6DB Accuracy: -m0
Conclusion: CDDA 49%
Signature: ED6FCCE951ED5E1D1B2083307831332ACC7F8CE5
FILE: 07. Dobra Na Dušy.flac
Size: 17056783 Hash: 6205F7C149E700910DFD251788219598 Accuracy: -m0
Conclusion: CDDA 100%
Signature: 4EA5E211289925514020C70475B300E62B4A2615
FILE: 06. Doŭhi Dzień.flac
Size: 11746188 Hash: FC715FFC727F1B205C3FB6010E69A1F0 Accuracy: -m0
Conclusion: CDDA 100%
Signature: 7D1702B24F451FD6395509409632DF1E9039AD91
FILE: 05. Babulina Chata.flac
Size: 18635523 Hash: 62745AA3098AFF748A103675045BB70E Accuracy: -m0
Conclusion: CDDA 100%
Signature: EE2C13D29878A9860BEC1B687F79682A43246191
FILE: 04. Nastojlivasć.flac
Size: 12400608 Hash: CDC9225BB30B92457E6A588C9D0F1056 Accuracy: -m0
Conclusion: CDDA 100%
Signature: C67BA52559AF9E66DF4442464E1F9444D581D7C1
FILE: 03. Pryvitańnie, Siabry.flac
Size: 11582147 Hash: 42921EC8CC166F6094BCD66F5AA7090A Accuracy: -m0
Conclusion: CDDA 92%
Signature: F7C401B7F9F1920B6FD6F13E1FA330A8DC84591D
FILE: 02. Budź Praściej.flac
Size: 17624333 Hash: 064C6865E03189E7BD26ED5C8BE9BAD4 Accuracy: -m0
Conclusion: CDDA 100%
Signature: B31A84B226449D75F808ACE58C9FE99CF3830856
FILE: 01. Prahułki Pieššu.flac
Size: 12743759 Hash: 7C8647C80632428F78B300B897E21ED9 Accuracy: -m0
Conclusion: CDDA 94%
Signature: 11AA305CDAD832DAD7A32A945C13B88A3F801B5F
foobar2000 1.4 / Dynamic Range Meter 1.1.1 
log date: 2023-09-01 13:32:51

--------------------------------------------------------------------------------
Analyzed: Plushka / Zapis
--------------------------------------------------------------------------------

DR Peak RMS Duration Track
--------------------------------------------------------------------------------
DR14 -0.43 dB -16.41 dB 3:47 01-Prahułki Pieššu
DR10 -0.10 dB -12.90 dB 3:33 02-Budź Praściej
DR9 -0.28 dB -11.91 dB 2:36 03-Pryvitańnie, Siabry
DR12 -0.20 dB -14.97 dB 2:55 04-Nastojlivasć
DR11 0.00 dB -14.60 dB 3:50 05-Babulina Chata
DR9 -0.28 dB -10.81 dB 2:55 06-Doŭhi Dzień
DR11 -0.20 dB -12.89 dB 2:54 07-Dobra Na Dušy
DR11 -2.84 dB -17.87 dB 3:15 08-Minułaje
DR10 -0.08 dB -13.50 dB 3:07 09-Mastactva Paŭzy
DR14 -1.51 dB -18.14 dB 2:22 10-Miełodyja Serca
DR9 -0.20 dB -12.65 dB 3:26 11-Kali Prychodzić Noč
DR11 -0.08 dB -13.34 dB 2:49 12-Pra Što Maŭčyć Nieba
DR13 -0.20 dB -18.11 dB 3:21 13-Traviany Nastoj
DR13 -0.20 dB -15.72 dB 3:15 14-Dzie Žyvuć Mary
--------------------------------------------------------------------------------

Number of tracks: 14
Official DR value: DR11

Samplerate: 44100 Hz
Channels: 2
Bits per sample: 16
Bitrate: 372 kbps
Codec: FLAC
================================================================================
Продолжительность: 00:03:31
Трэклист:
01. Night Walk (3:31)
-----------------------

DON'T MODIFY THIS FILE

-----------------------

PERFORMER: auCDtect Task Manager, ver. 1.6.0 RC1 build 1.6.0.1
Copyright (c) 2008-2010 y-soft. All rights reserved
http://y-soft.org

ANALYZER: auCDtect: CD records authenticity detector, version 0.8.2
Copyright (c) 2004 Oleg Berngardt. All rights reserved.
Copyright (c) 2004 Alexander Djourik. All rights reserved.

FILE: 01. Night Walk.flac
Size: 18156356 Hash: 93CE348AE045A722F4D22E20281BDC87 Accuracy: -m0
Conclusion: CDDA 100%
Signature: C7D16136038013E13F61D0011F0DD213E874C0E2
foobar2000 1.4 / Dynamic Range Meter 1.1.1 
log date: 2023-09-01 13:33:08

--------------------------------------------------------------------------------
Statistics for: 01-Night Walk
Number of samples: 9303064
Duration: 3:31
--------------------------------------------------------------------------------

Left Right

Peak Value: -1.14 dB --- -1.66 dB
Avg RMS: -14.41 dB --- -15.31 dB
DR channel: 11.50 dB --- 11.92 dB
--------------------------------------------------------------------------------

Official DR Value: DR12

Samplerate: 44100 Hz
Channels: 2
Bits per sample: 16
Bitrate: 688 kbps
Codec: FLAC
================================================================================
Продолжительность: 00:03:44
Трэклист:
01. Ciemra (3:44)
-----------------------

DON'T MODIFY THIS FILE

-----------------------

PERFORMER: auCDtect Task Manager, ver. 1.6.0 RC1 build 1.6.0.1
Copyright (c) 2008-2010 y-soft. All rights reserved
http://y-soft.org

ANALYZER: auCDtect: CD records authenticity detector, version 0.8.2
Copyright (c) 2004 Oleg Berngardt. All rights reserved.
Copyright (c) 2004 Alexander Djourik. All rights reserved.

FILE: 01. Ciemra.flac
Size: 20180600 Hash: 637DF01ECF73992CF6599A3245BD8D00 Accuracy: -m0
Conclusion: CDDA 87%
Signature: 7C2E09B438C60B08B3079068C4C20ED1661B6457
foobar2000 1.4 / Dynamic Range Meter 1.1.1 
log date: 2023-09-01 13:33:18

--------------------------------------------------------------------------------
Statistics for: 01-Ciemra
Number of samples: 9838434
Duration: 3:43
--------------------------------------------------------------------------------

Left Right

Peak Value: 0.00 dB --- -0.01 dB
Avg RMS: -12.07 dB --- -11.71 dB
DR channel: 9.72 dB --- 8.91 dB
--------------------------------------------------------------------------------

Official DR Value: DR9

Samplerate: 44100 Hz
Channels: 2
Bits per sample: 16
Bitrate: 711 kbps
Codec: FLAC
================================================================================
Продолжительность: 00:03:42
Трэклист:
01. Dimka Mishura (3:42)
-----------------------

DON'T MODIFY THIS FILE

-----------------------

PERFORMER: auCDtect Task Manager, ver. 1.6.0 RC1 build 1.6.0.1
Copyright (c) 2008-2010 y-soft. All rights reserved
http://y-soft.org

ANALYZER: auCDtect: CD records authenticity detector, version 0.8.2
Copyright (c) 2004 Oleg Berngardt. All rights reserved.
Copyright (c) 2004 Alexander Djourik. All rights reserved.

FILE: 01. Dimka Mishura.flac
Size: 17880938 Hash: A415759B2F73BCC48D9FC6F6C024CC9B Accuracy: -m0
Conclusion: CDDA 43%
Signature: 8EB5F94E20A00DDA63B927DF9730EC7B00CD8E67
foobar2000 1.4 / Dynamic Range Meter 1.1.1 
log date: 2023-09-01 13:33:29

--------------------------------------------------------------------------------
Statistics for: 01-Dimka Mishura
Number of samples: 9784224
Duration: 3:42
--------------------------------------------------------------------------------

Left Right

Peak Value: -0.20 dB --- -0.20 dB
Avg RMS: -13.42 dB --- -13.40 dB
DR channel: 10.51 dB --- 10.32 dB
--------------------------------------------------------------------------------

Official DR Value: DR10

Samplerate: 44100 Hz
Channels: 2
Bits per sample: 16
Bitrate: 645 kbps
Codec: FLAC
================================================================================
Продолжительность: 00:05:12
Трэклист:
01. Romantic (5:12)
-----------------------

DON'T MODIFY THIS FILE

-----------------------

PERFORMER: auCDtect Task Manager, ver. 1.6.0 RC1 build 1.6.0.1
Copyright (c) 2008-2010 y-soft. All rights reserved
http://y-soft.org

ANALYZER: auCDtect: CD records authenticity detector, version 0.8.2
Copyright (c) 2004 Oleg Berngardt. All rights reserved.
Copyright (c) 2004 Alexander Djourik. All rights reserved.

FILE: 01. Romantic.flac
Size: 19272175 Hash: 6CE73B2E65A86DD3D35ACDDB3C5D37D4 Accuracy: -m0
Conclusion: MPEG 99%
Signature: 74A35C57E5F4D36BACDC1819733EE22BA65604F7
foobar2000 1.4 / Dynamic Range Meter 1.1.1 
log date: 2023-09-01 13:33:41

--------------------------------------------------------------------------------
Statistics for: 01-Romantic
Number of samples: 13759200
Duration: 5:12
--------------------------------------------------------------------------------

Left Right

Peak Value: -0.31 dB --- -0.31 dB
Avg RMS: -13.12 dB --- -13.09 dB
DR channel: 10.13 dB --- 10.11 dB
--------------------------------------------------------------------------------

Official DR Value: DR10

Samplerate: 44100 Hz
Channels: 2
Bits per sample: 16
Bitrate: 494 kbps
Codec: FLAC
================================================================================
Продолжительность: 00:25:53
Трэклист:
01. Good Vibes (2:20)
02. Song Of The Wind (2:48)
03. Crash (2:46)
04. Can't Stop This (2:51)
05. Smile On Face (2:37)
06. Dialogue (3:07)
07. Hungry (2:22)
08. When You're A Dreamer (2:23)
09. Midnight (2:12)
10. Bedroom Producer (2:33)
-----------------------

DON'T MODIFY THIS FILE

-----------------------

PERFORMER: auCDtect Task Manager, ver. 1.6.0 RC1 build 1.6.0.1
Copyright (c) 2008-2010 y-soft. All rights reserved
http://y-soft.org

ANALYZER: auCDtect: CD records authenticity detector, version 0.8.2
Copyright (c) 2004 Oleg Berngardt. All rights reserved.
Copyright (c) 2004 Alexander Djourik. All rights reserved.

FILE: 10. Bedroom Producer.flac
Size: 10635279 Hash: 79CFE2C1BD9AA2718A87F2D4BDEEDB91 Accuracy: -m0
Conclusion: CDDA 99%
Signature: 8C31EC1619B626C500DB9395EE99D30A72C309FF
FILE: 09. Midnight.flac
Size: 10371416 Hash: 664FDD1D6BB241E5B11FEEAC2201A31F Accuracy: -m0
Conclusion: CDDA 100%
Signature: B11411D5F58CAEA63144B0E59D55E6E6A26471F0
FILE: 08. When You're A Dreamer.flac
Size: 13287038 Hash: F65CDF43FFF3709421D84E1165693F49 Accuracy: -m0
Conclusion: CDDA 100%
Signature: 5130E224D15029D274EA18C143B4AECB0EC2D2BE
FILE: 07. Hungry.flac
Size: 11395791 Hash: 3AD97C8A7BFC81EA686B213A7541B1AD Accuracy: -m0
Conclusion: MPEG 95%
Signature: 3B58DA51720E7159B2E1F07FE31123A0C37E4374
FILE: 06. Dialogue.flac
Size: 15458087 Hash: A3DB4E34C1C812FBED4A5086FBFFEAD3 Accuracy: -m0
Conclusion: CDDA 100%
Signature: 2286AD2DD8DE66E6812AA47880C6290191F94E75
FILE: 05. Smile On Face.flac
Size: 15342213 Hash: 65115B5A3F19932660D7CB0C013118E9 Accuracy: -m0
Conclusion: MPEG 100%
Signature: C9744CB43D2967B87BA0986D6A4A131A6987FC3D
FILE: 04. Can't Stop This.flac
Size: 15600158 Hash: 99B8C683CE4908583724603194DFE798 Accuracy: -m0
Conclusion: CDDA 100%
Signature: 559BED0715CBFBA3F38942FAD8FFAB6004205C32
FILE: 03. Crash.flac
Size: 16346671 Hash: 54A2D76EFE2566E26BFBAB0DE585BED6 Accuracy: -m0
Conclusion: CDDA 100%
Signature: 1F788906051EE1A2659AC04F2769E31C0C72AE4F
FILE: 02. Song Of The Wind.flac
Size: 16988093 Hash: 0961C565CF1E0E4340DB04A457E299B7 Accuracy: -m0
Conclusion: CDDA 100%
Signature: C5FEE47AE9F86B5821670383F1EAC2B081E740F1
FILE: 01. Good Vibes.flac
Size: 13052518 Hash: 7088D9CFCC76A8C93E5269E8F40B6208 Accuracy: -m0
Conclusion: CDDA 100%
Signature: 36158CEE79B6119B4842316C4E77116A1AC9A5F9
foobar2000 1.4 / Dynamic Range Meter 1.1.1 
log date: 2023-09-01 13:33:56

--------------------------------------------------------------------------------
Analyzed: Plushka / Rhytmhead
--------------------------------------------------------------------------------

DR Peak RMS Duration Track
--------------------------------------------------------------------------------
DR13 -0.20 dB -14.25 dB 2:19 01-Good Vibes
DR12 -0.20 dB -14.18 dB 2:48 02-Song Of The Wind
DR13 -0.20 dB -14.51 dB 2:45 03-Crash
DR12 -0.20 dB -13.77 dB 2:50 04-Can't Stop This
DR11 -0.20 dB -11.80 dB 2:36 05-Smile On Face
DR12 -0.10 dB -14.73 dB 3:06 06-Dialogue
DR9 -0.54 dB -11.49 dB 2:21 07-Hungry
DR11 -0.10 dB -12.75 dB 2:22 08-When You're A Dreamer
DR12 -0.20 dB -14.01 dB 2:12 09-Midnight
DR12 -0.10 dB -16.26 dB 2:33 10-Bedroom Producer
--------------------------------------------------------------------------------

Number of tracks: 10
Official DR value: DR12

Samplerate: 44100 Hz
Channels: 2
Bits per sample: 16
Bitrate: 558 kbps
Codec: FLAC
================================================================================
Продолжительность: 00:03:41
Трэклист:
01. Ghost Of Thoughts (3:41)
-----------------------

DON'T MODIFY THIS FILE

-----------------------

PERFORMER: auCDtect Task Manager, ver. 1.6.0 RC1 build 1.6.0.1
Copyright (c) 2008-2010 y-soft. All rights reserved
http://y-soft.org

ANALYZER: auCDtect: CD records authenticity detector, version 0.8.2
Copyright (c) 2004 Oleg Berngardt. All rights reserved.
Copyright (c) 2004 Alexander Djourik. All rights reserved.

FILE: 01. Ghost Of Thoughts.flac
Size: 14449609 Hash: C3D6F251A904EC7C58078836ED4806E0 Accuracy: -m0
Conclusion: CDDA 86%
Signature: 8DBC76008778419FA58288D74253AA82764E350B
foobar2000 1.4 / Dynamic Range Meter 1.1.1 
log date: 2023-09-01 13:34:07

--------------------------------------------------------------------------------
Statistics for: 01-Ghost Of Thoughts
Number of samples: 9717159
Duration: 3:40
--------------------------------------------------------------------------------

Left Right

Peak Value: 0.00 dB --- 0.00 dB
Avg RMS: -13.99 dB --- -13.57 dB
DR channel: 11.31 dB --- 11.09 dB
--------------------------------------------------------------------------------

Official DR Value: DR11

Samplerate: 44100 Hz
Channels: 2
Bits per sample: 16
Bitrate: 525 kbps
Codec: FLAC
================================================================================
Продолжительность: 00:23:19
Трэклист:
01. Sad Waves (1:16)
02. Romantic 4 Life (2:17)
03. Écoutez-Vous (1:47)
04. The World Is Yours (2:02)
05. The One With A Foul Heart (1:52)
06. Poetry (1:42)
07. California Dreamin' (2:35)
08. When I Miss You (2:53)
09. Wind In The Trees (2:53)
10. Easy (3:15)
11. Outro (0:51)
-----------------------

DON'T MODIFY THIS FILE

-----------------------

PERFORMER: auCDtect Task Manager, ver. 1.6.0 RC1 build 1.6.0.1
Copyright (c) 2008-2010 y-soft. All rights reserved
http://y-soft.org

ANALYZER: auCDtect: CD records authenticity detector, version 0.8.2
Copyright (c) 2004 Oleg Berngardt. All rights reserved.
Copyright (c) 2004 Alexander Djourik. All rights reserved.

FILE: 11. Outro.flac
Size: 2709001 Hash: F657A8217A14AB20DC900481F6A3F955 Accuracy: -m0
Conclusion: CDDA 100%
Signature: 73C011B3F1005E5009016989D37E569216544BAD
FILE: 10. Easy.flac
Size: 14812092 Hash: 12ED84992F5F21121A0C70473A401D24 Accuracy: -m0
Conclusion: CDDA 94%
Signature: B2F92BF913D2C9A110CB578FF75900EDADF5648C
FILE: 09. Wind In The Trees.flac
Size: 13559767 Hash: DD9EDE07F9F83FE8502267F0642EF6B0 Accuracy: -m0
Conclusion: CDDA 100%
Signature: 0D9DC1E40E4AC1631683C86013A7C5AF0355B4B8
FILE: 08. When I Miss You.flac
Size: 12596472 Hash: 01656E5C82781C5CFB638400B7F10AC1 Accuracy: -m0
Conclusion: CDDA 100%
Signature: 66BAC80A9926047E633C2624823009D7FA5F12A9
FILE: 07. California Dreamin'.flac
Size: 14835093 Hash: 86C7F5DCE12A9BDCE051ACF2F2090212 Accuracy: -m0
Conclusion: CDDA 100%
Signature: 1AA685697B98788D3723B26E567E6F85F29D3A6B
FILE: 06. Poetry.flac
Size: 5613255 Hash: 7439762958636886D4FF3BE925DEE879 Accuracy: -m0
Conclusion: CDDA 85%
Signature: B0FF9305AF7B93ED7EDB516DEE3DB8D3A46EDC44
FILE: 05. The One With A Foul Heart.flac
Size: 6996720 Hash: EC8C148F137540B5C92F788C778EA116 Accuracy: -m0
Conclusion: CDDA 100%
Signature: 125444032DB62E35B23998F7D277AF4C93EC1616
FILE: 04. The World Is Yours.flac
Size: 8604060 Hash: FC4528B1C76BCA3A1622D4833713C8FF Accuracy: -m0
Conclusion: CDDA 92%
Signature: B605ABEF5E2578E33C6FAB34E476B6463EC767E8
FILE: 03. Écoutez-Vous.flac
Size: 9508944 Hash: 65DDF86CBAB11C834CBB33D63900F825 Accuracy: -m0
Conclusion: CDDA 100%
Signature: 0AFEDB87E4ABDF14C70481DA6DB26BEAABAC689F
FILE: 02. Romantic 4 Life.flac
Size: 12300564 Hash: 3F5988B68FCCAEBDA12D2596A2BB3041 Accuracy: -m0
Conclusion: CDDA 94%
Signature: 737B7DA1AD03F0F871A30D052B7058C2314F5985
FILE: 01. Sad Waves.flac
Size: 4006761 Hash: 488009FAC9E986DAD0EDB4C20C0EA9F5 Accuracy: -m0
Conclusion: CDDA 42%
Signature: 6368837EFF9B70A5DDB8DA6C53851E95709C98E3
foobar2000 1.4 / Dynamic Range Meter 1.1.1 
log date: 2023-09-01 13:34:22

--------------------------------------------------------------------------------
Analyzed: Plushka / 22:22
--------------------------------------------------------------------------------

DR Peak RMS Duration Track
--------------------------------------------------------------------------------
DR12 -0.30 dB -15.95 dB 1:16 01-Sad Waves
DR12 -0.30 dB -14.34 dB 2:17 02-Romantic 4 Life
DR9 -0.10 dB -10.57 dB 1:46 03-Écoutez-Vous
DR14 -0.10 dB -16.45 dB 2:02 04-The World Is Yours
DR13 -4.88 dB -20.84 dB 1:51 05-The One With A Foul Heart
DR13 -0.30 dB -15.67 dB 1:42 06-Poetry
DR13 -0.10 dB -15.20 dB 2:35 07-California Dreamin'
DR13 -0.20 dB -16.59 dB 2:52 08-When I Miss You
DR13 -0.30 dB -16.65 dB 2:52 09-Wind In The Trees
DR12 0.00 dB -14.83 dB 3:15 10-Easy
DR12 -8.28 dB -22.99 dB 0:51 11-Outro
--------------------------------------------------------------------------------

Number of tracks: 11
Official DR value: DR12

Samplerate: 44100 Hz
Channels: 2
Bits per sample: 16
Bitrate: 346 kbps
Codec: FLAC
================================================================================
Продолжительность: 00:03:10
Трэклист:
01. Отпускаю (Plushka Remix) (3:10)
-----------------------

DON'T MODIFY THIS FILE

-----------------------

PERFORMER: auCDtect Task Manager, ver. 1.6.0 RC1 build 1.6.0.1
Copyright (c) 2008-2010 y-soft. All rights reserved
http://y-soft.org

ANALYZER: auCDtect: CD records authenticity detector, version 0.8.2
Copyright (c) 2004 Oleg Berngardt. All rights reserved.
Copyright (c) 2004 Alexander Djourik. All rights reserved.

FILE: 01. Отпускаю (Plushka Remix).flac
Size: 18470007 Hash: 4E91341AD9523EB9246265EFAE548E44 Accuracy: -m0
Conclusion: CDDA 100%
Signature: 705858F7FB3BA7FB06D01B40DAB2131DCC4F7537
foobar2000 1.4 / Dynamic Range Meter 1.1.1 
log date: 2023-09-01 13:34:39

--------------------------------------------------------------------------------
Statistics for: 01-Отпускаю (Plushka Remix)
Number of samples: 8341627
Duration: 3:09
--------------------------------------------------------------------------------

Left Right

Peak Value: 0.00 dB --- 0.00 dB
Avg RMS: -9.44 dB --- -9.50 dB
DR channel: 6.84 dB --- 6.80 dB
--------------------------------------------------------------------------------

Official DR Value: DR7

Samplerate: 44100 Hz
Channels: 2
Bits per sample: 16
Bitrate: 760 kbps
Codec: FLAC
================================================================================
Продолжительность: 00:03:28
Трэклист:
01. Novoe Vremya (3:28)
-----------------------

DON'T MODIFY THIS FILE

-----------------------

PERFORMER: auCDtect Task Manager, ver. 1.6.0 RC1 build 1.6.0.1
Copyright (c) 2008-2010 y-soft. All rights reserved
http://y-soft.org

ANALYZER: auCDtect: CD records authenticity detector, version 0.8.2
Copyright (c) 2004 Oleg Berngardt. All rights reserved.
Copyright (c) 2004 Alexander Djourik. All rights reserved.

FILE: 01. Novoe Vremya.flac
Size: 16515108 Hash: E34B2F9A9196A96F57D85330AA71FD71 Accuracy: -m0
Conclusion: CDDA 100%
Signature: 9B3EDA85290E884494ABA055421A8CF9F6726D93
foobar2000 1.4 / Dynamic Range Meter 1.1.1 
log date: 2023-09-01 13:34:51

--------------------------------------------------------------------------------
Statistics for: 01-Novoe Vremya
Number of samples: 9152209
Duration: 3:28
--------------------------------------------------------------------------------

Left Right

Peak Value: -0.20 dB --- -0.20 dB
Avg RMS: -10.26 dB --- -10.39 dB
DR channel: 7.99 dB --- 8.00 dB
--------------------------------------------------------------------------------

Official DR Value: DR8

Samplerate: 44100 Hz
Channels: 2
Bits per sample: 16
Bitrate: 636 kbps
Codec: FLAC
================================================================================
Продолжительность: 00:47:07
Трэклист:
01. Romantic (5:12)
-----------------------

DON'T MODIFY THIS FILE

-----------------------

PERFORMER: auCDtect Task Manager, ver. 1.6.0 RC1 build 1.6.0.1
Copyright (c) 2008-2010 y-soft. All rights reserved
http://y-soft.org

ANALYZER: auCDtect: CD records authenticity detector, version 0.8.2
Copyright (c) 2004 Oleg Berngardt. All rights reserved.
Copyright (c) 2004 Alexander Djourik. All rights reserved.

FILE: 16. Suviaź z Patuśvietam.flac
Size: 12087628 Hash: 488D157A0990417937011864C291C41D Accuracy: -m0
Conclusion: MPEG 100%
Signature: 2908DFE005EABB60AD5DA2D3A78DFE97FFE34C2A
FILE: 15. Dziady.flac
Size: 13355854 Hash: 72BBAB9705B4A30AE925543DD61FD57F Accuracy: -m0
Conclusion: MPEG 92%
Signature: 7D9D24BFB1AD15214D02FBD65EC065C29BBA4824
FILE: 14. Viera Prodkaŭ.flac
Size: 15000255 Hash: BA3BA424165BCAB76BEDCEFAF480C82F Accuracy: -m0
Conclusion: MPEG 80%
Signature: E7F2EC98B7091332BD0D408DE410A10663AD495B
FILE: 13. Dalokija Prastory.flac
Size: 14429322 Hash: 6BD5DF6CF9D17F12930C5B6DE6D77C65 Accuracy: -m0
Conclusion: CDDA 92%
Signature: 6E88B656482E69A72150E7042011C537EE296866
FILE: 12. Nieruchomyja Zory.flac
Size: 12885179 Hash: 42690592C8309346FE82D120B3154D75 Accuracy: -m0
Conclusion: CDDA 100%
Signature: B7F31EF7CAD93C136C8F906E0373FA96F4677274
FILE: 11. Jasnyja Vočy.flac
Size: 12336033 Hash: 7841386DF8AC8BC9114876143C0E0C59 Accuracy: -m0
Conclusion: CDDA 100%
Signature: F06888062707211A3EBFBB7E22CEE161F28D694C
FILE: 10. Pryjdzie Kazka ŭ Śnie.flac
Size: 15464095 Hash: 9485E2B0E962435231D39092AC43BEB0 Accuracy: -m0
Conclusion: CDDA 54%
Signature: A0B6C9972787A502818C482309DD345128CF6F41
FILE: 09. Majski Vietryk.flac
Size: 13656293 Hash: 517CE1DA1D009E8699AEA98D2F50E519 Accuracy: -m0
Conclusion: CDDA 100%
Signature: 7A7830E33A1982A4C3FA259B7EC1127E34098293
FILE: 08. Načnyja Zarnicy.flac
Size: 14605933 Hash: D8B6AD0A5C5B3BDF1636D4BAD249CA63 Accuracy: -m0
Conclusion: CDDA 100%
Signature: 0EF1D5A59F8052676ACD320CF8BBBF8C61215FB0
FILE: 07. Poŭnia.flac
Size: 13495141 Hash: 2B3F417DA8580542F57142F04EF4F945 Accuracy: -m0
Conclusion: CDDA 43%
Signature: C986EFD9BF1CAA50E4C48440FFFA539886989214
FILE: 06. Śvitańnie.flac
Size: 16158135 Hash: 6FD7FD96FA37E559CCD4EDE35DBFB712 Accuracy: -m0
Conclusion: CDDA 85%
Signature: 98124FE3D521132A6B19A65269275B517DC3CFD9
FILE: 05. Cudoŭna Źziajuć Dzietkam Sny.flac
Size: 17561847 Hash: 4F24619D870003B982E13FCC4CDA3CC0 Accuracy: -m0
Conclusion: CDDA 99%
Signature: 2F2541E9A6450C1116DEEC11501AC41081E56819
FILE: 04. Červieński Viečar.flac
Size: 11916025 Hash: F743D170CF1CAC00B6C807D2BC4F0D5B Accuracy: -m0
Conclusion: CDDA 100%
Signature: 902AF037DBF07C7FA221980FB2F52363D4903F8C
FILE: 03. Cieni ad Kvietak.flac
Size: 15453861 Hash: 272BA0B7886B45FC8705E03066277104 Accuracy: -m0
Conclusion: CDDA 54%
Signature: 7E536252EA8C0A0C6597BB7DCCD0578E7FCC246F
FILE: 02. Cudoŭny Dzień.flac
Size: 11133592 Hash: 26CC5FAA559C73203FEBD6C12CA65631 Accuracy: -m0
Conclusion: CDDA 94%
Signature: 3DF1C1CB0592F81F7070E2087926A74314297E1A
FILE: 01. Šyrokim Krokam.flac
Size: 15412463 Hash: C760A0ACC909F9DDC1248BF86760ED9C Accuracy: -m0
Conclusion: CDDA 100%
Signature: 996FB9C7A99C39E9B85F90325428A2A98FA6AFF0
foobar2000 1.4 / Dynamic Range Meter 1.1.1 
log date: 2023-09-01 13:35:13

--------------------------------------------------------------------------------
Analyzed: Plushka / Volny Kutok
--------------------------------------------------------------------------------

DR Peak RMS Duration Track
--------------------------------------------------------------------------------
DR11 -0.20 dB -13.04 dB 2:37 01-Šyrokim Krokam
DR11 -0.24 dB -13.83 dB 2:02 02-Cudoŭny Dzień
DR14 -0.20 dB -16.59 dB 2:49 03-Cieni ad Kvietak
DR11 -0.20 dB -14.68 dB 2:24 04-Červieński Viečar
DR14 -0.20 dB -16.47 dB 3:14 05-Cudoŭna Źziajuć Dzietkam Sny
DR13 -0.20 dB -15.48 dB 3:06 06-Śvitańnie
DR15 -0.20 dB -18.63 dB 3:19 07-Poŭnia
DR13 -0.20 dB -15.54 dB 2:38 08-Načnyja Zarnicy
DR11 -0.17 dB -14.45 dB 2:33 09-Majski Vietryk
DR9 -0.06 dB -12.59 dB 2:53 10-Pryjdzie Kazka ŭ Śnie
DR14 -0.20 dB -17.66 dB 2:22 11-Jasnyja Vočy
DR11 -0.20 dB -13.84 dB 3:00 12-Nieruchomyja Zory
DR12 -0.20 dB -14.64 dB 3:50 13-Dalokija Prastory
DR12 -0.20 dB -16.36 dB 3:49 14-Viera Prodkaŭ
DR13 -1.23 dB -16.54 dB 3:23 15-Dziady
DR12 -0.20 dB -18.63 dB 3:07 16-Suviaź z Patuśvietam
--------------------------------------------------------------------------------

Number of tracks: 16
Official DR value: DR12

Samplerate: 44100 Hz
Channels: 2
Bits per sample: 16
Bitrate: 459 kbps
Codec: FLAC
================================================================================
Продолжительность: 00:26:48
Трэклист:
01. Culture Adepts (2:08)
02. '93 (1:53)
03. Choose A Better Location (2:45)
04. Attack Of My Crew (1:36)
05. Practice (1:58)
06. Design The Reality (1:48)
07. On The Regular (2:25)
08. Slow Cozy Days (2:32)
09. Good Karma (2:39)
10. Inside (ft. MaxGreat) (2:35)
11. Spacer (1:58)
12. Lo-Nights (ft. Lamby B) (2:36)
-----------------------

DON'T MODIFY THIS FILE

-----------------------

PERFORMER: auCDtect Task Manager, ver. 1.6.0 RC1 build 1.6.0.1
Copyright (c) 2008-2010 y-soft. All rights reserved
http://y-soft.org

ANALYZER: auCDtect: CD records authenticity detector, version 0.8.2
Copyright (c) 2004 Oleg Berngardt. All rights reserved.
Copyright (c) 2004 Alexander Djourik. All rights reserved.

FILE: 12. Lo-Nights (ft. Lamby B).flac
Size: 12716041 Hash: 5823AB0E4D4F436826A178D3502E573A Accuracy: -m0
Conclusion: CDDA 100%
Signature: E819C12C87A94835B808FF09FC595799FE983E2C
FILE: 11. Spacer.flac
Size: 8387597 Hash: C96014852453D2829730BBA217218564 Accuracy: -m0
Conclusion: CDDA 99%
Signature: EF710013814CB6470B6584D5FE69C0B4FAD22546
FILE: 10. Inside (ft. MaxGreat).flac
Size: 14742608 Hash: 1103C2CD9F6EDEF726CF0F5E47E81103 Accuracy: -m0
Conclusion: CDDA 100%
Signature: 01FE0AB77DA4D9C117AE9437E4726C677DE77F18
FILE: 09. Good Karma.flac
Size: 10970954 Hash: 64E07D992BFA68E86B19394C376CC52A Accuracy: -m0
Conclusion: CDDA 100%
Signature: 973DE382D79EA01BAF310A05E206E512531EA8FE
FILE: 08. Slow Cozy Days.flac
Size: 13670904 Hash: 92E1F43ED37E478A55D81225E2EB4D97 Accuracy: -m0
Conclusion: CDDA 100%
Signature: 574C4415911F6EFE2B2FDCB8D798406686D27995
FILE: 07. On The Regular.flac
Size: 13363989 Hash: B9B0456073F2E458CC659C483344AD02 Accuracy: -m0
Conclusion: CDDA 100%
Signature: 46BCEC9A6C95133C96F38FD691BED8D46FDD2839
FILE: 06. Design The Reality.flac
Size: 11215170 Hash: AF3F4C510777A56870A589278BA6EDB5 Accuracy: -m0
Conclusion: CDDA 100%
Signature: D239143914046368A894AB3063D2E9F84F87E8A6
FILE: 05. Practice.flac
Size: 10950590 Hash: 7B5F02FBAA59F0FB49488716C79BA816 Accuracy: -m0
Conclusion: CDDA 100%
Signature: 89932CB167903399E34435B20FCACFA1605BA358
FILE: 04. Attack Of My Crew.flac
Size: 8237605 Hash: 6D527E0C3958717F0C25BB05B032F0A4 Accuracy: -m0
Conclusion: CDDA 100%
Signature: 4F293CEF22EAB675BD8D61D5C3BF7596C5F39284
FILE: 03. Choose A Better Location.flac
Size: 13658867 Hash: E8138B5A8BFE3192F128BF843BC98E74 Accuracy: -m0
Conclusion: CDDA 100%
Signature: AB36E39AC556E6DE7CE387030577DB87E2B2BE71
FILE: 02. '93.flac
Size: 10301577 Hash: 54FAE860D38F5AE5B57885D5FE057089 Accuracy: -m0
Conclusion: CDDA 100%
Signature: C24DEA6B160DCF47107140D3BCBEE0DFC05832CF
FILE: 01. Culture Adepts.flac
Size: 13135061 Hash: 87BA842FEF9962DA8A1C254F70951E06 Accuracy: -m0
Conclusion: CDDA 100%
Signature: ADA023324A126D00EB5F18C38CB877AD42609497
foobar2000 1.4 / Dynamic Range Meter 1.1.1 
log date: 2023-09-01 13:35:29

--------------------------------------------------------------------------------
Analyzed: Plushka / Attack Of My Crew
--------------------------------------------------------------------------------

DR Peak RMS Duration Track
--------------------------------------------------------------------------------
DR9 0.00 dB -11.57 dB 2:08 01-Culture Adepts
DR11 0.00 dB -12.28 dB 1:53 02-'93
DR11 0.00 dB -13.51 dB 2:45 03-Choose A Better Location
DR11 0.00 dB -11.88 dB 1:35 04-Attack Of My Crew
DR11 -0.02 dB -13.26 dB 1:58 05-Practice
DR13 -0.30 dB -14.45 dB 1:47 06-Design The Reality
DR11 -0.26 dB -13.19 dB 2:24 07-On The Regular
DR11 -0.20 dB -13.17 dB 2:31 08-Slow Cozy Days
DR12 -0.10 dB -14.08 dB 2:38 09-Good Karma
DR9 -0.73 dB -12.19 dB 2:35 10-Inside (ft. MaxGreat)
DR13 -0.91 dB -16.28 dB 1:58 11-Spacer
DR13 0.00 dB -15.21 dB 2:36 12-Lo-Nights (ft. Lamby B)
--------------------------------------------------------------------------------

Number of tracks: 12
Official DR value: DR11

Samplerate: 44100 Hz
Channels: 2
Bits per sample: 16
Bitrate: 653 kbps
Codec: FLAC
================================================================================
Привет!

Проект "Plushka" был создан мною в 2011-2012 годах, на просторах родной Беларуси.
Не сказать, что это было внезапно, нет. Этому предшествовали множество демо записей, не знающих стиля, границ и тому подобного.
Просто сублимация ощущения этого мира через звуки, слова.

Но после 2012-го стала приходить организованность и желание делать хорошие вещи.
Альбомы, например, а не просто синглы.
Хотя тот период, когда я издал много треков, очень отличающихся друг от друга - вспоминается мне с теплом и улыбкой.

Первым делом хотелось бы отметить, что к написанию музыки меня подтолкнул такой стиль как хип-хоп.
На первый взгляд этого и не заметишь, но.
Мне никогда не хотелось делать так, как делал уже кто-то. Я за индивидуальность.
И вся эта музыка - это моё видение того или другого, либо просто переживание, осознание времени в тот или иной период.
Это как диалог с собой. С Высшими Силами.
И я очень благодарен за прикосновение к музыке. За то, что она есть в моей жизни, за то, что она делает, как влияет на тебя.

Я желаю каждому музыканту почувствовать это - любовь к тому, что ты делаешь и благодарность за это. Да и не только на музыкантов это можно переложить.

Со временем вкусы менялись, что-то проходило бесследно, что-то оставалось, как старые друзья. И это здорово.
Я начал экспериментировать, смотреть в сторону трип-хопа, эмбиента, каких-то электронных звучаний.
Однажды услышал фразу: "Хорошая музыка не имеет направления" и эти слова стали гимном, это же гениально!

Наверняка все мы видим музыку по-разному, это факт, и я очень рад, когда в людях откликается что-то при прослушивании моей музыки,
когда получается показать то, что ты чувствовал вот так, без слов, только энергией, звуком. Для меня это до сих пор самая настоящая магия.

Таким образом всё это и происходит. Каждое нажатие на кнопку "rec" - даёт новый результат и ты никогда не можешь сказать, что будет по итогу.

Для чего всё это?
Для того, чтобы помнить, что все мы - звёздная пыль.
Мы пришли сюда лишь на мгновение.
Поэтому если кто-то забыл, то я надеюсь, эта музыка поможет вспомнить главное:
мы здесь для того, чтобы любить, мечтать и получать удовольствие.

Прошло много лет с момента первого релиза, а я возвращаюсь к музыке с таким же теплом, любовью и трепетом.
Потому что это бесконечный диалог со Вселенной.

Ещё раз благодарю и обнимаю каждого своего слушателя!

Ещё увидимся!
info [Профиль]  [ЛС] 
Показать сообщения:    
Ответить на тему

Текущее время: 15-Июн 23:44

Часовой пояс: GMT + 4



Вы не можете начинать темы
Вы не можете отвечать на сообщения
Вы не можете редактировать свои сообщения
Вы не можете удалять свои сообщения
Вы не можете голосовать в опросах
Вы не можете прикреплять файлы к сообщениям
Вы не можете скачивать файлы