Ошибка

(Rap / Hip-Hop) [WEB] Travis Scott - UTOPIA - 2023, FLAC (tracks), lossless

Ответить на тему
 
Автор Сообщение

DarK_Knight96

Пол: Пол:Муж

Стаж: 4 месяца 28 дней

Сообщений: 366

Россия
Рейтинг

post 15-Май-2024 20:40 0[+]

[Цитировать] 



Travis Scott - UTOPIA - 2023




Жанр: Rap / Hip-Hop

Год издания: 2023

Формат/Кодек:: FLAC (*.flac)

Производитель диска:: USA

Количество треков: 19

Битрейт аудио: 1024 kbps

Продолжительность: 01:13:37

01. HYAENA (03:42)
02. THANK GOD (03:05)
03. MODERN JAM feat. Teezo Touchdown (04:15)
04. MY EYES feat. Sampha & Bon Iver (04:11)
05. GOD'S COUNTRY (02:08)
06. SIRENS feat. Swae Lee (03:24)
07. MELTDOWN feat. Drake (04:06)
08. FE!N feat. Playboi Carti & Sheck Wes (03:12)
09. DELRESTO (ECHOES) feat. Beyonce, Justin Vernon (04:34)
10. I KNOW ? (03:32)
11. TOPIA TWINS feat. Rob49 & 21 Savage (03:43)
12. CIRCUS MAXIMUS feat. Swae Lee & The Weeknd (04:19)
13. PARASAIL feat. Dave Chappelle & Yung Lean (02:35)
14. SKITZO feat. Young Thug (06:07)
15. LOST FOREVER feat. Westside Gunn & James Blake (02:43)
16. LOOOVE feat. Kid Cudi (03:47)
17. K-POP feat. Bad Bunny & The Weeknd (03:05)
18. TELEKINESIS feat. Future & SZA (05:54)
19. TIL FURTHER NOTICE feat. 21 Savage & James Blake (05:15)
-----------------------

DON'T MODIFY THIS FILE

-----------------------

PERFORMER: auCDtect Task Manager, ver. 1.6.0 RC1 build 1.6.0.1
Copyright (c) 2008-2010 y-soft. All rights reserved
http://y-soft.org

ANALYZER: auCDtect: CD records authenticity detector, version 0.8.2
Copyright (c) 2004 Oleg Berngardt. All rights reserved.
Copyright (c) 2004 Alexander Djourik. All rights reserved.

FILE: 19 - TIL FURTHER NOTICE.flac
Size: 30573935 Hash: D77F81087AC9F16C1B1570613D925A62 Accuracy: -m0
Conclusion: CDDA 100%
Signature: 03D3379C1B360F236F2C9B74BE68199AB18ADDE3
FILE: 18 - TELEKINESIS.flac
Size: 39350135 Hash: A069B03226A51F15C832A8B654EB48C8 Accuracy: -m0
Conclusion: CDDA 100%
Signature: 044941DC93E85251DE39E52B328C8DA10AF0DB68
FILE: 17 - K-POP.flac
Size: 20583774 Hash: D21648FDAD984D559FEF11386F1102AF Accuracy: -m0
Conclusion: CDDA 100%
Signature: 3D87E202B5FA4A57959642DAD0CE6D99D94F64A9
FILE: 16 - LOOOVE.flac
Size: 27708533 Hash: 68B8AB675E1AE8624F1069EA6578DFFD Accuracy: -m0
Conclusion: CDDA 100%
Signature: EE9E884D248F5AE82B04E767F914464EBB2C5EED
FILE: 15 - LOST FOREVER.flac
Size: 19107928 Hash: 6A3C8FA4F720BD9D7544A08BC920FBC5 Accuracy: -m0
Conclusion: CDDA 100%
Signature: 8EFF7C39DB4A980875BBEA2D3270B0E962319E95
FILE: 14 - SKITZO.flac
Size: 38653737 Hash: D25B076795CB734EC921178609D1F55E Accuracy: -m0
Conclusion: CDDA 100%
Signature: F4923AE41358C8F3E0FBDEC26992F7B8391456F5
FILE: 13 - PARASAIL.flac
Size: 15073990 Hash: C37ECF30EABE3115CB525CF1A8CEFA1E Accuracy: -m0
Conclusion: CDDA 100%
Signature: D5C042813866F6CD60442FA5FC005FDFD05E22EB
FILE: 12 - CIRCUS MAXIMUS.flac
Size: 32898689 Hash: 204F5CF917F4CA19CB5714419342EB36 Accuracy: -m0
Conclusion: CDDA 100%
Signature: 51BAA213EF71B9D9AFCA256E6AADDA2F23D93FC3
FILE: 11 - TOPIA TWINS.flac
Size: 25579066 Hash: BFEEC72CA62A305FFE473825E0BD0326 Accuracy: -m0
Conclusion: CDDA 99%
Signature: A5EA257BAE5FB19286D142AB6E65FBE8C3B56819
FILE: 10 - I KNOW.flac
Size: 22990692 Hash: 5E9846B1D2ACE278053F8E50F108C012 Accuracy: -m0
Conclusion: CDDA 100%
Signature: 49EDE842D738DAEAC915DFC615D09C2FBA4D3AD0
FILE: 09 - DELRESTO (ECHOES).flac
Size: 32119338 Hash: DCB15319130BC4AD6B3F17D61F791783 Accuracy: -m0
Conclusion: CDDA 100%
Signature: 20FFC83B6BD74CD59476D0CB09EF96B71123F0BD
FILE: 08 - FE!N.flac
Size: 24859859 Hash: 4A1DB8B466D832B5A5DB241895B3C2B8 Accuracy: -m0
Conclusion: CDDA 100%
Signature: 4ADEF2C408085E96AC952A13ED5C67A94CE490C2
FILE: 07 - MELTDOWN.flac
Size: 28827023 Hash: C4665EC1FB7512B546E204C4C17CAF54 Accuracy: -m0
Conclusion: CDDA 100%
Signature: F583EB5577B5627D0CE85E798D1EF047B2B09977
FILE: 06 - SIRENS.flac
Size: 23848152 Hash: B210A0A01B49CD7A10AEFAF948E266B0 Accuracy: -m0
Conclusion: CDDA 100%
Signature: 270E343C1237A2AD9AAEC25AE83440A1C3C7DAB4
FILE: 05 - GOD'S COUNTRY.flac
Size: 14263051 Hash: 51A348476C81DADF847FABCA6BDC90DD Accuracy: -m0
Conclusion: CDDA 100%
Signature: 84F3546C0BEF8FC52B4253A3255DC00278DCFBE8
FILE: 04 - MY EYES.flac
Size: 27939156 Hash: 9902B45E095BB68A40E6B677ADC4D075 Accuracy: -m0
Conclusion: CDDA 100%
Signature: E3E3BE264FF1DCB81B0C8C7957A05D7B3B5E9C39
FILE: 03 - MODERN JAM.flac
Size: 34102915 Hash: A9AD1AEAC318CEB4C4B0CF1981D89774 Accuracy: -m0
Conclusion: CDDA 100%
Signature: 8C7C9FB04C29051F7126E9BE3A8E4A642207D181
FILE: 02 - THANK GOD.flac
Size: 20251975 Hash: 1193A98D6493CC76AA98AD3C116B2C8E Accuracy: -m0
Conclusion: CDDA 100%
Signature: 5E5CC8DA339A00D2EBC0D35D1AD1488A8F66278C
FILE: 01 - HYAENA.flac
Size: 26767298 Hash: 3395A27DA9AECFF30EF8087DB241F006 Accuracy: -m0
Conclusion: CDDA 100%
Signature: 6B5EB40BA76C68F8DF845F2302FCAA2682FCE2B2

Код:

foobar2000 1.6.9 / Dynamic Range Meter 1.1.1
log date: 2023-07-28 10:48:03

--------------------------------------------------------------------------------
Analyzed: Travis Scott / UTOPIA
--------------------------------------------------------------------------------

DR         Peak         RMS     Duration Track
--------------------------------------------------------------------------------
DR4        0.00 dB    -5.76 dB      3:42 01-HYAENA
DR5        0.00 dB    -8.12 dB      3:05 02-THANK GOD
DR3        0.00 dB    -4.26 dB      4:15 03-MODERN JAM
DR4       -0.88 dB    -6.67 dB      4:11 04-MY EYES
DR4        0.00 dB    -5.67 dB      2:08 05-GOD'S COUNTRY
DR4        0.00 dB    -7.35 dB      3:24 06-SIRENS
DR4        0.00 dB    -5.77 dB      4:06 07-MELTDOWN
DR3        0.00 dB    -4.34 dB      3:12 08-FE!N
DR5        0.00 dB    -7.18 dB      4:34 09-DELRESTO (ECHOES)
DR6        0.00 dB    -6.89 dB      3:32 10-I KNOW ?
DR4        0.00 dB    -5.82 dB      3:43 11-TOPIA TWINS
DR4        0.00 dB    -5.00 dB      4:19 12-CIRCUS MAXIMUS
DR5       -0.51 dB    -7.68 dB      2:35 13-PARASAIL
DR3        0.00 dB    -5.95 dB      6:07 14-SKITZO
DR5        0.00 dB    -5.81 dB      2:43 15-LOST FOREVER
DR3        0.00 dB    -4.92 dB      3:47 16-LOOOVE
DR4        0.00 dB    -6.11 dB      3:05 17-K-POP
DR4        0.00 dB    -5.64 dB      5:54 18-TELEKINESIS
DR4        0.00 dB    -5.90 dB      5:15 19-TIL FURTHER NOTICE
--------------------------------------------------------------------------------

Number of tracks:  19
Official DR value: DR4

Samplerate:        44100 Hz
Channels:          2
Bits per sample:   16
Bitrate:           776 kbps
Codec:             FLAC
================================================================================
info [Профиль]  [ЛС] 
Показать сообщения:    
Ответить на тему

Текущее время: 19-Май 09:10

Часовой пояс: GMT + 4



Вы не можете начинать темы
Вы не можете отвечать на сообщения
Вы не можете редактировать свои сообщения
Вы не можете удалять свои сообщения
Вы не можете голосовать в опросах
Вы не можете прикреплять файлы к сообщениям
Вы не можете скачивать файлы