Ошибка

(Hip Hop; G-Funk) [CD] Warren G - Regulate...G Funk Era (1st press) - 1994, FLAC (tracks+.cue), lossless

Ответить на тему
 
Автор Сообщение

DarK_Knight96

Пол: Пол:Муж

Стаж: 5 месяцев

Сообщений: 375

Россия
Рейтинг

post 15-Май-2024 20:31 0[+]

[Цитировать] 



Warren G / Regulate...G Funk Era (1st press)




Жанр: Hip Hop; G-Funk

Год издания: 1994

Формат/Кодек:: FLAC (*.flac)

Производитель диска:: USA

Количество треков: 12

Битрейт аудио: 1024 kbps

Продолжительность: 36:57

01. Regulate
02. Do You See
03. Gangsta Sermon
04. Recognize
05. Super Soul Sis
06. '94 Ho Draft
07. So Many Ways
08. This D.J.
09. This Is The Shack
10. What's Next
11. And Ya Don't Stop
12. Runnin' Wit No Breaks
Exact Audio Copy V0.99 prebeta 5 from 4. May 2009

EAC extraction logfile from 15. March 2010, 20:48

Warren G / Regulate...G Funk Era

Used drive : TSSTcorpCDDVDW SH-S203N Adapter: 1 ID: 0

Read mode : Secure
Utilize accurate stream : Yes
Defeat audio cache : Yes
Make use of C2 pointers : No

Read offset correction : 6
Overread into Lead-In and Lead-Out : No
Fill up missing offset samples with silence : Yes
Delete leading and trailing silent blocks : No
Null samples used in CRC calculations : Yes
Used interface : Native Win32 interface for Win NT & 2000
Gap handling : Appended to previous track

Used output format : User Defined Encoder
Selected bitrate : 1024 kBit/s
Quality : High
Add ID3 tag : No
Command line compressor : C:\Program Files\Exact Audio Copy\Flac\flac.exe
Additional command line options : -6 -V -T "ARTIST=%a" -T "TITLE=%t" -T "ALBUM=%g" -T "DATE=%y" -T "TRACKNUMBER=%n" -T "GENRE=%m" -T "COMMENT=%e" %s -o %d

TOC of the extracted CD

Track | Start | Length | Start sector | End sector
---------------------------------------------------------
1 | 0:00.33 | 4:08.65 | 33 | 18697
2 | 4:09.23 | 3:59.05 | 18698 | 36627
3 | 8:08.28 | 0:36.67 | 36628 | 39394
4 | 8:45.20 | 2:59.70 | 39395 | 52889
5 | 11:45.15 | 2:56.48 | 52890 | 66137
6 | 14:41.63 | 1:00.52 | 66138 | 70689
7 | 15:42.40 | 3:24.70 | 70690 | 86059
8 | 19:07.35 | 3:23.03 | 86060 | 101287
9 | 22:30.38 | 4:05.30 | 101288 | 119692
10 | 26:35.68 | 3:26.45 | 119693 | 135187
11 | 30:02.38 | 3:22.00 | 135188 | 150337
12 | 33:24.38 | 3:32.70 | 150338 | 166307

Track 1

Filename E:\Torrent Shares\Music\FLAC\Warren G - Regulate...G Funk Era\01 - Regulate.wav

Pre-gap length 0:00:02.33

Peak level 94.3 %
Track quality 100.0 %
Test CRC 8432E468
Copy CRC 8432E468
Accurately ripped (confidence 55) [0CD3D36A]
Copy OK

Track 2

Filename E:\Torrent Shares\Music\FLAC\Warren G - Regulate...G Funk Era\02 - Do you see.wav

Peak level 98.4 %
Track quality 99.9 %
Test CRC 7D489746
Copy CRC 7D489746
Accurately ripped (confidence 56) [2B7888DE]
Copy OK

Track 3

Filename E:\Torrent Shares\Music\FLAC\Warren G - Regulate...G Funk Era\03 - Gangsta Sermon.wav

Peak level 87.0 %
Track quality 100.0 %
Test CRC 7E8A5732
Copy CRC 7E8A5732
Accurately ripped (confidence 55) [9933779E]
Copy OK

Track 4

Filename E:\Torrent Shares\Music\FLAC\Warren G - Regulate...G Funk Era\04 - Recognize.wav

Peak level 94.6 %
Track quality 100.0 %
Test CRC B09F6AB2
Copy CRC B09F6AB2
Accurately ripped (confidence 57) [49BCADEC]
Copy OK

Track 5

Filename E:\Torrent Shares\Music\FLAC\Warren G - Regulate...G Funk Era\05 - Super Soul Sis.wav

Peak level 94.4 %
Track quality 99.9 %
Test CRC 365BFF82
Copy CRC 365BFF82
Accurately ripped (confidence 57) [51150C53]
Copy OK

Track 6

Filename E:\Torrent Shares\Music\FLAC\Warren G - Regulate...G Funk Era\06 - '94 Ho Draft.wav

Peak level 91.0 %
Track quality 100.0 %
Test CRC 4011C6A3
Copy CRC 4011C6A3
Accurately ripped (confidence 55) [ABB3E8FB]
Copy OK

Track 7

Filename E:\Torrent Shares\Music\FLAC\Warren G - Regulate...G Funk Era\07 - So many ways.wav

Peak level 96.7 %
Track quality 100.0 %
Test CRC B8B95A47
Copy CRC B8B95A47
Accurately ripped (confidence 57) [E6326E96]
Copy OK

Track 8

Filename E:\Torrent Shares\Music\FLAC\Warren G - Regulate...G Funk Era\08 - This D.J..wav

Peak level 95.9 %
Track quality 100.0 %
Test CRC 4A16FE34
Copy CRC 4A16FE34
Accurately ripped (confidence 57) [A5111CA9]
Copy OK

Track 9

Filename E:\Torrent Shares\Music\FLAC\Warren G - Regulate...G Funk Era\09 - This is the Shack.wav

Peak level 98.6 %
Track quality 99.9 %
Test CRC 12F375F4
Copy CRC 12F375F4
Accurately ripped (confidence 54) [947E82E3]
Copy OK

Track 10

Filename E:\Torrent Shares\Music\FLAC\Warren G - Regulate...G Funk Era\10 - What's next.wav

Peak level 95.6 %
Track quality 100.0 %
Test CRC 6993F072
Copy CRC 6993F072
Accurately ripped (confidence 55) [2A80A47B]
Copy OK

Track 11

Filename E:\Torrent Shares\Music\FLAC\Warren G - Regulate...G Funk Era\11 - And ya don't stop.wav

Peak level 94.1 %
Track quality 100.0 %
Test CRC 2755AC98
Copy CRC 2755AC98
Accurately ripped (confidence 57) [72F1B310]
Copy OK

Track 12

Filename E:\Torrent Shares\Music\FLAC\Warren G - Regulate...G Funk Era\12 - Runnin' wit no breaks.wav

Peak level 97.3 %
Track quality 100.0 %
Test CRC CFBA4D0B
Copy CRC CFBA4D0B
Accurately ripped (confidence 54) [F92A98E4]
Copy OK

All tracks accurately ripped

No errors occurred

End of status report

Код:

REM GENRE Rap
REM DATE 1994
REM DISCID 9C08A90C
REM COMMENT "ExactAudioCopy v0.99pb5"
PERFORMER "Warren G"
TITLE "Regulate...G Funk Era"
FILE "01 - Regulate.wav" WAVE
  TRACK 01 AUDIO
    TITLE "Regulate"
    PERFORMER "Warren G"
    PREGAP 00:00:33
    INDEX 01 00:00:00
FILE "02 - Do you see.wav" WAVE
  TRACK 02 AUDIO
    TITLE "Do you see"
    PERFORMER "Warren G"
    INDEX 01 00:00:00
FILE "03 - Gangsta Sermon.wav" WAVE
  TRACK 03 AUDIO
    TITLE "Gangsta Sermon"
    PERFORMER "Warren G"
    INDEX 01 00:00:00
FILE "04 - Recognize.wav" WAVE
  TRACK 04 AUDIO
    TITLE "Recognize"
    PERFORMER "Warren G"
    INDEX 01 00:00:00
FILE "05 - Super Soul Sis.wav" WAVE
  TRACK 05 AUDIO
    TITLE "Super Soul Sis"
    PERFORMER "Warren G"
    INDEX 01 00:00:00
FILE "06 - '94 Ho Draft.wav" WAVE
  TRACK 06 AUDIO
    TITLE "'94 Ho Draft"
    PERFORMER "Warren G"
    INDEX 01 00:00:00
FILE "07 - So many ways.wav" WAVE
  TRACK 07 AUDIO
    TITLE "So many ways"
    PERFORMER "Warren G"
    INDEX 01 00:00:00
FILE "08 - This D.J..wav" WAVE
  TRACK 08 AUDIO
    TITLE "This D.J."
    PERFORMER "Warren G"
    INDEX 01 00:00:00
FILE "09 - This is the Shack.wav" WAVE
  TRACK 09 AUDIO
    TITLE "This is the Shack"
    PERFORMER "Warren G"
    INDEX 01 00:00:00
FILE "10 - What's next.wav" WAVE
  TRACK 10 AUDIO
    TITLE "What's next"
    PERFORMER "Warren G"
    INDEX 01 00:00:00
FILE "11 - And ya don't stop.wav" WAVE
  TRACK 11 AUDIO
    TITLE "And ya don't stop"
    PERFORMER "Warren G"
    INDEX 01 00:00:00
FILE "12 - Runnin' wit no breaks.wav" WAVE
  TRACK 12 AUDIO
    TITLE "Runnin' wit no breaks"
    PERFORMER "Warren G"
    INDEX 01 00:00:00
info [Профиль]  [ЛС] 
Показать сообщения:    
Ответить на тему

Текущее время: 22-Май 18:39

Часовой пояс: GMT + 4



Вы не можете начинать темы
Вы не можете отвечать на сообщения
Вы не можете редактировать свои сообщения
Вы не можете удалять свои сообщения
Вы не можете голосовать в опросах
Вы не можете прикреплять файлы к сообщениям
Вы не можете скачивать файлы