Ошибка

(Rap, Hip Hop, Trap) [WEB] Masked Wolf - Astronomical - 2021, FLAC (tracks), lossless

Ответить на тему
 
Автор Сообщение

DarK_Knight96

Пол: Пол:Муж

Стаж: 5 месяцев

Сообщений: 375

Россия
Рейтинг

post 15-Май-2024 20:28 0[+]

[Цитировать] 



Masked Wolf / Astronomical




Жанр: Rap, Hip Hop, Trap

Год издания: 2021

Формат/Кодек:: FLAC (*.flac)

Производитель диска:: Australia

Количество треков: 17

Битрейт аудио: 915 kbps

Продолжительность: 00:44:28

1. Masked Wolf - Astronomical [03:15]
2. Masked Wolf - Just Names [02:37]
3. Masked Wolf - Gravity Glidin [02:20]
4. Masked Wolf - Razor's Edge ft. X Ambassadors [02:33]
5. Masked Wolf - Say So [02:00]
6. Masked Wolf - Bop [02:06]
7. Masked Wolf - Where's Wally [02:30]
8. Masked Wolf - Ain't Gonna Change [03:01]
9. Masked Wolf - Pandemonium [02:29]
10. Masked Wolf - Paper Planes [02:23]
11. Masked Wolf - Interstellar [04:12]
12. Masked Wolf - Tightrope ft. NICOLOSI [02:21]
13. Masked Wolf - Work [02:35]
14. Masked Wolf - Galaxy Garden [02:46]
15. Masked Wolf - Reflections [02:03]
16. Masked Wolf - Thief In The Night ft. Kevin Gates [02:56]
17. Masked Wolf - Astronaut In The Ocean [02:12]
-----------------------

DON'T MODIFY THIS FILE

-----------------------

PERFORMER: auCDtect Task Manager, ver. 1.6.0 RC1 build 1.6.0.1
Copyright (c) 2008-2010 y-soft. All rights reserved
http://y-soft.org

ANALYZER: auCDtect: CD records authenticity detector, version 0.8.2
Copyright (c) 2004 Oleg Berngardt. All rights reserved.
Copyright (c) 2004 Alexander Djourik. All rights reserved.

FILE: 13. Work.flac
Size: 17229681 Hash: 782D107D1EB27563972E4E0A08779E12 Accuracy: -m8
Conclusion: CDDA 100%
Signature: 5437F17B3FC8AB275493650635013BFCA1556130
FILE: 12. Tightrope (feat. NICOLOSI).flac
Size: 14243589 Hash: 1CAE47DD988FDF953BBFCFA2680AD1E6 Accuracy: -m8
Conclusion: CDDA 100%
Signature: 0B03E540DEA632B21A1E197ACA6A2CF1E03D6AF4
FILE: 11. Interstellar.flac
Size: 29549848 Hash: 3A2401645AF335E9B9CB05263BA0FA7D Accuracy: -m8
Conclusion: CDDA 99%
Signature: D16EF91B92F29EB745FC16C27B526694B3A16870
FILE: 10. Paper Planes.flac
Size: 15379514 Hash: 68CD4982C364365BEE4FA7FCB69059A8 Accuracy: -m8
Conclusion: CDDA 100%
Signature: 1D873F0A08779E13AF87024D91C75FC1AE491265
FILE: 09. Pandemonium.flac
Size: 17924913 Hash: E63B313B97974C35D1A61A452A7AE1A5 Accuracy: -m8
Conclusion: CDDA 100%
Signature: C5FD22BEA943C4FAB21F0833B44D25A720FF1B87
FILE: 08. Ain't Gonna Change.flac
Size: 18932405 Hash: 1624B30FF54B4F9590B8C6FE358BDA63 Accuracy: -m8
Conclusion: CDDA 100%
Signature: CCF8F70EB7FCEA69AE8AA02FF6E97873D50BB2B7
FILE: 07. Where's Wally.flac
Size: 17596782 Hash: 0FE8C004DAA08429345955D8B8F206A4 Accuracy: -m8
Conclusion: CDDA 100%
Signature: 85F73A791E765AA9AA43490BCE35B5DC969056C0
FILE: 06. Bop.flac
Size: 14669614 Hash: DD9F563646251C41EFDD7CAC67965708 Accuracy: -m8
Conclusion: CDDA 100%
Signature: EA63B41FC03910985D71AC6C3F554460BDD8085B
FILE: 05. Say So.flac
Size: 13925637 Hash: FF69D5DF5FFCA2B08DDEC669BA635B1F Accuracy: -m8
Conclusion: CDDA 99%
Signature: D9ABC2071D712FC7677F47623582B99B9DA49219
FILE: 04. Razor's Edge (feat. X Ambassadors).flac
Size: 17405489 Hash: BC12F0085B8F332419EDC6C6231E8EEB Accuracy: -m8
Conclusion: MPEG 95%
Signature: 60AC467CB752F9FF886C8F1EAFC4207E1E8B1663
FILE: 03. Gravity Glidin.flac
Size: 15668816 Hash: 7469F2A7922C95043C68B5A19BE789EA Accuracy: -m8
Conclusion: CDDA 99%
Signature: 606E501A265351223589EFE031BC0380F6B30A1F
FILE: 02. Just Names.flac
Size: 17721855 Hash: 0895990313893166FEA03F3392245954 Accuracy: -m8
Conclusion: CDDA 100%
Signature: 0A3FA75A71E3E89952925F9056AE3340D291B7A9
FILE: 01. Astronomical.flac
Size: 21947519 Hash: A7DE1B43CEABA66106D9FD65632A7C9B Accuracy: -m8
Conclusion: CDDA 100%
Signature: F1CCA002DD45C756CE157E29AF66418D8D5EB558
FILE: 17. Astronaut In The Ocean.flac
Size: 15495581 Hash: 407C313280E85670B7930300C7C18F84 Accuracy: -m8
Conclusion: MPEG 95%
Signature: 152DC8994A77C6973D3883818699752E2548E238
FILE: 16. Thief In The Night (feat. Kevin Gates).flac
Size: 18373537 Hash: 940D8225A88EAD208FD36D668132DAAC Accuracy: -m8
Conclusion: CDDA 100%
Signature: 6273FEF4DBA788F1AE56570937F5D0D5F1FD11EC
FILE: 15. Reflections.flac
Size: 14218956 Hash: A105BF81CDA2878B1D78EB5F2DF1020E Accuracy: -m8
Conclusion: CDDA 100%
Signature: 5834BD3F66C1ED1ABB56C57F6182AF299BDA0D69
FILE: 14. Galaxy Garden.flac
Size: 18876937 Hash: 6ADA46B9AE712EE40E78A8B7F334F8AF Accuracy: -m8
Conclusion: CDDA 100%
Signature: 328CF8487376703330F8DA47F3A638EE45E0DC7A

Код:

foobar2000 1.6.9 / Dynamic Range Meter 1.1.1
log date: 2022-04-27 07:56:39

--------------------------------------------------------------------------------
Analyzed: Masked Wolf / Astronomical
--------------------------------------------------------------------------------

DR         Peak         RMS     Duration Track
--------------------------------------------------------------------------------
DR5       -0.30 dB    -7.67 dB      3:16 01-Astronomical
DR4       -0.30 dB    -6.49 dB      2:37 02-Just Names
DR5       -0.30 dB    -7.21 dB      2:21 03-Gravity Glidin
DR5       -0.30 dB    -9.00 dB      2:34 04-Razor's Edge ft. X Ambassadors
DR5       -0.30 dB    -8.34 dB      2:01 05-Say So
DR5       -0.30 dB    -6.96 dB      2:07 06-Bop
DR6       -0.30 dB    -7.80 dB      2:30 07-Where's Wally
DR5       -0.30 dB    -7.39 dB      3:02 08-Ain't Gonna Change
DR5       -0.30 dB    -6.47 dB      2:29 09-Pandemonium
DR5       -0.30 dB    -7.34 dB      2:24 10-Paper Planes
DR6       -0.30 dB    -7.57 dB      4:13 11-Interstellar
DR6       -0.30 dB    -8.69 dB      2:21 12-Tightrope ft. NICOLOSI
DR4       -0.30 dB    -7.03 dB      2:35 13-Work
DR5       -0.30 dB    -7.30 dB      2:46 14-Galaxy Garden
DR6       -0.30 dB    -7.02 dB      2:04 15-Reflections
DR4       -0.30 dB    -7.28 dB      2:57 16-Thief In The Night ft. Kevin Gates
DR4       -0.20 dB    -5.79 dB      2:13 17-Astronaut In The Ocean
--------------------------------------------------------------------------------

Number of tracks:  17
Official DR value: DR5

Samplerate:        44100 Hz
Channels:          2
Bits per sample:   16
Bitrate:           915 kbps
Codec:             FLAC
================================================================================
info [Профиль]  [ЛС] 
Показать сообщения:    
Ответить на тему

Текущее время: 22-Май 18:37

Часовой пояс: GMT + 4



Вы не можете начинать темы
Вы не можете отвечать на сообщения
Вы не можете редактировать свои сообщения
Вы не можете удалять свои сообщения
Вы не можете голосовать в опросах
Вы не можете прикреплять файлы к сообщениям
Вы не можете скачивать файлы