Ошибка

(Hip-Hop/Instrumental) [CD] Kaytranada - 99.9% - 2016, FLAC (tracks+.cue), lossless

Ответить на тему
 
Автор Сообщение

DarK_Knight96

Пол: Пол:Муж

Стаж: 4 месяца 30 дней

Сообщений: 375

Россия
Рейтинг

post 12-Май-2024 11:08 0[+]

[Цитировать] 



Kaytranada / 99.9%




Жанр: Hip-Hop/Instrumental

Год издания: 2016

Формат/Кодек:: FLAC (*.flac)

Производитель диска:: Canada

Количество треков: 15

Битрейт аудио: 1024 kbps

Продолжительность: 59:08

1. Track Uno - 5:44
2. Bus Ride (featuring Karriem Riggins and River Tiber) - 2:13
3. Got It Good (featuring Craig David) - 3:48
4. Together (featuring AlunaGeorge and GoldLink) - 3:17
5. Drive Me Crazy (featuring Vic Mensa) - 4:37
6. Weight Off (featuring BADBADNOTGOOD) - 2:35
7. One Too Many (featuring Phonte) - 3:38
8. Despite the Weather - 2:01
9. Glowed Up (featuring Anderson .Paak) - 4:58
10. Breakdance Lesson N.1. - 4:28
11. You're the One (featuring Syd tha Kyd) - 3:47
12. Vivid Dreams (featuring River Tiber) - 4:36
13. Lite Spots - 3:50
14. Leave Me Alone (featuring Shay Lia) - 4:37
15. Bullets (featuring Little Dragon) - 4:59
X Lossless Decoder version 20141129 (148.1)

XLD extraction logfile from 2016-05-07 19:58:14 +0200

Kaytranada / 99.9%

Used drive : MATSHITA DVD-R UJ-8A8 (revision HB14)
Media type : Pressed CD

Ripper mode : XLD Secure Ripper
Disable audio cache : OK for the drive with a cache less than 1375KiB
Make use of C2 pointers : NO
Read offset correction : 102
Max retry count : 20
Gap status : Analyzed, Appended (except HTOA)

TOC of the extracted CD
Track | Start | Length | Start sector | End sector
---------------------------------------------------------
1 | 00:00:00 | 05:44:09 | 0 | 25808
2 | 05:44:09 | 02:13:26 | 25809 | 35809
3 | 07:57:35 | 03:48:11 | 35810 | 52920
4 | 11:45:46 | 03:17:18 | 52921 | 67713
5 | 15:02:64 | 04:37:59 | 67714 | 88547
6 | 19:40:48 | 02:35:72 | 88548 | 100244
7 | 22:16:45 | 03:38:18 | 100245 | 116612
8 | 25:54:63 | 02:01:71 | 116613 | 125758
9 | 27:56:59 | 04:58:02 | 125759 | 148110
10 | 32:54:61 | 04:28:06 | 148111 | 168216
11 | 37:22:67 | 03:47:53 | 168217 | 185294
12 | 41:10:45 | 04:36:57 | 185295 | 206051
13 | 45:47:27 | 03:50:69 | 206052 | 223370
14 | 49:38:21 | 04:37:72 | 223371 | 244217
15 | 54:16:18 | 04:59:00 | 244218 | 266642

AccurateRip Summary
Disc not found in AccurateRip DB.

All Tracks
Album gain : -7.49 dB
Peak : 0.982513
Statistics
Read error : 0
Jitter error (maybe fixed) : 0
Retry sector count : 0
Damaged sector count : 0

Track 01
Filename : /Users/Shared/01 Track Uno.flac
Pre-gap length : 00:02:00

Track gain : -5.86 dB
Peak : 0.982391
CRC32 hash (test run) : 88BDE920
CRC32 hash : 88BDE920
CRC32 hash (skip zero) : ED9C6181
AccurateRip v1 signature : C9F52839
AccurateRip v2 signature : D96AD233
->Track not present in AccurateRip database.
Statistics
Read error : 0
Jitter error (maybe fixed) : 0
Retry sector count : 0
Damaged sector count : 0

Track 02
Filename : /Users/Shared/02 Bus Ride (feat. Karriem Riggins & River Tiber).flac

Track gain : -7.27 dB
Peak : 0.982330
CRC32 hash (test run) : 52AD7F71
CRC32 hash : 52AD7F71
CRC32 hash (skip zero) : 5AF88A2F
AccurateRip v1 signature : F0907A4E
AccurateRip v2 signature : 7E425C4E
->Track not present in AccurateRip database.
Statistics
Read error : 0
Jitter error (maybe fixed) : 0
Retry sector count : 0
Damaged sector count : 0

Track 03
Filename : /Users/Shared/03 Got It Good (feat. Craig David).flac

Track gain : -8.71 dB
Peak : 0.982422
CRC32 hash (test run) : 81491C01
CRC32 hash : 81491C01
CRC32 hash (skip zero) : 188B6858
AccurateRip v1 signature : D1FBEE5C
AccurateRip v2 signature : BF3BB944
->Track not present in AccurateRip database.
Statistics
Read error : 0
Jitter error (maybe fixed) : 0
Retry sector count : 0
Damaged sector count : 0

Track 04
Filename : /Users/Shared/04 Together (feat. AlunaGeorge & GoldLink).flac

Track gain : -9.28 dB
Peak : 0.982452
CRC32 hash (test run) : 7D8E9CE2
CRC32 hash : 7D8E9CE2
CRC32 hash (skip zero) : 8D486106
AccurateRip v1 signature : 61F22F5D
AccurateRip v2 signature : CD120039
->Track not present in AccurateRip database.
Statistics
Read error : 0
Jitter error (maybe fixed) : 0
Retry sector count : 0
Damaged sector count : 0

Track 05
Filename : /Users/Shared/05 Drive Me Crazy (feat. Vic Mensa).flac

Track gain : -6.90 dB
Peak : 0.982483
CRC32 hash (test run) : 8688A132
CRC32 hash : 8688A132
CRC32 hash (skip zero) : F5000F22
AccurateRip v1 signature : EA4B1142
AccurateRip v2 signature : 789026D8
->Track not present in AccurateRip database.
Statistics
Read error : 0
Jitter error (maybe fixed) : 0
Retry sector count : 0
Damaged sector count : 0

Track 06
Filename : /Users/Shared/06 Weight Off (feat. BADBADNOTGOOD).flac

Track gain : -10.21 dB
Peak : 0.982483
CRC32 hash (test run) : F8308F51
CRC32 hash : F8308F51
CRC32 hash (skip zero) : 8DBFFED1
AccurateRip v1 signature : 8958A5BB
AccurateRip v2 signature : 2F5A2C08
->Track not present in AccurateRip database.
Statistics
Read error : 0
Jitter error (maybe fixed) : 0
Retry sector count : 0
Damaged sector count : 0

Track 07
Filename : /Users/Shared/07 One Too Many (feat. Phonte).flac

Track gain : -8.39 dB
Peak : 0.982330
CRC32 hash (test run) : 5236165F
CRC32 hash : 5236165F
CRC32 hash (skip zero) : BB0AE094
AccurateRip v1 signature : 81B504AE
AccurateRip v2 signature : 3B5B067F
->Track not present in AccurateRip database.
Statistics
Read error : 0
Jitter error (maybe fixed) : 0
Retry sector count : 0
Damaged sector count : 0

Track 08
Filename : /Users/Shared/08 Despite the Weather.flac

Track gain : -6.45 dB
Peak : 0.982513
CRC32 hash (test run) : BC99BC62
CRC32 hash : BC99BC62
CRC32 hash (skip zero) : 1CB8188E
AccurateRip v1 signature : FE8AF105
AccurateRip v2 signature : 8222D162
->Track not present in AccurateRip database.
Statistics
Read error : 0
Jitter error (maybe fixed) : 0
Retry sector count : 0
Damaged sector count : 0

Track 09
Filename : /Users/Shared/09 Glowed Up (feat. Anderson .Paak).flac

Track gain : -6.80 dB
Peak : 0.982422
CRC32 hash (test run) : 34CD3A40
CRC32 hash : 34CD3A40
CRC32 hash (skip zero) : 414658FD
AccurateRip v1 signature : 447C9FA8
AccurateRip v2 signature : 23AB1AF2
->Track not present in AccurateRip database.
Statistics
Read error : 0
Jitter error (maybe fixed) : 0
Retry sector count : 0
Damaged sector count : 0

Track 10
Filename : /Users/Shared/10 Breakdance Lesson N.1.flac

Track gain : -8.22 dB
Peak : 0.982422
CRC32 hash (test run) : 44D43419
CRC32 hash : 44D43419
CRC32 hash (skip zero) : A6A8BFAA
AccurateRip v1 signature : 71F44648
AccurateRip v2 signature : 26F5335E
->Track not present in AccurateRip database.
Statistics
Read error : 0
Jitter error (maybe fixed) : 0
Retry sector count : 0
Damaged sector count : 0

Track 11
Filename : /Users/Shared/11 You're the One (feat. Syd).flac

Track gain : -6.50 dB
Peak : 0.982361
CRC32 hash (test run) : EEAAC132
CRC32 hash : EEAAC132
CRC32 hash (skip zero) : C0CEFB0B
AccurateRip v1 signature : 41D7DF8A
AccurateRip v2 signature : BDFDCE3D
->Track not present in AccurateRip database.
Statistics
Read error : 0
Jitter error (maybe fixed) : 0
Retry sector count : 0
Damaged sector count : 0

Track 12
Filename : /Users/Shared/12 Vivid Dreams (feat. River Tiber).flac

Track gain : -5.19 dB
Peak : 0.982269
CRC32 hash (test run) : 8254BA2F
CRC32 hash : 8254BA2F
CRC32 hash (skip zero) : D7BF7AC1
AccurateRip v1 signature : 4DB15F41
AccurateRip v2 signature : D89BFC26
->Track not present in AccurateRip database.
Statistics
Read error : 0
Jitter error (maybe fixed) : 0
Retry sector count : 0
Damaged sector count : 0

Track 13
Filename : /Users/Shared/13 Lite Spots.flac

Track gain : -6.03 dB
Peak : 0.982361
CRC32 hash (test run) : 814ECD0C
CRC32 hash : 814ECD0C
CRC32 hash (skip zero) : 00AD6EBB
AccurateRip v1 signature : BC5EFADC
AccurateRip v2 signature : 65947FAA
->Track not present in AccurateRip database.
Statistics
Read error : 0
Jitter error (maybe fixed) : 0
Retry sector count : 0
Damaged sector count : 0

Track 14
Filename : /Users/Shared/14 Leave Me Alone (feat. Shay Lia).flac

Track gain : -5.58 dB
Peak : 0.982300
CRC32 hash (test run) : 48CA091B
CRC32 hash : 48CA091B
CRC32 hash (skip zero) : D0C604E6
AccurateRip v1 signature : 1E1420A1
AccurateRip v2 signature : F3A4240E
->Track not present in AccurateRip database.
Statistics
Read error : 0
Jitter error (maybe fixed) : 0
Retry sector count : 0
Damaged sector count : 0

Track 15
Filename : /Users/Shared/15 Bullets (feat. Little Dragon).flac

Track gain : -7.64 dB
Peak : 0.982361
CRC32 hash (test run) : F2D3949A
CRC32 hash : F2D3949A
CRC32 hash (skip zero) : FD011D79
AccurateRip v1 signature : C451D0C7
AccurateRip v2 signature : 1B883540
->Track not present in AccurateRip database.
Statistics
Read error : 0
Jitter error (maybe fixed) : 0
Retry sector count : 0
Damaged sector count : 0

No errors occurred

End of status report

-----BEGIN XLD SIGNATURE-----
Sz7ZMbMQVBj9xZCgUBO5xTs7cvM3X7usE2dBthM26C9OKCuN4dNUYk810GkwVBGZ2SStQJxA_URuJhmoAiQoDh8eafy3kKOc92_ffkq
-----END XLD SIGNATURE-----
TITLE "99.9%"
PERFORMER "Kaytranada"
REM GENRE "Electronic"
REM DATE "2016"
REM DISCNUMBER 1
REM TOTALDISCS 1
REM DISCID ED0DE30F
REM REPLAYGAIN_ALBUM_GAIN -7.49 dB
REM REPLAYGAIN_ALBUM_PEAK 0.982513
FILE "01 Track Uno.flac" WAVE
TRACK 01 AUDIO
TITLE "Track Uno"
ISRC GBBKS1600012
REM REPLAYGAIN_TRACK_GAIN -5.86 dB
REM REPLAYGAIN_TRACK_PEAK 0.982391
INDEX 01 00:00:00
FILE "02 Bus Ride (feat. Karriem Riggins & River Tiber).flac" WAVE
TRACK 02 AUDIO
TITLE "Bus Ride (feat. Karriem Riggins & River Tiber)"
ISRC GBBKS1600013
REM REPLAYGAIN_TRACK_GAIN -7.27 dB
REM REPLAYGAIN_TRACK_PEAK 0.982330
INDEX 01 00:00:00
FILE "03 Got It Good (feat. Craig David).flac" WAVE
TRACK 03 AUDIO
TITLE "Got It Good (feat. Craig David)"
ISRC GBBKS1600014
REM REPLAYGAIN_TRACK_GAIN -8.71 dB
REM REPLAYGAIN_TRACK_PEAK 0.982422
INDEX 01 00:00:00
FILE "04 Together (feat. AlunaGeorge & GoldLink).flac" WAVE
TRACK 04 AUDIO
TITLE "Together (feat. AlunaGeorge & GoldLink)"
ISRC GBBKS1600015
REM REPLAYGAIN_TRACK_GAIN -9.28 dB
REM REPLAYGAIN_TRACK_PEAK 0.982452
INDEX 01 00:00:00
FILE "05 Drive Me Crazy (feat. Vic Mensa).flac" WAVE
TRACK 05 AUDIO
TITLE "Drive Me Crazy (feat. Vic Mensa)"
ISRC GBBKS1600016
REM REPLAYGAIN_TRACK_GAIN -6.90 dB
REM REPLAYGAIN_TRACK_PEAK 0.982483
INDEX 01 00:00:00
FILE "06 Weight Off (feat. BADBADNOTGOOD).flac" WAVE
TRACK 06 AUDIO
TITLE "Weight Off (feat. BADBADNOTGOOD)"
ISRC GBBKS1600017
REM REPLAYGAIN_TRACK_GAIN -10.21 dB
REM REPLAYGAIN_TRACK_PEAK 0.982483
INDEX 01 00:00:00
FILE "07 One Too Many (feat. Phonte).flac" WAVE
TRACK 07 AUDIO
TITLE "One Too Many (feat. Phonte)"
ISRC GBBKS1600018
REM REPLAYGAIN_TRACK_GAIN -8.39 dB
REM REPLAYGAIN_TRACK_PEAK 0.982330
INDEX 01 00:00:00
FILE "08 Despite the Weather.flac" WAVE
TRACK 08 AUDIO
TITLE "Despite the Weather"
ISRC GBBKS1600020
REM REPLAYGAIN_TRACK_GAIN -6.45 dB
REM REPLAYGAIN_TRACK_PEAK 0.982513
INDEX 01 00:00:00
FILE "09 Glowed Up (feat. Anderson .Paak).flac" WAVE
TRACK 09 AUDIO
TITLE "Glowed Up (feat. Anderson .Paak)"
ISRC GBBKS1600021
REM REPLAYGAIN_TRACK_GAIN -6.80 dB
REM REPLAYGAIN_TRACK_PEAK 0.982422
INDEX 01 00:00:00
FILE "10 Breakdance Lesson N.1.flac" WAVE
TRACK 10 AUDIO
TITLE "Breakdance Lesson N.1"
ISRC GBBKS1600022
REM REPLAYGAIN_TRACK_GAIN -8.22 dB
REM REPLAYGAIN_TRACK_PEAK 0.982422
INDEX 01 00:00:00
FILE "11 You're the One (feat. Syd).flac" WAVE
TRACK 11 AUDIO
TITLE "You're the One (feat. Syd)"
ISRC GBBKS1600023
REM REPLAYGAIN_TRACK_GAIN -6.50 dB
REM REPLAYGAIN_TRACK_PEAK 0.982361
INDEX 01 00:00:00
FILE "12 Vivid Dreams (feat. River Tiber).flac" WAVE
TRACK 12 AUDIO
TITLE "Vivid Dreams (feat. River Tiber)"
ISRC GBBKS1600024
REM REPLAYGAIN_TRACK_GAIN -5.19 dB
REM REPLAYGAIN_TRACK_PEAK 0.982269
INDEX 01 00:00:00
FILE "13 Lite Spots.flac" WAVE
TRACK 13 AUDIO
TITLE "Lite Spots"
ISRC GBBKS1600025
REM REPLAYGAIN_TRACK_GAIN -6.03 dB
REM REPLAYGAIN_TRACK_PEAK 0.982361
INDEX 01 00:00:00
FILE "14 Leave Me Alone (feat. Shay Lia).flac" WAVE
TRACK 14 AUDIO
TITLE "Leave Me Alone (feat. Shay Lia)"
ISRC GBBKS1600026
REM REPLAYGAIN_TRACK_GAIN -5.58 dB
REM REPLAYGAIN_TRACK_PEAK 0.982300
INDEX 01 00:00:00
FILE "15 Bullets (feat. Little Dragon).flac" WAVE
TRACK 15 AUDIO
TITLE "Bullets (feat. Little Dragon)"
ISRC GBBKS1600027
REM REPLAYGAIN_TRACK_GAIN -7.64 dB
REM REPLAYGAIN_TRACK_PEAK 0.982361
INDEX 01 00:00:00
info [Профиль]  [ЛС] 
Показать сообщения:    
Ответить на тему

Текущее время: 21-Май 14:45

Часовой пояс: GMT + 4



Вы не можете начинать темы
Вы не можете отвечать на сообщения
Вы не можете редактировать свои сообщения
Вы не можете удалять свои сообщения
Вы не можете голосовать в опросах
Вы не можете прикреплять файлы к сообщениям
Вы не можете скачивать файлы