Ошибка

(East Coast Rap) [CD] Boogie Down Productions - Edutainment (Japan) - 1997, FLAC (tracks+.cue), lossless

Ответить на тему
 
Автор Сообщение

DarK_Knight96

Пол: Пол:Муж

Стаж: 4 месяца 30 дней

Сообщений: 375

Россия
Рейтинг

post 12-Май-2024 11:04 0[+]

[Цитировать] 



Boogie Down Productions - Edutainment




Жанр: East Coast Rap

Год издания: 1990

Формат/Кодек:: FLAC (*.flac)

Производитель диска:: Japan

Количество треков: 21

Битрейт аудио: 1024 kbps

Продолжительность: 01:10:01

01. Exhibit A
02. Blackman In Effect
03. Ya Know The Rules
04. Exhibit B
05. Beef
06. House Nigga's
07. Exhibit C
08. Love's Gonna Get 'Cha (Material Love)
09. 100 Guns
10. Ya Strugglin'
11. Breath Control II
12. Exhibit D
13. Edutainment
14. The Homeless
15. Exhibit E
16. The Kenny Parker Show
17. Original Lyrics
18. The Racist
19. 7 Dee Jays
20. 30 Cops Or More
21. Exhibit F
Exact Audio Copy V1.1 from 23. June 2015

EAC extraction logfile from 29. September 2015, 13:46

Boogie Down Productions / Edutainment

Used drive : TSSTcorpCDDVDW SH-224BB Adapter: 1 ID: 0

Read mode : Secure
Utilize accurate stream : Yes
Defeat audio cache : Yes
Make use of C2 pointers : No

Read offset correction : 6
Overread into Lead-In and Lead-Out : No
Fill up missing offset samples with silence : Yes
Delete leading and trailing silent blocks : No
Null samples used in CRC calculations : Yes
Used interface : Native Win32 interface for Win NT & 2000
Gap handling : Appended to previous track

Used output format : User Defined Encoder
Selected bitrate : 1024 kBit/s
Quality : High
Add ID3 tag : No
Command line compressor : C:\Program Files (x86)\Exact Audio Copy\FLAC\FLAC.EXE
Additional command line options : -8 -V -T "ARTIST=%artist%" -T "TITLE=%title%" -T "ALBUM=%albumtitle%" -T "DATE=%year%" -T "TRACKNUMBER=%tracknr%" -T "GENRE=%genre%" -T "COMMENT=%comment%" -T "BAND=%albuminterpret%" -T "ALBUMARTIST=%albuminterpret%" -T "COMPOSER=%composer%" %haslyrics%--tag-from-file=LYRICS="%lyricsfile%"%haslyrics% -T "DISCNUMBER=%cdnumber%" -T "TOTALDISCS=%totalcds%" -T "TOTALTRACKS=%numtracks%" %hascover%--picture="%coverfile%"%hascover% %source% -o %dest%

TOC of the extracted CD

Track | Start | Length | Start sector | End sector
---------------------------------------------------------
1 | 0:00.00 | 1:40.60 | 0 | 7559
2 | 1:40.60 | 4:40.05 | 7560 | 28564
3 | 6:20.65 | 3:49.15 | 28565 | 45754
4 | 10:10.05 | 0:51.20 | 45755 | 49599
5 | 11:01.25 | 2:29.60 | 49600 | 60834
6 | 13:31.10 | 4:31.65 | 60835 | 81224
7 | 18:03.00 | 0:13.67 | 81225 | 82266
8 | 18:16.67 | 6:39.48 | 82267 | 112239
9 | 24:56.40 | 3:57.65 | 112240 | 130079
10 | 28:54.30 | 3:14.12 | 130080 | 144641
11 | 32:08.42 | 3:55.13 | 144642 | 162279
12 | 36:03.55 | 0:40.15 | 162280 | 165294
13 | 36:43.70 | 3:04.00 | 165295 | 179094
14 | 39:47.70 | 2:24.32 | 179095 | 189926
15 | 42:12.27 | 0:37.73 | 189927 | 192774
16 | 42:50.25 | 5:28.70 | 192775 | 217444
17 | 48:19.20 | 4:02.47 | 217445 | 235641
18 | 52:21.67 | 3:22.28 | 235642 | 250819
19 | 55:44.20 | 9:17.22 | 250820 | 292616
20 | 65:01.42 | 4:03.08 | 292617 | 310849
21 | 69:04.50 | 0:56.60 | 310850 | 315109

Track 1

Filename F:\Boogie Down Productions - 1990 - Edutainment (Promo) (ALCB-112) (JP)\01 - Exhibit A.wav

Pre-gap length 0:00:02.00

Peak level 18.6 %
Extraction speed 3.8 X
Track quality 100.0 %
Test CRC 04CA3E60
Copy CRC 04CA3E60
Track not present in AccurateRip database
Copy OK

Track 2

Filename F:\Boogie Down Productions - 1990 - Edutainment (Promo) (ALCB-112) (JP)\02 - Blackman In Effect.wav

Peak level 99.7 %
Extraction speed 5.1 X
Track quality 100.0 %
Test CRC 7F347EDC
Copy CRC 7F347EDC
Track not present in AccurateRip database
Copy OK

Track 3

Filename F:\Boogie Down Productions - 1990 - Edutainment (Promo) (ALCB-112) (JP)\03 - Ya Know The Rules.wav

Peak level 100.0 %
Extraction speed 5.4 X
Track quality 100.0 %
Test CRC D1FD0774
Copy CRC D1FD0774
Track not present in AccurateRip database
Copy OK

Track 4

Filename F:\Boogie Down Productions - 1990 - Edutainment (Promo) (ALCB-112) (JP)\04 - Exhibit B.wav

Peak level 20.1 %
Extraction speed 3.7 X
Track quality 100.0 %
Test CRC 0AE14C4C
Copy CRC 0AE14C4C
Track not present in AccurateRip database
Copy OK

Track 5

Filename F:\Boogie Down Productions - 1990 - Edutainment (Promo) (ALCB-112) (JP)\05 - Beef.wav

Peak level 99.6 %
Extraction speed 5.4 X
Track quality 100.0 %
Test CRC 4415238B
Copy CRC 4415238B
Track not present in AccurateRip database
Copy OK

Track 6

Filename F:\Boogie Down Productions - 1990 - Edutainment (Promo) (ALCB-112) (JP)\06 - House Nigga's.wav

Peak level 95.8 %
Extraction speed 6.3 X
Track quality 100.0 %
Test CRC 0892DE45
Copy CRC 0892DE45
Track not present in AccurateRip database
Copy OK

Track 7

Filename F:\Boogie Down Productions - 1990 - Edutainment (Promo) (ALCB-112) (JP)\07 - Exhibit C.wav

Peak level 25.1 %
Extraction speed 0.8 X
Track quality 99.2 %
Test CRC D9837CD2
Copy CRC D9837CD2
Track not present in AccurateRip database
Copy OK

Track 8

Filename F:\Boogie Down Productions - 1990 - Edutainment (Promo) (ALCB-112) (JP)\08 - Love's Gonna Get 'Cha (Material Love).wav

Peak level 89.1 %
Extraction speed 7.0 X
Track quality 100.0 %
Test CRC 4EC5736A
Copy CRC 4EC5736A
Track not present in AccurateRip database
Copy OK

Track 9

Filename F:\Boogie Down Productions - 1990 - Edutainment (Promo) (ALCB-112) (JP)\09 - 100 Guns.wav

Peak level 100.0 %
Extraction speed 7.0 X
Track quality 100.0 %
Test CRC BC4B2036
Copy CRC BC4B2036
Track not present in AccurateRip database
Copy OK

Track 10

Filename F:\Boogie Down Productions - 1990 - Edutainment (Promo) (ALCB-112) (JP)\10 - Ya Strugglin' (feat. Kwame Toure).wav

Peak level 100.0 %
Extraction speed 7.0 X
Track quality 100.0 %
Test CRC E5304CD8
Copy CRC E5304CD8
Track not present in AccurateRip database
Copy OK

Track 11

Filename F:\Boogie Down Productions - 1990 - Edutainment (Promo) (ALCB-112) (JP)\11 - Breath Control II.wav

Peak level 81.3 %
Extraction speed 7.5 X
Track quality 100.0 %
Test CRC 94959A34
Copy CRC 94959A34
Track not present in AccurateRip database
Copy OK

Track 12

Filename F:\Boogie Down Productions - 1990 - Edutainment (Promo) (ALCB-112) (JP)\12 - Exhibit D.wav

Peak level 32.5 %
Extraction speed 2.4 X
Track quality 99.7 %
Test CRC 5BFD5453
Copy CRC 5BFD5453
Track not present in AccurateRip database
Copy OK

Track 13

Filename F:\Boogie Down Productions - 1990 - Edutainment (Promo) (ALCB-112) (JP)\13 - Edutainment.wav

Peak level 96.7 %
Extraction speed 7.5 X
Track quality 100.0 %
Test CRC 2CEB698A
Copy CRC 2CEB698A
Track not present in AccurateRip database
Copy OK

Track 14

Filename F:\Boogie Down Productions - 1990 - Edutainment (Promo) (ALCB-112) (JP)\14 - The Homeless.wav

Peak level 93.3 %
Extraction speed 5.3 X
Track quality 99.9 %
Test CRC 6DE9B1B7
Copy CRC 6DE9B1B7
Track not present in AccurateRip database
Copy OK

Track 15

Filename F:\Boogie Down Productions - 1990 - Edutainment (Promo) (ALCB-112) (JP)\15 - Exhibit E.wav

Peak level 28.6 %
Extraction speed 4.5 X
Track quality 100.0 %
Test CRC 740637A8
Copy CRC 740637A8
Track not present in AccurateRip database
Copy OK

Track 16

Filename F:\Boogie Down Productions - 1990 - Edutainment (Promo) (ALCB-112) (JP)\16 - The Kenny Parker Show.wav

Peak level 100.0 %
Extraction speed 8.6 X
Track quality 100.0 %
Test CRC 60349ED7
Copy CRC 60349ED7
Track not present in AccurateRip database
Copy OK

Track 17

Filename F:\Boogie Down Productions - 1990 - Edutainment (Promo) (ALCB-112) (JP)\17 - Original Lyrics (feat. Special K).wav

Peak level 93.3 %
Extraction speed 8.5 X
Track quality 100.0 %
Test CRC 3CE16B37
Copy CRC 3CE16B37
Track not present in AccurateRip database
Copy OK

Track 18

Filename F:\Boogie Down Productions - 1990 - Edutainment (Promo) (ALCB-112) (JP)\18 - The Racist.wav

Peak level 100.0 %
Extraction speed 8.5 X
Track quality 100.0 %
Test CRC 19004076
Copy CRC 19004076
Track not present in AccurateRip database
Copy OK

Track 19

Filename F:\Boogie Down Productions - 1990 - Edutainment (Promo) (ALCB-112) (JP)\19 - 7 Dee Jays (Bonus Track).wav

Peak level 92.4 %
Extraction speed 9.7 X
Track quality 100.0 %
Test CRC 3CCA6132
Copy CRC 3CCA6132
Track not present in AccurateRip database
Copy OK

Track 20

Filename F:\Boogie Down Productions - 1990 - Edutainment (Promo) (ALCB-112) (JP)\20 - 30 Cops Or More (Bonus Track).wav

Peak level 94.6 %
Extraction speed 9.3 X
Track quality 100.0 %
Test CRC 0651BEEC
Copy CRC 0651BEEC
Track not present in AccurateRip database
Copy OK

Track 21

Filename F:\Boogie Down Productions - 1990 - Edutainment (Promo) (ALCB-112) (JP)\21 - Exhibit F (Bonus Track).wav

Peak level 16.8 %
Extraction speed 3.7 X
Track quality 99.8 %
Test CRC 2BC1BE7E
Copy CRC 2BC1BE7E
Track not present in AccurateRip database
Copy OK

None of the tracks are present in the AccurateRip database

No errors occurred

End of status report

---- CUETools DB Plugin V2.1.6

[CTDB TOCID: PYzd0YBzjCtW5Y3iIjqOsizMJc8-] disk not present in database
Submit result: PYzd0YBzjCtW5Y3iIjqOsizMJc8- has been uploaded

==== Log checksum F99C270F42B58AF0B93CC5528A7A6B4CE8C458003E8F5889BB03D148B14F1AC1 ====
REM GENRE Hip-Hop
REM DATE 1990
REM DISCID 1B106915
REM COMMENT "ExactAudioCopy v1.1"
PERFORMER "Boogie Down Productions"
TITLE "Edutainment"
FILE "01 - Exhibit A.wav" WAVE
TRACK 01 AUDIO
TITLE "Exhibit A"
PERFORMER "Boogie Down Productions"
INDEX 01 00:00:00
FILE "02 - Blackman In Effect.wav" WAVE
TRACK 02 AUDIO
TITLE "Blackman In Effect"
PERFORMER "Boogie Down Productions"
INDEX 01 00:00:00
FILE "03 - Ya Know The Rules.wav" WAVE
TRACK 03 AUDIO
TITLE "Ya Know The Rules"
PERFORMER "Boogie Down Productions"
INDEX 01 00:00:00
FILE "04 - Exhibit B.wav" WAVE
TRACK 04 AUDIO
TITLE "Exhibit B"
PERFORMER "Boogie Down Productions"
INDEX 01 00:00:00
FILE "05 - Beef.wav" WAVE
TRACK 05 AUDIO
TITLE "Beef"
PERFORMER "Boogie Down Productions"
INDEX 01 00:00:00
FILE "06 - House Nigga's.wav" WAVE
TRACK 06 AUDIO
TITLE "House Nigga's"
PERFORMER "Boogie Down Productions"
INDEX 01 00:00:00
FILE "07 - Exhibit C.wav" WAVE
TRACK 07 AUDIO
TITLE "Exhibit C"
PERFORMER "Boogie Down Productions"
INDEX 01 00:00:00
FILE "08 - Love's Gonna Get 'Cha (Material Love).wav" WAVE
TRACK 08 AUDIO
TITLE "Love's Gonna Get 'Cha (Material Love)"
PERFORMER "Boogie Down Productions"
INDEX 01 00:00:00
FILE "09 - 100 Guns.wav" WAVE
TRACK 09 AUDIO
TITLE "100 Guns"
PERFORMER "Boogie Down Productions"
INDEX 01 00:00:00
FILE "10 - Ya Strugglin'.wav" WAVE
TRACK 10 AUDIO
TITLE "Ya Strugglin'"
PERFORMER "Boogie Down Productions"
INDEX 01 00:00:00
FILE "11 - Breath Control II.wav" WAVE
TRACK 11 AUDIO
TITLE "Breath Control II"
PERFORMER "Boogie Down Productions"
INDEX 01 00:00:00
FILE "12 - Exhibit D.wav" WAVE
TRACK 12 AUDIO
TITLE "Exhibit D"
PERFORMER "Boogie Down Productions"
INDEX 01 00:00:00
FILE "13 - Edutainment.wav" WAVE
TRACK 13 AUDIO
TITLE "Edutainment"
PERFORMER "Boogie Down Productions"
INDEX 01 00:00:00
FILE "14 - The Homeless.wav" WAVE
TRACK 14 AUDIO
TITLE "The Homeless"
PERFORMER "Boogie Down Productions"
INDEX 01 00:00:00
FILE "15 - Exhibit E.wav" WAVE
TRACK 15 AUDIO
TITLE "Exhibit E"
PERFORMER "Boogie Down Productions"
INDEX 01 00:00:00
FILE "16 - The Kenny Parker Show.wav" WAVE
TRACK 16 AUDIO
TITLE "The Kenny Parker Show"
PERFORMER "Boogie Down Productions"
INDEX 01 00:00:00
FILE "17 - Original Lyrics.wav" WAVE
TRACK 17 AUDIO
TITLE "Original Lyrics"
PERFORMER "Boogie Down Productions"
INDEX 01 00:00:00
FILE "18 - The Racist.wav" WAVE
TRACK 18 AUDIO
TITLE "The Racist"
PERFORMER "Boogie Down Productions"
INDEX 01 00:00:00
FILE "19 - 7 Dee Jays.wav" WAVE
TRACK 19 AUDIO
TITLE "7 Dee Jays"
PERFORMER "Boogie Down Productions"
INDEX 01 00:00:00
FILE "20 - 30 Cops Or More.wav" WAVE
TRACK 20 AUDIO
TITLE "30 Cops Or More"
PERFORMER "Boogie Down Productions"
INDEX 01 00:00:00
FILE "21 - Exhibit F.wav" WAVE
TRACK 21 AUDIO
TITLE "Exhibit F"
PERFORMER "Boogie Down Productions"
INDEX 01 00:00:00
info [Профиль]  [ЛС] 
Показать сообщения:    
Ответить на тему

Текущее время: 21-Май 14:41

Часовой пояс: GMT + 4



Вы не можете начинать темы
Вы не можете отвечать на сообщения
Вы не можете редактировать свои сообщения
Вы не можете удалять свои сообщения
Вы не можете голосовать в опросах
Вы не можете прикреплять файлы к сообщениям
Вы не можете скачивать файлы