Ошибка

(East Coast Rap) [CD] Boogie Down Productions - Ghetto Music The Blueprint Of Hip Hop (Japan) - 1989, FLAC (tracks+.cue), lossless

Ответить на тему
 
Автор Сообщение

DarK_Knight96

Пол: Пол:Муж

Стаж: 5 месяцев 2 дня

Сообщений: 386

Россия
Рейтинг

post 12-Май-2024 10:57 0[+]

[Цитировать] 



Boogie Down Productions - Ghetto Music The Blueprint Of Hip Hop




Жанр: East Coast Rap

Год издания: 1989

Формат/Кодек:: FLAC (*.flac)

Производитель диска:: Japan

Количество треков: 13

Битрейт аудио: 1024 kbps

Продолжительность: 50:07

01. The Style You Haven't Done Yet
02. Why Is That
03. The Blueprint
04. Jack Of Spades
05. Jah Rulez
06. Breath Control
07. Who Protects Us From You
08. You Must Learn
09. Hip Hop Rules
10. BO! BO! BO!
11. Gimme, Dat, (Woy)
12. Ghetto Music
13. World Peace
Exact Audio Copy V1.1 from 23. June 2015

EAC extraction logfile from 29. September 2015, 11:12

Boogie Down Productions / Ghetto Music The Blueprint Of Hip Hop

Used drive : TSSTcorpCDDVDW SH-224BB Adapter: 1 ID: 0

Read mode : Secure
Utilize accurate stream : Yes
Defeat audio cache : Yes
Make use of C2 pointers : No

Read offset correction : 6
Overread into Lead-In and Lead-Out : No
Fill up missing offset samples with silence : Yes
Delete leading and trailing silent blocks : No
Null samples used in CRC calculations : Yes
Used interface : Native Win32 interface for Win NT & 2000
Gap handling : Appended to previous track

Used output format : User Defined Encoder
Selected bitrate : 1024 kBit/s
Quality : High
Add ID3 tag : No
Command line compressor : C:\Program Files (x86)\Exact Audio Copy\FLAC\FLAC.EXE
Additional command line options : -8 -V -T "ARTIST=%artist%" -T "TITLE=%title%" -T "ALBUM=%albumtitle%" -T "DATE=%year%" -T "TRACKNUMBER=%tracknr%" -T "GENRE=%genre%" -T "COMMENT=%comment%" -T "BAND=%albuminterpret%" -T "ALBUMARTIST=%albuminterpret%" -T "COMPOSER=%composer%" %haslyrics%--tag-from-file=LYRICS="%lyricsfile%"%haslyrics% -T "DISCNUMBER=%cdnumber%" -T "TOTALDISCS=%totalcds%" -T "TOTALTRACKS=%numtracks%" %hascover%--picture="%coverfile%"%hascover% %source% -o %dest%

TOC of the extracted CD

Track | Start | Length | Start sector | End sector
---------------------------------------------------------
1 | 0:00.00 | 3:04.40 | 0 | 13839
2 | 3:04.40 | 3:57.55 | 13840 | 31669
3 | 7:02.20 | 2:56.15 | 31670 | 44884
4 | 9:58.35 | 4:50.57 | 44885 | 66691
5 | 14:49.17 | 4:27.15 | 66692 | 86731
6 | 19:16.32 | 3:41.43 | 86732 | 103349
7 | 22:58.00 | 2:25.67 | 103350 | 114291
8 | 25:23.67 | 3:53.13 | 114292 | 131779
9 | 29:17.05 | 4:09.60 | 131780 | 150514
10 | 33:26.65 | 5:23.12 | 150515 | 174751
11 | 38:50.02 | 3:05.73 | 174752 | 188699
12 | 41:56.00 | 3:16.37 | 188700 | 203436
13 | 45:12.37 | 4:55.20 | 203437 | 225581

Track 1

Filename F:\Boogie Down Productions - 1989 - Ghetto Music The Blueprint Of Hip Hop (Promo) (29B2-81) (JP)\01 - The Style You Haven't Done Yet.wav

Pre-gap length 0:00:02.00

Peak level 85.4 %
Extraction speed 4.0 X
Track quality 100.0 %
Test CRC FA4D486E
Copy CRC FA4D486E
Track not present in AccurateRip database
Copy OK

Track 2

Filename F:\Boogie Down Productions - 1989 - Ghetto Music The Blueprint Of Hip Hop (Promo) (29B2-81) (JP)\02 - Why Is That.wav

Pre-gap length 0:00:02.25

Peak level 100.0 %
Extraction speed 3.7 X
Track quality 99.9 %
Test CRC D4CD4943
Copy CRC D4CD4943
Track not present in AccurateRip database
Copy OK

Track 3

Filename F:\Boogie Down Productions - 1989 - Ghetto Music The Blueprint Of Hip Hop (Promo) (29B2-81) (JP)\03 - The Blueprint.wav

Pre-gap length 0:00:01.03

Peak level 77.5 %
Extraction speed 4.5 X
Track quality 100.0 %
Test CRC 80B9744E
Copy CRC 80B9744E
Track not present in AccurateRip database
Copy OK

Track 4

Filename F:\Boogie Down Productions - 1989 - Ghetto Music The Blueprint Of Hip Hop (Promo) (29B2-81) (JP)\04 - Jack Of Spades.wav

Peak level 80.8 %
Extraction speed 5.4 X
Track quality 100.0 %
Test CRC 521F43E5
Copy CRC 521F43E5
Track not present in AccurateRip database
Copy OK

Track 5

Filename F:\Boogie Down Productions - 1989 - Ghetto Music The Blueprint Of Hip Hop (Promo) (29B2-81) (JP)\05 - Jah Rulez.wav

Pre-gap length 0:00:01.52

Peak level 80.9 %
Extraction speed 5.8 X
Track quality 100.0 %
Test CRC 0B61BE39
Copy CRC 0B61BE39
Track not present in AccurateRip database
Copy OK

Track 6

Filename F:\Boogie Down Productions - 1989 - Ghetto Music The Blueprint Of Hip Hop (Promo) (29B2-81) (JP)\06 - Breath Control.wav

Pre-gap length 0:00:02.02

Peak level 89.3 %
Extraction speed 6.0 X
Track quality 100.0 %
Test CRC 4604BAE9
Copy CRC 4604BAE9
Track not present in AccurateRip database
Copy OK

Track 7

Filename F:\Boogie Down Productions - 1989 - Ghetto Music The Blueprint Of Hip Hop (Promo) (29B2-81) (JP)\07 - Who Protects Us From You.wav

Pre-gap length 0:00:02.10

Peak level 64.6 %
Extraction speed 5.8 X
Track quality 100.0 %
Test CRC F2CB2FAC
Copy CRC F2CB2FAC
Track not present in AccurateRip database
Copy OK

Track 8

Filename F:\Boogie Down Productions - 1989 - Ghetto Music The Blueprint Of Hip Hop (Promo) (29B2-81) (JP)\08 - You Must Learn.wav

Peak level 53.2 %
Extraction speed 6.4 X
Track quality 100.0 %
Test CRC 4C7BE773
Copy CRC 4C7BE773
Track not present in AccurateRip database
Copy OK

Track 9

Filename F:\Boogie Down Productions - 1989 - Ghetto Music The Blueprint Of Hip Hop (Promo) (29B2-81) (JP)\09 - Hip Hop Rules.wav

Pre-gap length 0:00:01.20

Peak level 39.8 %
Extraction speed 6.8 X
Track quality 100.0 %
Test CRC 0BAC9A6B
Copy CRC 0BAC9A6B
Track not present in AccurateRip database
Copy OK

Track 10

Filename F:\Boogie Down Productions - 1989 - Ghetto Music The Blueprint Of Hip Hop (Promo) (29B2-81) (JP)\10 - BO! BO! BO!.wav

Pre-gap length 0:00:01.70

Peak level 56.4 %
Extraction speed 7.4 X
Track quality 100.0 %
Test CRC 3BDE7EA1
Copy CRC 3BDE7EA1
Track not present in AccurateRip database
Copy OK

Track 11

Filename F:\Boogie Down Productions - 1989 - Ghetto Music The Blueprint Of Hip Hop (Promo) (29B2-81) (JP)\11 - Gimme, Dat, (Woy).wav

Pre-gap length 0:00:01.55

Peak level 49.3 %
Extraction speed 7.1 X
Track quality 100.0 %
Test CRC 6194EDD5
Copy CRC 6194EDD5
Track not present in AccurateRip database
Copy OK

Track 12

Filename F:\Boogie Down Productions - 1989 - Ghetto Music The Blueprint Of Hip Hop (Promo) (29B2-81) (JP)\12 - Ghetto Music.wav

Pre-gap length 0:00:01.53

Peak level 77.4 %
Extraction speed 7.2 X
Track quality 100.0 %
Test CRC 5D13645F
Copy CRC 5D13645F
Track not present in AccurateRip database
Copy OK

Track 13

Filename F:\Boogie Down Productions - 1989 - Ghetto Music The Blueprint Of Hip Hop (Promo) (29B2-81) (JP)\13 - World Peace.wav

Pre-gap length 0:00:01.35

Peak level 81.2 %
Extraction speed 7.9 X
Track quality 100.0 %
Test CRC AA32AF87
Copy CRC AA32AF87
Track not present in AccurateRip database
Copy OK

None of the tracks are present in the AccurateRip database

No errors occurred

End of status report

---- CUETools DB Plugin V2.1.6

[CTDB TOCID: jhkamkPP7P2c5.H7toIEiUlEy2s-] found
Submit result: jhkamkPP7P2c5.H7toIEiUlEy2s- has been confirmed
Track | CTDB Status
1 | (1/1) Accurately ripped
2 | (1/1) Accurately ripped
3 | (1/1) Accurately ripped
4 | (1/1) Accurately ripped
5 | (1/1) Accurately ripped
6 | (1/1) Accurately ripped
7 | (1/1) Accurately ripped
8 | (1/1) Accurately ripped
9 | (1/1) Accurately ripped
10 | (1/1) Accurately ripped
11 | (1/1) Accurately ripped
12 | (1/1) Accurately ripped
13 | (1/1) Accurately ripped

==== Log checksum B5E0C7A9DF67623FE2C4CB9AE588DCFBFC8573E2084C0819869640741033D511 ====
REM GENRE Hip-Hop
REM DATE 1989
REM DISCID A30BBF0D
REM COMMENT "ExactAudioCopy v1.1"
PERFORMER "Boogie Down Productions"
TITLE "Ghetto Music The Blueprint Of Hip Hop"
FILE "01 - The Style You Haven't Done Yet.wav" WAVE
TRACK 01 AUDIO
TITLE "The Style You Haven't Done Yet"
PERFORMER "Boogie Down Productions"
INDEX 01 00:00:00
TRACK 02 AUDIO
TITLE "Why Is That"
PERFORMER "Boogie Down Productions"
INDEX 00 03:02:15
FILE "02 - Why Is That.wav" WAVE
INDEX 01 00:00:00
TRACK 03 AUDIO
TITLE "The Blueprint"
PERFORMER "Boogie Down Productions"
INDEX 00 03:56:52
FILE "03 - The Blueprint.wav" WAVE
INDEX 01 00:00:00
FILE "04 - Jack Of Spades.wav" WAVE
TRACK 04 AUDIO
TITLE "Jack Of Spades"
PERFORMER "Boogie Down Productions"
INDEX 01 00:00:00
TRACK 05 AUDIO
TITLE "Jah Rulez"
PERFORMER "Boogie Down Productions"
INDEX 00 04:49:05
FILE "05 - Jah Rulez.wav" WAVE
INDEX 01 00:00:00
TRACK 06 AUDIO
TITLE "Breath Control"
PERFORMER "Boogie Down Productions"
INDEX 00 04:25:13
FILE "06 - Breath Control.wav" WAVE
INDEX 01 00:00:00
TRACK 07 AUDIO
TITLE "Who Protects Us From You"
PERFORMER "Boogie Down Productions"
INDEX 00 03:39:33
FILE "07 - Who Protects Us From You.wav" WAVE
INDEX 01 00:00:00
FILE "08 - You Must Learn.wav" WAVE
TRACK 08 AUDIO
TITLE "You Must Learn"
PERFORMER "Boogie Down Productions"
INDEX 01 00:00:00
TRACK 09 AUDIO
TITLE "Hip Hop Rules"
PERFORMER "Boogie Down Productions"
INDEX 00 03:51:68
FILE "09 - Hip Hop Rules.wav" WAVE
INDEX 01 00:00:00
TRACK 10 AUDIO
TITLE "BO! BO! BO!"
PERFORMER "Boogie Down Productions"
INDEX 00 04:07:65
FILE "10 - BO! BO! BO!.wav" WAVE
INDEX 01 00:00:00
TRACK 11 AUDIO
TITLE "Gimme, Dat, (Woy)"
PERFORMER "Boogie Down Productions"
INDEX 00 05:21:32
FILE "11 - Gimme, Dat, (Woy).wav" WAVE
INDEX 01 00:00:00
TRACK 12 AUDIO
TITLE "Ghetto Music"
PERFORMER "Boogie Down Productions"
INDEX 00 03:04:20
FILE "12 - Ghetto Music.wav" WAVE
INDEX 01 00:00:00
TRACK 13 AUDIO
TITLE "World Peace"
PERFORMER "Boogie Down Productions"
INDEX 00 03:15:02
FILE "13 - World Peace.wav" WAVE
INDEX 01 00:00:00
info [Профиль]  [ЛС] 
Показать сообщения:    
Ответить на тему

Текущее время: 24-Май 14:00

Часовой пояс: GMT + 4



Вы не можете начинать темы
Вы не можете отвечать на сообщения
Вы не можете редактировать свои сообщения
Вы не можете удалять свои сообщения
Вы не можете голосовать в опросах
Вы не можете прикреплять файлы к сообщениям
Вы не можете скачивать файлы