Ошибка

(Hip-Hop) [CD] ¡Mayday! & Murs - Mursday [Deluxe Edition] - 2014, FLAC (tracks+.cue), lossless

Ответить на тему
 
Автор Сообщение

DarK_Knight96

Пол: Пол:Муж

Стаж: 5 месяцев

Сообщений: 375

Россия
Рейтинг

post 12-Май-2024 10:52 0[+]

[Цитировать] 



¡Mayday! & Murs / Mursday [Deluxe Edition]




Жанр: Hip-Hop

Год издания: June 10, 2014

Формат/Кодек:: FLAC (*.flac)

Производитель диска:: USA

Количество треков: 16

Битрейт аудио: 1024 kbps

Продолжительность: 00:56:03

01. Intro
02. Tabletops
03. Zones
04. My Own Parade
05. New Toys (Hey Love)
06. Brand New Get Up
07. You Again
08. Serge’s Song
09. Beast Out the Box
10. Bitcoin Beezy
11. Here
12. New Years Day
13. Spiked Punch
14. Outro
15. Fools Gold
16. Give You My All
Exact Audio Copy V1.0 beta 3 from 29. August 2011

EAC extraction logfile from 17. June 2014, 19:51

¡Mayday! x Murs / ¡MursDay!

Used drive : ASUS DRW-24B1ST a Adapter: 4 ID: 0

Read mode : Secure
Utilize accurate stream : Yes
Defeat audio cache : Yes
Make use of C2 pointers : No

Read offset correction : 6
Overread into Lead-In and Lead-Out : No
Fill up missing offset samples with silence : Yes
Delete leading and trailing silent blocks : No
Null samples used in CRC calculations : Yes
Used interface : Native Win32 interface for Win NT & 2000
Gap handling : Appended to previous track

Used output format : User Defined Encoder
Selected bitrate : 1024 kBit/s
Quality : High
Add ID3 tag : No
Command line compressor : C:\Program Files (x86)\Exact Audio Copy\Flac\flac.exe
Additional command line options : -8 -V -T "ARTIST=%artist%" -T "TITLE=%title%" -T "ALBUM=%albumtitle%" -T "DATE=%year%" -T "TRACKNUMBER=%tracknr%" -T "GENRE=%genre%" -T "PERFORMER=%albuminterpret%" -T "COMPOSER=%composer%" %haslyrics%--tag-from-file=LYRICS="%lyricsfile%"%haslyrics% -T "ALBUMARTIST=%albumartist%" -T "DISCNUMBER=%cdnumber%" -T "TOTALDISCS=%totalcds%" -T "TOTALTRACKS=%numtracks%" -T "COMMENT=%comment%" %source% -o %dest%

TOC of the extracted CD

Track | Start | Length | Start sector | End sector
---------------------------------------------------------
1 | 0:00.00 | 0:58.39 | 0 | 4388
2 | 0:58.39 | 2:46.15 | 4389 | 16853
3 | 3:44.54 | 3:30.72 | 16854 | 32675
4 | 7:15.51 | 3:30.01 | 32676 | 48426
5 | 10:45.52 | 3:23.66 | 48427 | 63717
6 | 14:09.43 | 4:18.17 | 63718 | 83084
7 | 18:27.60 | 4:57.11 | 83085 | 105370
8 | 23:24.71 | 2:45.63 | 105371 | 117808
9 | 26:10.59 | 4:59.11 | 117809 | 140244
10 | 31:09.70 | 3:44.24 | 140245 | 157068
11 | 34:54.19 | 3:41.09 | 157069 | 173652
12 | 38:35.28 | 4:56.01 | 173653 | 195853
13 | 43:31.29 | 3:02.10 | 195854 | 209513
14 | 46:33.39 | 3:09.30 | 209514 | 223718
15 | 49:42.69 | 3:08.71 | 223719 | 237889
16 | 52:51.65 | 3:11.20 | 237890 | 252234

Track 1

Filename H:\EAC Rips\¡Mayday! & Murs - Mursday (2014) [FLAC]\ 01 - Intro.wav

Pre-gap length 0:00:02.00

Peak level 98.8 %
Extraction speed 2.3 X
Track quality 100.0 %
Test CRC 1D26293F
Copy CRC 1D26293F
Track not present in AccurateRip database
Copy OK

Track 2

Filename H:\EAC Rips\¡Mayday! & Murs - Mursday (2014) [FLAC]\ 02 - Tabletops.wav

Peak level 100.0 %
Extraction speed 3.2 X
Track quality 100.0 %
Test CRC E0B16AD6
Copy CRC E0B16AD6
Track not present in AccurateRip database
Copy OK

Track 3

Filename H:\EAC Rips\¡Mayday! & Murs - Mursday (2014) [FLAC]\ 03 - Zones.wav

Peak level 100.0 %
Extraction speed 3.7 X
Track quality 100.0 %
Test CRC 20CE7C6B
Copy CRC 20CE7C6B
Track not present in AccurateRip database
Copy OK

Track 4

Filename H:\EAC Rips\¡Mayday! & Murs - Mursday (2014) [FLAC]\ 04 - My Own Parade.wav

Peak level 98.8 %
Extraction speed 3.9 X
Track quality 100.0 %
Test CRC 96AF23D3
Copy CRC 96AF23D3
Track not present in AccurateRip database
Copy OK

Track 5

Filename H:\EAC Rips\¡Mayday! & Murs - Mursday (2014) [FLAC]\ 05 - New Toys (Hey Love).wav

Peak level 98.8 %
Extraction speed 4.1 X
Track quality 100.0 %
Test CRC 1B1B6EBE
Copy CRC 1B1B6EBE
Track not present in AccurateRip database
Copy OK

Track 6

Filename H:\EAC Rips\¡Mayday! & Murs - Mursday (2014) [FLAC]\ 06 - Brand New Get Up.wav

Peak level 98.8 %
Extraction speed 4.6 X
Track quality 100.0 %
Test CRC E060320B
Copy CRC E060320B
Track not present in AccurateRip database
Copy OK

Track 7

Filename H:\EAC Rips\¡Mayday! & Murs - Mursday (2014) [FLAC]\ 07 - You Again.wav

Peak level 98.8 %
Extraction speed 4.2 X
Track quality 99.9 %
Test CRC 07FE4BC2
Copy CRC 07FE4BC2
Track not present in AccurateRip database
Copy OK

Track 8

Filename H:\EAC Rips\¡Mayday! & Murs - Mursday (2014) [FLAC]\ 08 - Serge’s Song.wav

Peak level 98.8 %
Extraction speed 4.8 X
Track quality 100.0 %
Test CRC 801B495A
Copy CRC 801B495A
Track not present in AccurateRip database
Copy OK

Track 9

Filename H:\EAC Rips\¡Mayday! & Murs - Mursday (2014) [FLAC]\ 09 - Beast out the Box.wav

Peak level 100.0 %
Extraction speed 4.5 X
Track quality 99.9 %
Test CRC C3C3D1D8
Copy CRC C3C3D1D8
Track not present in AccurateRip database
Copy OK

Track 10

Filename H:\EAC Rips\¡Mayday! & Murs - Mursday (2014) [FLAC]\ 10 - Bitcoin Beezy.wav

Peak level 98.8 %
Extraction speed 5.5 X
Track quality 100.0 %
Test CRC 0FDBEFC6
Copy CRC 0FDBEFC6
Track not present in AccurateRip database
Copy OK

Track 11

Filename H:\EAC Rips\¡Mayday! & Murs - Mursday (2014) [FLAC]\ 11 - Here.wav

Peak level 98.8 %
Extraction speed 4.5 X
Track quality 99.9 %
Test CRC DFA7864E
Copy CRC DFA7864E
Track not present in AccurateRip database
Copy OK

Track 12

Filename H:\EAC Rips\¡Mayday! & Murs - Mursday (2014) [FLAC]\ 12 - New Years Day.wav

Peak level 98.8 %
Extraction speed 6.2 X
Track quality 100.0 %
Test CRC D436CF93
Copy CRC D436CF93
Track not present in AccurateRip database
Copy OK

Track 13

Filename H:\EAC Rips\¡Mayday! & Murs - Mursday (2014) [FLAC]\ 13 - Spiked Punch.wav

Peak level 98.8 %
Extraction speed 6.0 X
Track quality 100.0 %
Test CRC 9DBF672A
Copy CRC 9DBF672A
Track not present in AccurateRip database
Copy OK

Track 14

Filename H:\EAC Rips\¡Mayday! & Murs - Mursday (2014) [FLAC]\ 14 - Outro.wav

Peak level 98.8 %
Extraction speed 6.1 X
Track quality 100.0 %
Test CRC E8A44B84
Copy CRC E8A44B84
Track not present in AccurateRip database
Copy OK

Track 15

Filename H:\EAC Rips\¡Mayday! & Murs - Mursday (2014) [FLAC]\ 15 - Fools Gold.wav

Pre-gap length 0:00:06.18

Peak level 98.8 %
Extraction speed 6.3 X
Track quality 100.0 %
Test CRC F24A22C7
Copy CRC F24A22C7
Track not present in AccurateRip database
Copy OK

Track 16

Filename H:\EAC Rips\¡Mayday! & Murs - Mursday (2014) [FLAC]\ 16 - Give You My All.wav

Peak level 98.8 %
Extraction speed 4.9 X
Track quality 99.9 %
Test CRC CBEA299F
Copy CRC CBEA299F
Track not present in AccurateRip database
Copy OK

None of the tracks are present in the AccurateRip database

No errors occurred

End of status report

---- CUETools DB Plugin V2.1.3

[CTDB TOCID: Mm15bHr4bBtRXLhlKL7OmQ_j2sY-] found, Submit result: Mm15bHr4bBtRXLhlKL7OmQ_j2sY- has been confirmed
[c232b974] (2/2) Accurately ripped

==== Log checksum DC6C71CC1934EDD5FCB27BCB908B4D6AAE30D58A422F9A7DC81C6495F3A3455E ====
REM GENRE Hip-Hop
REM DATE 2014
REM DISCID DB0D2310
REM COMMENT "ExactAudioCopy v1.0b3"
PERFORMER "ЎMayday! x Murs"
TITLE "ЎMursDay!"
FILE " 01. Intro.wav" WAVE
TRACK 01 AUDIO
TITLE "Intro"
PERFORMER "ЎMayday! x Murs"
ISRC USQY51470837
INDEX 01 00:00:00
FILE " 02. Tabletops.wav" WAVE
TRACK 02 AUDIO
TITLE "Tabletops"
PERFORMER "ЎMayday! x Murs"
ISRC USQY51470838
INDEX 01 00:00:00
FILE " 03. Zones.wav" WAVE
TRACK 03 AUDIO
TITLE "Zones"
PERFORMER "ЎMayday! x Murs"
ISRC USQY51470839
INDEX 01 00:00:00
FILE " 04. My Own Parade.wav" WAVE
TRACK 04 AUDIO
TITLE "My Own Parade"
PERFORMER "ЎMayday! x Murs"
ISRC USQY51470840
INDEX 01 00:00:00
FILE " 05. New Toys (Hey Love).wav" WAVE
TRACK 05 AUDIO
TITLE "New Toys (Hey Love)"
PERFORMER "ЎMayday! x Murs"
ISRC USQY51470841
INDEX 01 00:00:00
FILE " 06. Brand New Get Up.wav" WAVE
TRACK 06 AUDIO
TITLE "Brand New Get Up"
PERFORMER "ЎMayday! x Murs"
ISRC USQY51470842
INDEX 01 00:00:00
FILE " 07. You Again.wav" WAVE
TRACK 07 AUDIO
TITLE "You Again"
PERFORMER "ЎMayday! x Murs"
ISRC USQY51470843
INDEX 01 00:00:00
FILE " 08. Serge’s Song.wav" WAVE
TRACK 08 AUDIO
TITLE "Serge’s Song"
PERFORMER "ЎMayday! x Murs"
ISRC USQY51470844
INDEX 01 00:00:00
FILE " 09. Beast Out the Box.wav" WAVE
TRACK 09 AUDIO
TITLE "Beast Out the Box"
PERFORMER "ЎMayday! x Murs"
ISRC USQY51470845
INDEX 01 00:00:00
FILE " 10. Bitcoin Beezy.wav" WAVE
TRACK 10 AUDIO
TITLE "Bitcoin Beezy"
PERFORMER "ЎMayday! x Murs"
ISRC USQY51470846
INDEX 01 00:00:00
FILE " 11. Here.wav" WAVE
TRACK 11 AUDIO
TITLE "Here"
PERFORMER "ЎMayday! x Murs"
ISRC USQY51470847
INDEX 01 00:00:00
FILE " 12. New Years Day.wav" WAVE
TRACK 12 AUDIO
TITLE "New Years Day"
PERFORMER "ЎMayday! x Murs"
ISRC USQY51470848
INDEX 01 00:00:00
FILE " 13. Spiked Punch.wav" WAVE
TRACK 13 AUDIO
TITLE "Spiked Punch"
PERFORMER "ЎMayday! x Murs"
ISRC USQY51470849
INDEX 01 00:00:00
FILE " 14. Outro.wav" WAVE
TRACK 14 AUDIO
TITLE "Outro"
PERFORMER "ЎMayday! x Murs"
ISRC USQY51470850
INDEX 01 00:00:00
TRACK 15 AUDIO
TITLE "Fools Gold"
PERFORMER "ЎMayday! x Murs"
ISRC USQY51470851
INDEX 00 03:03:16
FILE " 15. Fools Gold.wav" WAVE
INDEX 01 00:00:00
FILE " 16. Give You My All.wav" WAVE
TRACK 16 AUDIO
TITLE "Give You My All"
PERFORMER "ЎMayday! x Murs"
ISRC USQY51470852
INDEX 01 00:00:00
info [Профиль]  [ЛС] 
Показать сообщения:    
Ответить на тему

Текущее время: 22-Май 18:08

Часовой пояс: GMT + 4



Вы не можете начинать темы
Вы не можете отвечать на сообщения
Вы не можете редактировать свои сообщения
Вы не можете удалять свои сообщения
Вы не можете голосовать в опросах
Вы не можете прикреплять файлы к сообщениям
Вы не можете скачивать файлы