Ошибка

(Electronic, Lounge, ChillOut, Downtempo) Ethernal Motion Downtempo: Chillout Your Mind - 2024, FLAC (tracks)+cover, lossless

Ответить на тему
 
Автор Сообщение

DarK_Knight96

Пол: Пол:Муж

Стаж: 4 месяца 30 дней

Сообщений: 375

Россия
Рейтинг

post 08-Май-2024 18:25 0[+]

[Цитировать] 



VA - Ethernal Motion Downtempo: Chillout Your Mind
pic="https://img.zannn.top/thumbnail1/width/250/file/http://i123.fastpic.org/big/2024/0508/7b/1379bd60cb012f1976d835aca2518b7b.jpg"
Жанр: Electronic, Lounge, ChillOut, Downtempo

Год издания данного носителя: 2024

Страна-производитель носителя: США

Аудио кодек: FLAC

Тип рипа: Tracks

Битрейт аудио: lossless

Продолжительность: 01:04:14

Издатель (лейбл): Chill 'N Chill Records

• 01. Dellasollounge - Odyssey (5:53)
• 02. Matt Sour - One Thought (Binaural) (4:14)
• 03. Incognita Alma - Rendez Vous (5:52)
• 04. Dj Shan - Ethernal Motion (Original Mix) (3:22)
• 05. Coskun Umut Oruc - Istanbulounge (3:48)
• 06. Sole Spirit - Saturn 88 (3:38)
• 07. Mialuna, Marga Sol - The One (Original Mix) (4:25)
• 08. Incognita Alma - Sentiment (6:24)
• 09. Sole Spirit, Red Silver, Toryn - World in Your Eyes (Ambient Mix) (3:27)
• 10. Prana Tones - Eastern Piano (Original Mix) (4:52)
• 11. Martin Hiska, Michael Moses - Call of the Sea (3:52)
• 12. Matt Sour - Unknown Future (Original Mix) (3:50)
• 13. Will James - Capri (4:34)
• 14. FIN Project - A Lifetime of Freedom (6:04)

Код:

-----------------------
DON'T MODIFY THIS FILE
-----------------------

PERFORMER: auCDtect Task Manager, ver. 1.6.0 RC1 build 1.6.0.1
Copyright (c) 2008-2010 y-soft. All rights reserved
http://y-soft.org

ANALYZER: auCDtect: CD records authenticity detector, version 0.8.2
Copyright (c) 2004 Oleg Berngardt. All rights reserved.
Copyright (c) 2004 Alexander Djourik. All rights reserved.

FILE: 14 - FIN Project - A Lifetime of Freedom.flac
Size: 24282872 Hash: 935F81D34FDDDF37B69AF92921DD5CEA Accuracy: -m0
Conclusion: CDDA 100%
Signature: FE9E743831633A32F28A2D80C9128CDB26DC38D6
FILE: 13 - Will James - Capri.flac
Size: 30158411 Hash: DE102DE36D1D5DF0230B5FC61797505D Accuracy: -m0
Conclusion: CDDA 100%
Signature: 7BE42FF7362BD4E71A95DD955CF907128AA208D6
FILE: 12 - Matt Sour - Unknown Future (Original Mix).flac
Size: 23466286 Hash: 8B244CF75416C1975345443939EBDCE6 Accuracy: -m0
Conclusion: CDDA 100%
Signature: E812CAD00A65DCE50824B7458A42E03172D20B35
FILE: 11 - Martin Hiska, Michael Moses - Call of the Sea.flac
Size: 26750492 Hash: 24FD9F6313DD09331FA6C9CDAFF2BB41 Accuracy: -m0
Conclusion: CDDA 99%
Signature: 2B935CB442ED2731344442984B371E2077369197
FILE: 10 - Prana Tones - Eastern Piano (Original Mix).flac
Size: 29374001 Hash: 62FE59D069AA90E9B7982AE20F9B1323 Accuracy: -m0
Conclusion: CDDA 100%
Signature: F7D320876D9643F7D31BE16D510D7CF5DCA22BCE
FILE: 09 - Sole Spirit, Red Silver, Toryn - World in Your Eyes (Ambient Mix).flac
Size: 19233143 Hash: 5B986C47DA2FD6DA57670D2C75032554 Accuracy: -m0
Conclusion: CDDA 100%
Signature: C1901594EC78D2CC52CA4800D56A1E94CF9DF652
FILE: 08 - Incognita Alma - Sentiment.flac
Size: 43769394 Hash: F3BB0E6D658324747334EE43E0A1DEDD Accuracy: -m0
Conclusion: CDDA 100%
Signature: 2AB57667F564EA1701ECE9AD11C4014425686812
FILE: 07 - Mialuna, Marga Sol - The One (Original Mix).flac
Size: 26199331 Hash: 4BC2649EE69A4A8C0B1320A79C42059E Accuracy: -m0
Conclusion: CDDA 100%
Signature: 2E28BC4AA92841A33F71141FA7AC31BCA02C5BE4
FILE: 06 - Sole Spirit - Saturn 88.flac
Size: 20151015 Hash: B91E7666335AEF57B2C06B2165D2668D Accuracy: -m0
Conclusion: CDDA 100%
Signature: F6C2A81E2EE75DCA0FC285F75D7A6535A1F58ABD
FILE: 05 - Coskun Umut Oruc - Istanbulounge.flac
Size: 23291476 Hash: FFB47957F9C1AD90AA564C85FFDC9AA8 Accuracy: -m0
Conclusion: CDDA 100%
Signature: 637116CE2B30D9C5F8DA59AA7B55E7A2BA9E9710
FILE: 04 - Dj Shan - Ethernal Motion (Original Mix).flac
Size: 21397245 Hash: 5DD00955DAED4E927A484142257DA450 Accuracy: -m0
Conclusion: MPEG 95%
Signature: 1E3A670C68824F38BB499FF972CE276E39B6A145
FILE: 03 - Incognita Alma - Rendez Vous.flac
Size: 38893188 Hash: 5BDF93E162D0530554D09255B6E524F3 Accuracy: -m0
Conclusion: CDDA 100%
Signature: CA88D8CF11AAFB6F82D4997D3B9F3402F5FA6759
FILE: 02 - Matt Sour - One Thought (Binaural).flac
Size: 21237853 Hash: 0EE3823C6CDADF40DD48B40326C9B684 Accuracy: -m0
Conclusion: MPEG 97%
Signature: 6EA423D0BDAC02BA6D185760A712763BF8FF9AEC
FILE: 01 - Dellasollounge - Odyssey.flac
Size: 36246440 Hash: 0AA74706AF0DDC4F2906223F80C30924 Accuracy: -m0
Conclusion: CDDA 100%
Signature: 1875F1B55E2A8F553FE37CFF2F49C9CD03844C24
======================================================================[/code]

Код:

foobar2000 1.6.12 / Замер динамического диапазона (DR) 1.1.1
Дата отчёта:    2024-05-08 11:42:52

--------------------------------------------------------------------------------
Анализ:   Coskun Umut Oruc / Ethernal Motion Downtempo: Chillout Your Mind (1)
          Dellasollounge / Ethernal Motion Downtempo: Chillout Your Mind (2)
          Dj Shan / Ethernal Motion Downtempo: Chillout Your Mind (3)
          FIN Project / Ethernal Motion Downtempo: Chillout Your Mind (4)
          Incognita Alma / Ethernal Motion Downtempo: Chillout Your Mind (5-6)
          Martin Hiska, Michael Moses / Ethernal Motion Downtempo: Chillout Your Mind (7)
          Matt Sour / Ethernal Motion Downtempo: Chillout Your Mind (8-9)
          Mialuna, Marga Sol / Ethernal Motion Downtempo: Chillout Your Mind (10)
          Prana Tones / Ethernal Motion Downtempo: Chillout Your Mind (11)
          Sole Spirit, Red Silver, Toryn / Ethernal Motion Downtempo: Chillout Your Mind (12)
          Sole Spirit / Ethernal Motion Downtempo: Chillout Your Mind (13)
          Will James / Ethernal Motion Downtempo: Chillout Your Mind (14)
--------------------------------------------------------------------------------

DR         Пики         RMS           Продолжительность трека
--------------------------------------------------------------------------------
DR8       -0.10 дБ   -10.19 дБ      3:48 ?-Istanbulounge
DR9       -0.17 дБ   -11.53 дБ      5:53 ?-Odyssey
DR5       -0.10 дБ    -7.23 дБ      3:22 ?-Ethernal Motion (Original Mix)
DR7       -0.01 дБ    -8.45 дБ      6:04 ?-A Lifetime of Freedom
DR6       -1.00 дБ   -10.15 дБ      5:52 ?-Rendez Vous
DR7       -1.00 дБ   -10.76 дБ      6:24 ?-Sentiment
DR7        0.00 дБ    -8.12 дБ      3:52 ?-Call of the Sea
DR7       -0.10 дБ    -7.85 дБ      4:14 ?-One Thought (Binaural)
DR9       -0.10 дБ   -10.84 дБ      3:50 ?-Unknown Future (Original Mix)
DR6        0.00 дБ    -8.18 дБ      4:25 ?-The One (Original Mix)
DR8        0.00 дБ   -10.74 дБ      4:52 ?-Eastern Piano (Original Mix)
DR10       0.00 дБ   -13.24 дБ      3:27 ?-World in Your Eyes (Ambient Mix)
DR8        0.00 дБ    -8.78 дБ      3:38 ?-Saturn 88
DR7        0.00 дБ   -10.41 дБ      4:34 ?-Capri
--------------------------------------------------------------------------------

Количество треков:  14
Реальные значения DR:  DR7

Частота:      44100 Гц
Каналов:      2
Разрядность:     16
Битрейт:      878 кбит/с
Кодек:      FLAC
================================================================================
info [Профиль]  [ЛС] 
Показать сообщения:    
Ответить на тему

Текущее время: 21-Май 13:38

Часовой пояс: GMT + 4



Вы не можете начинать темы
Вы не можете отвечать на сообщения
Вы не можете редактировать свои сообщения
Вы не можете удалять свои сообщения
Вы не можете голосовать в опросах
Вы не можете прикреплять файлы к сообщениям
Вы не можете скачивать файлы